#TITLE:Corrupted;
#SUBTITLE:;
#ARTIST:Signalrunners;
#TITLETRANSLIT:;
#SUBTITLETRANSLIT:;
#ARTISTTRANSLIT:;
#GENRE:Popular Songs;
#CREDIT:;
#BANNER:Corrupted.png;
#BACKGROUND:Corrupted-bg.png;
#LYRICSPATH:;
#CDTITLE:../cdtitle.png;
#MUSIC:Corrupted.ogg;
#OFFSET:-0.007000;
#SAMPLESTART:29.570999;
#SAMPLELENGTH:15.000000;
#SELECTABLE:YES;
#BPMS:0.000000=138.000000
;
#STOPS:
;
#BGCHANGES:-99.000=../bg.avi=1.000=0=0=1=====,
99999=-nosongbg-=1.000=0=0=0 // don't automatically add -songbackground-
;
#KEYSOUNDS:;
#ATTACKS:;

//---------------dance-single - ----------------
#NOTES:
     dance-single:
     :
     Hard:
     14:
     0.578996,0.661974,0.074058,0.161580,0.676617,602.000000,591.000000,11.000000,24.000000,0.000000,0.000000,0.578996,0.661974,0.074058,0.161580,0.676617,602.000000,591.000000,11.000000,24.000000,0.000000,0.000000:
// measure 0
0000
0000
0000
0000
,  // measure 1
0000
0000
0000
0000
,  // measure 2
0000
0000
0000
0000
,  // measure 3
0000
0000
0000
0000
,  // measure 4
0000
0000
0000
0000
,  // measure 5
0000
0000
0000
0000
,  // measure 6
0000
0000
0000
0000
,  // measure 7
0000
0000
0000
0000
,  // measure 8
0000
0000
0000
0000
,  // measure 9
1000
0010
0100
0010
1000
0010
0100
0001
,  // measure 10
1000
0001
0010
0001
1000
0001
0010
0100
,  // measure 11
1000
0100
0010
0100
1000
0100
0010
0001
,  // measure 12
1000
0001
0100
0001
1000
0001
0100
0010
,  // measure 13
1000
0100
0000
0000
0010
0000
0001
0000
1000
0100
0000
0000
0010
0000
0001
0000
,  // measure 14
1000
0100
0000
0000
0010
0000
0001
0000
1000
0100
0000
0000
0010
0000
0001
0000
,  // measure 15
0100
0010
0000
0000
1000
0000
0001
0000
0100
0010
0000
0000
1000
0000
0001
0000
,  // measure 16
0100
0010
0000
0000
1000
0000
0001
0000
0100
0010
0000
0000
1000
0000
0001
0000
,  // measure 17
0010
0000
0100
0000
0010
0000
0001
0000
1000
0100
0010
0100
0000
0000
1000
0000
,  // measure 18
0001
0000
0001
0000
0010
0000
0001
0000
0100
0010
1000
0010
0000
0000
0100
0000
,  // measure 19
0001
0000
0001
0000
1000
0000
0100
0000
0010
0001
0010
0100
0000
0000
1000
0000
,  // measure 20
0001
0000
0001
0000
0010
0000
0100
0000
1000
0010
0000
0000
0110
0000
0000
0100
,  // measure 21
0001
1000
0000
0100
0000
0000
0010
0000
0100
1000
0000
0000
1001
0000
0001
0000
,  // measure 22
0100
0010
0000
0000
1010
0000
1000
0000
0100
0010
0000
0000
0011
0000
0001
0000
,  // measure 23
1000
0100
0010
0001
0000
1000
0001
0000
0010
0001
0000
1000
0010
0000
0100
0000
,  // measure 24
0001
1000
0000
0100
1000
0000
0100
0000
0010
0100
0000
1000
0001
0000
0100
0000
,  // measure 25
0010
0000
0000
1000
0000
0000
0001
0000
0000
0010
0000
0000
0100
0000
0010
0000
0001
0000
0000
0000
0000
1000
0000
0000
,  // measure 26
0100
0000
1000
0000
0010
0000
0100
0000
0010
1000
0000
1000
0000
0000
0100
0000
,  // measure 27
0010
0000
0001
0000
1000
0000
0001
0000
0100
0001
1000
0010
0000
0000
0100
0000
,  // measure 28
0001
0000
0010
0000
1000
0000
0010
0000
0001
0010
0100
2000
0000
0000
3001
0000
,  // measure 29
0010
0100
0000
1000
0000
0000
0001
0000
1000
0100
0000
0000
0011
0000
0001
0000
,  // measure 30
0100
0010
0000
0000
1010
0000
1000
0000
0100
0010
0000
0000
0011
0000
0001
0000
,  // measure 31
1000
0100
0010
0001
0000
1000
0100
0000
1000
0001
0000
1000
0010
0000
0100
0000
,  // measure 32
0010
1000
0000
0010
1000
0000
0100
0000
0010
0000
0001
0100
0010
0000
1000
0000
,  // measure 33
2002
3000
0200
0300
,  // measure 34
0020
0003
0200
0030
,  // measure 35
2000
0000
0000
0000
,  // measure 36
0300
0000
0000
0000
,  // measure 37
3010
1000
0000
1000
0100
0000
0010
0000
0200
0000
0000
0000
0000
0000
0000
0000
,  // measure 38
2000
0300
0020
3000
,  // measure 39
0200
0000
0000
0000
,  // measure 40
0300
0000
0000
0000
,  // measure 41
1030
0100
0000
0010
0001
0000
1000
0000
0001
0010
0000
0100
1000
0000
0001
0000
,  // measure 42
0100
0010
0000
1000
0001
0000
0100
0000
0010
1000
0000
0100
0010
0000
0001
0000
,  // measure 43
1000
0010
0000
0100
0001
0000
1000
0000
0001
0100
0000
0010
1000
0000
0001
0000
,  // measure 44
0010
0100
0000
1000
0001
0000
0010
0000
0100
1000
0000
0010
0100
0000
0001
0000
,  // measure 45
1000
0001
0000
0001
0000
0100
0010
0000
1000
0100
0000
1000
0001
0000
0010
0001
,  // measure 46
1000
0000
0010
0100
0000
0001
0100
0000
0010
1000
0000
0001
1000
0000
0100
0010
,  // measure 47
0001
0000
0010
0100
0000
1000
0100
0000
0010
0001
0000
1000
0010
0000
0100
0000
,  // measure 48
2002
0000
0000
3003
,  // measure 49
1000
0000
0010
0000
0100
0000
0010
0000
1000
0100
0010
0001
0000
0000
1000
0000
,  // measure 50
0001
0000
0010
0000
0100
0000
0010
0000
0001
0100
0010
1000
0000
0000
0100
0000
,  // measure 51
0010
0000
0001
0000
0010
0000
0100
0000
1000
0001
0000
0001
0000
0000
0100
0000
,  // measure 52
0010
0000
0100
0000
1000
0000
0100
0000
0010
1000
0000
0000
1001
0000
0000
0001
,  // measure 53
0020
0000
0000
0100
0000
0000
0001
0000
0000
0001
0000
0000
0031
0000
0000
0100
,  // measure 54
0020
0000
0000
0100
0000
0000
1000
0030
0000
1000
0000
0000
0100
0000
0000
0010
,  // measure 55
0002
0000
0000
0010
0000
0000
0100
0000
0000
0100
0000
0000
0103
0000
0000
0010
,  // measure 56
2000
0000
0000
0100
0000
0000
0001
0000
0000
0001
0000
0000
3010
0000
1000
0000
,  // measure 57
0100
0000
0000
0010
0000
0000
0100
0000
0000
0001
0000
0000
0100
0000
1000
0000
0010
0000
0000
0000
0000
0010
0000
0000
,  // measure 58
0100
0000
0010
0000
0001
0000
0010
0000
1000
0001
0000
0001
0000
0000
0010
0000
,  // measure 59
1000
0000
0010
0000
0001
0000
0010
0000
0100
1000
0001
0010
0000
0000
0010
0000
,  // measure 60
0100
0000
1000
0000
0100
0000
0010
0000
0001
0100
0010
2000
0000
0000
3001
0000
,  // measure 61
0020
0000
0000
0100
0000
0000
0001
0030
0000
0001
0000
0000
0100
0000
0000
0010
,  // measure 62
2000
0000
0000
0100
0000
0000
0001
0000
0000
0001
0000
0000
3010
0000
0000
0100
,  // measure 63
0002
0000
0000
0010
0000
0000
1000
0000
0000
1000
0000
0000
1003
0000
0000
0100
,  // measure 64
0020
0000
0000
0100
0000
0000
0001
0000
0000
0001
0000
0000
0130
0000
1000
0000
,  // measure 65
1001
0000
0001
0010
0000
0010
0100
0000
1000
0001
0000
0100
0010
0000
1000
0010
,  // measure 66
1000
0000
1000
0001
0000
0001
0010
0000
0100
1000
0000
1000
0001
0000
0010
0100
,  // measure 67
0010
0000
0010
0001
0000
0001
1000
0000
1000
0010
0000
0010
0100
0000
0010
1000
,  // measure 68
0001
0000
0010
0100
0000
0100
0010
0000
0001
1000
0000
1000
0001
0000
0100
0010
,  // measure 69
1000
0000
1000
0100
0000
0100
0010
0000
0001
1000
0000
0010
0100
0000
0001
0100
,  // measure 70
0001
0000
0001
1000
0000
1000
0100
0000
0010
0001
0000
0001
1000
0000
0100
0010
,  // measure 71
0100
0000
0100
1000
0000
1000
0001
0000
0001
0100
0000
0100
0010
0000
0001
0010
,  // measure 72
0001
0000
0010
1000
0000
1000
0100
0000
0100
0010
0000
0010
0001
0000
0001
0100
,  // measure 73
0010
0000
0010
1000
0000
0001
0010
0000
0100
1000
0000
0100
0010
0000
0010
0001
,  // measure 74
1000
0000
0100
1000
0000
1000
0001
0000
0100
0010
0000
0010
1000
0000
0001
0010
,  // measure 75
0100
0000
1000
0010
0000
0010
1000
0000
0001
0100
0000
0100
0010
0000
1000
0100
,  // measure 76
0010
0000
0100
1000
0000
1000
0100
0000
0010
0001
0000
0001
0010
0000
0100
1000
,  // measure 77
0001
0000
0010
0100
0000
0010
1000
0000
0010
0100
0000
0010
0001
0000
1000
0010
,  // measure 78
1000
0000
0010
0100
0000
0010
0001
0000
0010
0100
0000
0010
1000
0000
0001
0010
,  // measure 79
0001
0000
0010
0100
0000
1000
0100
0000
0010
0001
0000
0100
0010
0000
1000
0001
,  // measure 80
0020
0000
0000
0000
0100
0000
0000
0000
0130
0000
0010
0000
0001
0100
0001
0100
,  // measure 81
0020
0000
0000
0000
1000
0000
0000
0000
1030
0000
0100
0000
0010
0001
0010
0001
;

//---------------dance-single - ----------------
#NOTES:
     dance-single:
     :
     Medium:
     9:
     0.347205,0.441653,0.154848,0.215440,0.026930,361.000000,338.000000,23.000000,32.000000,0.000000,0.000000,0.347205,0.441653,0.154848,0.215440,0.026930,361.000000,338.000000,23.000000,32.000000,0.000000,0.000000:
0000
0000
0000
0000
,
0000
0000
0000
0000
,
0000
0000
0000
0000
,
0000
0000
0000
0000
,
0000
0000
0000
0000
,
0000
0000
0000
0000
,
0000
0000
0000
0000
,
0000
0000
0000
0000
,
0000
0000
0000
0000
,
1000
1000
0001
0001
,
0100
0000
0100
0000
0010
0000
0010
1000
,
0001
0001
1000
1000
,
0100
0000
0100
0000
0010
0000
0010
0001
,
2000
3100
0002
0103
,
2000
3100
0002
0103
,
2000
3010
0002
0013
,
2000
0010
0000
3010
,
0100
0001
0010
0000
1100
0000
0101
0000
,
0010
1000
0100
0000
0011
0000
1010
0000
,
1000
0100
0001
0000
0001
0100
1000
0000
,
0001
1000
0010
0000
0011
0000
0101
0000
,
2100
0010
0000
0010
,
0000
0100
0000
0100
,
3001
0100
0010
0000
0100
0001
0010
0000
,
0100
1000
0010
0000
0210
0000
0310
0000
,
1000
0100
0010
0000
0100
1000
0001
0000
,
0001
0100
0010
0000
0100
0001
1000
0000
,
1000
0100
1000
0000
1000
0010
1000
0000
,
0001
0010
0001
0000
0001
0100
0010
1000
,
0002
0100
0000
0100
,
0000
0010
0000
0010
,
1003
0010
0100
0000
0010
1000
0100
0000
,
0010
0001
0100
0000
0100
1000
0100
0001
,
0020
0000
0230
0000
,
2300
0000
3020
0000
,
0000
0000
0000
0000
,
0030
0000
0000
0000
,
0000
0000
0200
0000
,
0302
0000
0023
0000
,
0000
0000
0000
0000
,
0030
0000
0000
0000
,
0001
1000
0001
0000
0200
0000
0010
0000
,
0320
1000
2030
0100
,
3001
0100
0001
0000
1000
0000
1000
0000
,
0100
0010
0100
0000
1000
0000
1000
0000
,
0001
0010
0100
0000
2000
0000
0001
0000
,
3002
0100
0203
0010
,
0310
1000
0100
0000
1000
0100
0001
0000
,
0220
0000
0000
0330
,
0001
1000
0100
0000
0001
0000
0011
0000
,
0001
0100
1000
0000
0010
0000
0110
0000
,
1000
0001
0010
0000
1000
0010
0001
0000
,
0100
0010
1000
0000
1100
0000
0101
0000
,
2100
0000
3001
0000
0100
0000
0001
0100
,
0010
0000
1000
0000
0010
0000
1000
0100
,
0010
0000
0100
0000
0010
0000
0100
1000
,
0001
1000
0001
1001
,
1000
0001
0010
0000
1000
0000
1100
0000
,
1000
0010
0001
0000
0100
0000
0110
0000
,
0001
1000
0100
0000
0001
0100
1000
0000
,
0010
0100
0001
0000
0011
0000
1010
0000
,
0012
0000
1003
0000
0010
0000
1000
0010
,
0100
0000
0001
0000
0100
0000
0001
0010
,
0100
0000
0010
0000
0100
0000
0010
0001
,
1000
0010
0200
0310
,
0110
0000
0000
1000
0010
0000
0100
0000
0010
0000
0010
0000
1000
0000
0000
0000
,
0001
0000
0000
0001
0010
0000
0100
0000
0010
0000
0010
0000
0001
0000
0000
0000
,
0010
0000
0000
0010
0100
0000
0000
0000
0010
0000
0100
0000
1000
0000
0000
0000
,
0010
0000
0000
0010
0100
0000
0000
0000
0010
0000
0100
0000
0001
0000
0000
0000
,
0010
0000
0000
0001
0010
0000
0100
0000
1000
0000
0100
0000
0010
0000
0000
0000
,
0100
0000
0000
1000
0100
0000
0010
0000
0001
0000
0100
0000
0010
0000
0000
0000
,
1000
0000
0000
0100
0010
0000
0000
0000
0100
0000
1000
0000
0001
0000
0000
0000
,
0010
0000
0000
0100
0010
0000
0000
0000
0001
0000
0100
0000
0010
0000
0000
0000
,
1000
0100
0001
0100
1000
0100
0010
0000
,
0001
0010
1000
0010
0001
0010
0100
0000
,
1000
1000
0010
0000
0100
0010
1000
0000
,
0100
0100
0010
0000
0100
1000
0001
0000
,
1000
0010
0001
0010
1000
0010
0100
0000
,
0001
0100
1000
0100
0001
0100
0010
0000
,
1000
1000
0100
0000
0001
0001
0100
0000
,
2002
0000
3003
0000
0001
1000
0010
0000
,
0220
0000
0000
0000
,
0330
0000
0000
0000
;

//---------------dance-single - ----------------
#NOTES:
     dance-single:
     :
     Easy:
     6:
     0.229867,0.331240,0.134650,0.383753,0.000000,239.000000,219.000000,20.000000,57.000000,0.000000,0.000000,0.229867,0.331240,0.134650,0.383753,0.000000,239.000000,219.000000,20.000000,57.000000,0.000000,0.000000:
0000
0000
0000
0000
,
0000
0000
0000
0000
,
0000
0000
0000
0000
,
0000
0000
0000
0000
,
0000
0000
0000
0000
,
0000
0000
0000
0000
,
0000
0000
0000
0000
,
0000
0000
0000
0000
,
0000
0000
0000
0000
,
1000
1000
0100
1000
,
0001
0001
0100
0010
,
1000
1000
0010
1000
,
0001
0001
0010
0100
,
2000
3000
0200
0300
,
0002
0003
0200
0300
,
2000
3000
0020
0030
,
0002
0003
0020
0030
,
1000
0010
1000
1100
,
0100
0001
0100
0110
,
0001
0010
0001
0101
,
0010
1000
0001
0001
,
2000
3000
0200
0300
,
0002
0003
0020
0030
,
1000
1000
0100
0100
,
0001
0100
1000
1001
,
0001
0010
0001
0101
,
0100
1000
0100
0110
,
1000
0010
1000
1100
,
0010
0001
1000
1000
,
0002
0003
0200
0300
,
2000
3000
0020
0030
,
0001
0001
0100
0100
,
1000
0100
0001
1000
,
0002
0000
0023
0000
,
0230
0000
2300
0000
,
0000
0000
0000
0000
,
3000
0000
0000
0000
,
0000
0000
0020
0000
,
0230
0000
0302
0000
,
0000
0000
0000
0000
,
0003
0000
0000
0000
,
1000
0000
2000
0000
,
3020
0000
0230
0000
,
0302
0000
0000
0000
,
2003
0000
0000
0000
,
3001
0000
0002
0000
,
0023
0000
0230
0000
,
2300
0000
0000
0000
,
0002
0000
0000
3003
,
1001
0100
0010
0010
,
1000
0100
1000
1000
,
0001
0101
1000
1100
,
0001
0100
0010
1000
,
0002
0100
0000
0100
,
2003
0100
0000
0100
,
3002
0010
0000
0010
,
2003
0010
0000
0010
,
3001
0010
1000
1000
,
0001
0100
1000
1000
,
0001
0011
1000
1010
,
0001
0010
1000
0010
,
0002
0010
0000
0010
,
2003
0100
0000
0100
,
3020
0100
0000
0100
,
2030
0000
3010
0200
,
0310
1001
0002
0100
,
2003
0010
3020
0100
,
1030
1000
0100
0110
,
0001
0001
0100
0110
,
1000
0001
0020
1000
,
2030
0100
3200
0001
,
0301
0010
0100
0110
,
0100
1000
0010
0110
,
0001
0010
2000
0010
,
3020
0001
0032
1000
,
1003
0001
0100
1001
,
0010
1000
0001
1001
,
0010
1000
0200
0001
,
0302
0010
0023
1000
,
1030
0100
0001
0100
,
0020
0000
0100
0130
,
2002
0000
0000
0000
,
3003
0000
0000
0000
;

//---------------dance-single - ----------------
#NOTES:
     dance-single:
     :
     Beginner:
     2:
     0.091370,0.138016,0.000000,0.181778,0.000000,95.000000,95.000000,0.000000,27.000000,0.000000,0.000000,0.091370,0.138016,0.000000,0.181778,0.000000,95.000000,95.000000,0.000000,27.000000,0.000000,0.000000:
0000
0000
0000
0000
,
0000
0000
0000
0000
,
0000
0000
0000
0000
,
0000
0000
0000
0000
,
0000
0000
0000
0000
,
0000
0000
0000
0000
,
0000
0000
0000
0000
,
0000
0000
0000
0000
,
0000
0000
0000
0000
,
2000
0000
0000
0000
,
3000
0000
0000
0000
,
0002
0000
0000
0000
,
0003
0000
0000
0000
,
1000
0000
0000
0000
,
1000
0000
0000
0000
,
0001
0000
0000
0000
,
0001
0000
0000
0000
,
0010
0000
0010
0000
,
0100
0000
0100
0000
,
0010
0000
0001
0000
,
0010
0000
0001
0000
,
2000
0000
3000
0000
,
0001
0000
0010
0000
,
2000
0000
3000
0000
,
0001
0000
0001
0000
,
0100
0000
0100
0000
,
0010
0000
0010
0000
,
0100
0000
1000
0000
,
0100
0000
1000
0000
,
0002
0000
0003
0000
,
1000
0000
0100
0000
,
0002
0000
0003
0000
,
1000
0000
1000
0000
,
0002
0000
0000
0000
,
0000
0000
0000
0000
,
0000
0000
0000
0000
,
0003
0000
0000
0000
,
0000
0000
2000
0000
,
0000
0000
3000
0000
,
0002
0000
0000
0000
,
0003
0000
0000
0000
,
0000
0000
1000
0000
,
0100
0000
1000
0000
,
0020
0000
0000
0000
,
0030
0000
0000
0000
,
0000
0000
0001
0000
,
0100
0000
0001
0000
,
0020
0000
0000
0000
,
0030
0000
0000
0000
,
0100
0000
0001
0000
,
0100
0000
0001
0000
,
1000
0000
0010
0000
,
0010
0000
0100
0000
,
0002
0000
0003
0000
,
0020
0000
0030
0000
,
0200
0000
0300
0000
,
2000
0000
3000
0000
,
0010
0000
1000
0000
,
0010
0000
1000
0000
,
0001
0000
0100
0000
,
0100
0000
0010
0000
,
2000
0000
3000
0000
,
0200
0000
0300
0000
,
0020
0000
0030
0000
,
0002
0000
0003
0000
,
1000
0000
1000
0000
,
0001
0000
1000
0000
,
0002
0000
0003
0000
,
2000
0000
3000
0000
,
0010
0000
0010
0000
,
0100
0000
0010
0000
,
0200
0000
0300
0000
,
0020
0000
0030
0000
,
1000
0000
0001
0000
,
1000
0000
1000
0000
,
0200
0000
0300
0000
,
0020
0000
0030
0000
,
0001
0000
1000
0000
,
0001
0000
0001
0000
,
0100
0000
0100
0000
,
0020
0000
0030
0000
,
0200
0000
0000
0000
,
0300
0000
0000
0000
;
