#TITLE:コネクト;
#SUBTITLE:(Night of Drum'n'bass PandaBoY remix);
#ARTIST:PandaBoY;
#TITLETRANSLIT:Connect;
#SUBTITLETRANSLIT:;
#ARTISTTRANSLIT:;
#GENRE:Anime/Game;
#CREDIT:;
#BANNER:Connect (Night of Drum'n'bass PandaBoY remix).png;
#BACKGROUND:Connect (Night of Drum'n'bass PandaBoY remix)-bg.png;
#LYRICSPATH:;
#CDTITLE:../cdtitle.png;
#MUSIC:Connect (Night of Drum'n'bass PandaBoY remix).ogg;
#OFFSET:0.194000;
#SAMPLESTART:96.491997;
#SAMPLELENGTH:15.000000;
#SELECTABLE:YES;
#BPMS:0.000000=175.000000
;
#STOPS:64.000000=8.229000
;
#BGCHANGES:-99.000=../bg.avi=1.000=0=0=1=====,
99999=-nosongbg-=1.000=0=0=0 // don't automatically add -songbackground-
;
#KEYSOUNDS:;
#ATTACKS:;

//---------------dance-single - ----------------
#NOTES:
     dance-single:
     :
     Beginner:
     3:
     0.129026,0.258966,0.015986,0.000000,0.000000,113.000000,111.000000,2.000000,0.000000,0.000000,0.000000,0.129026,0.258966,0.015986,0.000000,0.000000,113.000000,111.000000,2.000000,0.000000,0.000000,0.000000:
0000
0000
0000
0000
,
0000
0000
0000
0000
,
0000
0000
0000
0000
,
0000
0000
0000
0000
,
0000
0000
0000
0000
,
0000
0000
0000
0000
,
0000
0000
0000
0000
,
0000
0000
0000
0000
,
1000
0000
1000
0000
,
1000
0000
1000
0000
,
0001
0000
0001
0000
,
0001
0000
0001
0000
,
0100
0100
0100
0000
,
0100
0100
0100
0000
,
0010
0010
0010
0000
,
0010
0010
0010
0010
,
0010
0000
0000
0000
,
0001
0000
0000
0000
,
0010
0000
0000
0000
,
1000
0000
1000
0000
,
0100
0100
0100
0000
,
0001
0000
0000
0000
,
0100
0000
0000
0000
,
1000
0000
1000
0000
,
0010
0000
0000
0000
,
0001
0000
0000
0000
,
0010
0000
0000
0000
,
1000
0000
1000
0000
,
0100
0100
0100
0000
,
0001
0000
0000
0000
,
0100
0000
0000
0000
,
1000
0000
1000
0000
,
0010
0000
0000
0000
,
0001
0000
0000
0000
,
0001
0000
0000
0000
,
0001
0000
1000
0000
,
0001
0000
0000
0000
,
1000
0000
0000
0000
,
1000
0000
0000
0000
,
1000
0000
0001
0000
,
1000
0000
1000
0000
,
0001
0000
0000
0000
,
0001
0000
0000
0000
,
0001
0000
1000
0000
,
0001
0000
0000
0000
,
1000
0000
0000
0000
,
1000
0000
0000
0000
,
1000
0000
0000
0000
,
0001
0000
0000
0000
,
0010
0000
0000
0000
,
0010
0000
0000
0000
,
0100
0000
0100
0000
,
0100
0000
0000
0000
,
1000
0000
0000
0000
,
1000
0000
0000
0000
,
0001
0000
0001
0000
,
0001
0000
0000
0000
,
0010
0000
0000
0000
,
1000
0000
0000
0000
,
0100
0000
0000
0000
,
0001
0000
0000
0000
,
0001
0000
0000
0000
,
1000
0000
0000
0000
,
1001
0000
0000
0000
,
0000
0000
0000
0000
,
0001
0000
0001
0000
,
0001
0000
0000
0000
,
1000
0000
1000
0000
,
1000
0000
0000
0000
,
0001
0000
0001
0000
,
0001
0000
0000
0000
,
0100
0000
0000
0000
,
0010
0000
0000
0000
,
1000
0000
1000
0000
,
1000
0000
0000
0000
,
0001
0000
0001
0000
,
0001
0000
0000
0000
,
0010
0010
0010
0000
,
0100
0100
0100
0000
,
0001
0001
0001
0000
,
1000
0000
0000
0000
,
1001
0000
0000
0000
;

//---------------dance-single - ----------------
#NOTES:
     dance-single:
     :
     Easy:
     5:
     0.176983,0.293135,0.015986,0.063942,0.000000,155.000000,153.000000,2.000000,8.000000,0.000000,0.000000,0.176983,0.293135,0.015986,0.063942,0.000000,155.000000,153.000000,2.000000,8.000000,0.000000,0.000000:
0000
0000
0000
0000
,
0000
0000
0000
0000
,
0000
0000
0000
0000
,
0000
0000
0000
0000
,
0000
0000
0000
0000
,
0000
0000
0000
0000
,
0000
0000
0000
0000
,
0000
0000
0000
0000
,
1000
0000
0001
0000
,
1000
0000
0001
0000
,
1000
0000
0001
0000
,
1000
0000
0001
0000
,
1000
0001
1000
0001
,
1000
0001
1000
0001
,
0100
0010
0100
0010
,
1000
0100
0001
0010
,
0100
0000
0000
0000
,
1000
0000
1000
0000
,
0001
0000
0001
0000
,
1000
0000
1000
0000
,
0010
0010
0010
0000
,
0001
0000
0001
0000
,
1000
0000
1000
0000
,
0010
0000
0010
0000
,
0200
0000
0000
0300
,
0001
0000
0001
0000
,
1000
0000
1000
0000
,
0001
0000
0001
0000
,
0100
0100
0100
0000
,
1000
0000
1000
0000
,
0001
0000
0001
0000
,
0100
0000
0100
0000
,
0020
0000
0000
0030
,
0001
0000
0000
0000
,
0001
0000
0100
0000
,
1000
0000
0000
0000
,
1000
0000
0010
0000
,
0100
0000
0000
0000
,
0100
0000
0010
0000
,
1000
0000
1000
0000
,
0001
0000
0001
0000
,
1000
0000
0000
0000
,
0100
0000
0100
0000
,
1000
0000
0000
0000
,
0100
0000
0100
0000
,
0001
0000
0100
0000
,
0001
0000
0000
0000
,
1000
0000
0000
0000
,
0010
0000
0000
0000
,
0001
1000
0001
0000
,
0001
1000
0001
0000
,
0100
0010
0100
0000
,
0100
0010
0100
0000
,
1000
0001
1000
0000
,
1000
0001
1000
0000
,
0010
0100
0010
0000
,
0020
0000
0030
0000
,
0001
0000
0001
0010
,
0001
0000
0100
0000
,
1000
0000
1000
0010
,
1000
0000
0001
0000
,
0100
0000
1000
0000
,
0100
0000
0001
0000
,
0020
0000
0030
0000
,
1001
0000
0000
0000
,
1000
0000
1000
0000
,
0001
0001
0100
0000
,
0001
0000
0001
0000
,
1000
1000
0100
0000
,
0001
0000
1000
0000
,
0001
1000
0001
0000
,
0200
0000
0000
0300
,
0020
0000
0000
0030
,
1000
0000
0001
0000
,
0100
0000
0000
0000
,
0010
0000
0000
0000
,
0010
0000
0010
0000
,
0010
0000
1000
1000
,
0100
0000
0001
0001
,
0100
0000
1000
0000
,
0001
0000
1000
0000
,
2002
0000
3003
0000
;

//---------------dance-single - ----------------
#NOTES:
     dance-single:
     :
     Medium:
     9:
     0.319711,0.488558,0.095913,0.143870,0.000000,280.000000,268.000000,12.000000,18.000000,0.000000,0.000000,0.319711,0.488558,0.095913,0.143870,0.000000,280.000000,268.000000,12.000000,18.000000,0.000000,0.000000:
0000
0000
0000
0000
,
0000
0000
0000
0000
,
0000
0000
0000
0000
,
0000
0000
0000
0000
,
0000
0000
0000
0000
,
0000
0000
0000
0000
,
0000
0000
0000
0000
,
0000
0000
0000
0000
,
1000
0000
0100
0000
,
0001
0000
0010
0000
,
1000
0000
0100
0000
,
0001
0000
0010
0000
,
1000
0100
0001
0010
,
1000
0100
0001
0010
,
1000
0100
1000
0000
0001
0010
0001
0000
,
0100
0010
0100
0010
0100
0010
0100
0000
,
1001
0000
0100
0010
,
1001
0000
0001
0000
1000
0100
0001
0000
,
0010
0000
1000
0000
0100
0010
1000
0000
,
0001
0000
0100
0000
1000
0001
0100
0000
,
0010
1000
0220
0330
,
1000
0000
0001
0000
0100
0010
1000
0000
,
0100
0000
0001
0000
0010
0001
1000
0000
,
0100
0001
0010
1000
,
0002
0100
0000
0103
,
0001
0000
1000
0000
0001
0100
1000
0000
,
0010
0000
0001
0000
0100
0010
0001
0000
,
1000
0000
0100
0000
0001
1000
0100
0000
,
0010
0001
0220
0330
,
0001
0000
1000
0000
0100
0010
0001
0000
,
0100
0000
1000
0000
0010
1000
0001
0000
,
0100
1000
0010
0001
,
2000
0100
0000
3100
,
0001
0000
0100
0000
,
0100
0000
1000
0000
,
0001
0000
0010
0000
,
0010
0000
1000
0000
,
0100
0000
1000
0000
,
0010
0000
0100
0000
,
0002
0003
0020
0030
,
2000
3000
0200
0300
,
1000
0000
0010
0000
,
0010
0000
0001
0000
,
1000
0000
0100
0000
,
0100
0000
0001
0000
,
0010
0000
0001
0000
,
0100
0000
0010
0000
,
0001
0000
0000
0000
,
0100
0010
0001
0100
,
1000
0100
0001
0010
,
0100
0001
1000
0010
,
0001
0100
1000
0001
,
0100
0010
1000
1000
,
0100
0010
1000
0001
,
1000
0010
0001
0100
,
0010
0001
1000
0100
,
0001
1000
0010
0010
,
1000
0100
0001
0010
,
0100
0001
1000
0100
,
0010
1000
0001
0010
,
0100
0001
1000
1000
,
1100
0001
1000
0010
,
0101
1000
0100
0010
,
1001
0100
0001
1000
,
0220
0000
0330
0000
,
0010
0000
1000
0000
0001
1000
0001
0000
,
1000
0100
0001
0010
,
0100
1100
0100
0001
,
1000
0000
0001
0100
0000
0100
0001
0000
,
0100
0000
0010
0000
0100
0010
1000
0000
,
0001
0010
1000
0100
,
0002
0100
2003
0010
,
3002
0000
0100
0000
0013
0100
0010
0000
,
1000
0100
0001
0010
,
0100
0100
0000
0100
0000
0110
0000
1001
,
0000
0000
0001
0000
1000
0001
1000
0000
,
0001
0000
0010
0100
0000
0100
0010
0000
,
0100
1000
0001
0100
,
0010
0001
1000
0010
,
1000
0100
0010
0000
0001
1000
0001
1000
,
0200
0000
0310
0000
,
2002
0000
3003
0000
;

//---------------dance-single - ----------------
#NOTES:
     dance-single:
     :
     Hard:
     12:
     0.478425,0.586270,0.263762,0.303725,0.000000,419.000000,386.000000,33.000000,38.000000,0.000000,0.000000,0.478425,0.586270,0.263762,0.303725,0.000000,419.000000,386.000000,33.000000,38.000000,0.000000,0.000000:
// measure 0
0000
0000
0000
0000
,  // measure 1
0000
0000
0000
0000
,  // measure 2
0000
0000
0000
0000
,  // measure 3
0000
0000
0000
0000
,  // measure 4
0000
0000
0000
0000
,  // measure 5
0000
0000
0000
0000
,  // measure 6
0000
0000
0000
0000
,  // measure 7
0000
0000
0000
0000
,  // measure 8
1200
0300
0002
0003
,  // measure 9
2000
3000
0002
0003
,  // measure 10
0201
0300
2000
3000
,  // measure 11
0002
0003
2000
3000
,  // measure 12
0100
0001
0100
0001
,  // measure 13
0010
1000
0010
1000
,  // measure 14
0001
0010
0001
0010
0100
1000
0100
1000
,  // measure 15
0010
1000
0001
0100
0010
1000
0100
0010
,  // measure 16
2002
3003
0000
0000
0000
0000
0000
0000
0000
0000
0000
0000
0000
0000
0000
0000
1000
0000
0000
0000
0100
0000
0000
0000
0010
0000
0000
0000
0001
0000
0000
0000
,  // measure 17
1100
0000
0001
0000
0100
0010
0001
0000
,  // measure 18
1000
0100
0001
0100
1000
0001
0100
0000
,  // measure 19
0020
0000
1030
0001
0000
0001
0100
0010
,  // measure 20
2000
0000
0100
0000
3010
1000
0200
0000
,  // measure 21
0301
0000
1000
0000
0010
0100
1000
0000
,  // measure 22
0001
0010
1000
0010
0001
1000
0010
0000
,  // measure 23
0200
0000
0301
1000
0000
1000
0010
0100
,  // measure 24
0002
0000
0010
0000
1003
0100
0001
0000
,  // measure 25
0101
0000
1000
0000
0100
0010
1000
0000
,  // measure 26
0001
0100
1000
0100
0001
1000
0100
0000
,  // measure 27
0020
0000
0031
1000
0000
1000
0100
0010
,  // measure 28
0002
0000
0100
0000
0013
0001
0200
0000
,  // measure 29
1300
0000
0001
0000
0010
0100
0001
0000
,  // measure 30
1000
0010
0001
0010
1000
0001
0010
0000
,  // measure 31
0200
0000
1300
0001
0000
0001
0010
0100
,  // measure 32
2000
0000
0010
0000
3100
1000
0010
0100
,  // measure 33
0002
0000
0000
0000
0100
0000
0000
0103
,  // measure 34
0010
0000
1000
0000
0100
0010
0000
0100
,  // measure 35
2000
0000
0000
0000
0100
0000
0000
3100
,  // measure 36
0010
0000
0001
0000
0100
0010
0000
0010
,  // measure 37
0200
0000
0000
0000
0001
0000
0000
0301
,  // measure 38
1000
0000
0100
0000
0010
0001
0000
0100
,  // measure 39
0020
0000
0230
0000
,  // measure 40
0310
0001
0000
1000
0000
0001
0000
1000
,  // measure 41
2001
0000
0000
0100
0010
0000
0000
3010
,  // measure 42
1000
0000
1000
0000
0100
0010
0000
0001
,  // measure 43
0200
0000
0000
0010
0001
0000
0000
0301
,  // measure 44
2000
0000
3100
0000
0010
1000
0000
0010
,  // measure 45
0002
0000
0000
0100
1000
0000
0000
1003
,  // measure 46
0001
0000
1000
0000
0001
0100
0000
1000
,  // measure 47
0100
0000
0000
0000
,  // measure 48
0001
0010
1000
0100
0010
0001
0200
0000
,  // measure 49
0301
0000
0101
0000
0100
1000
0100
0001
,  // measure 50
0010
0000
0011
0000
0001
0100
0001
0010
,  // measure 51
1000
0000
1010
0000
0010
0001
0010
1000
,  // measure 52
0100
0000
1100
0000
1000
0100
0001
0000
,  // measure 53
1000
0000
1100
0000
0100
1000
0010
0001
,  // measure 54
0010
0000
1010
0000
1000
0010
0001
0100
,  // measure 55
0001
0000
0011
0000
0010
0001
0100
1000
,  // measure 56
0100
0000
0110
0000
0001
0100
1000
0000
,  // measure 57
1000
0000
1100
0000
0001
0100
1000
0100
,  // measure 58
0001
0000
0011
0000
1000
0100
0010
0000
,  // measure 59
0100
0000
0110
0000
0001
0100
1000
0010
,  // measure 60
0001
0000
0110
0000
0001
0100
0010
0000
,  // measure 61
1100
0000
0010
0001
1000
0100
0001
0010
,  // measure 62
0011
0000
0100
1000
0001
0010
1000
0100
,  // measure 63
0010
0100
1000
0010
0100
0001
0010
0100
,  // measure 64
2002
0000
3003
0000
,  // measure 65
1100
0000
0010
0001
0100
0100
0010
0000
,  // measure 66
0100
0001
0100
0010
0000
0010
1000
0000
,  // measure 67
0101
0000
0010
1000
0100
0100
0010
0000
,  // measure 68
0100
1000
0100
0010
0000
1000
0100
1000
,  // measure 69
0100
0000
0001
0010
0100
0100
0010
0000
,  // measure 70
1000
0100
0010
0001
0000
0010
0100
0000
,  // measure 71
1200
0000
0010
0000
0301
0100
1000
0020
,  // measure 72
0000
0100
0130
0000
0001
0100
0010
1000
,  // measure 73
1100
0000
1000
0100
0001
0100
0100
1000
,  // measure 74
0001
1000
0010
0110
0000
1001
0000
0110
,  // measure 75
0001
0000
1000
0000
0100
0010
0001
0000
,  // measure 76
0101
0001
0010
0100
0000
1000
0001
0100
,  // measure 77
1000
0110
0001
0010
,  // measure 78
1000
0100
0010
0100
0001
0100
0010
0001
,  // measure 79
1000
0010
0001
0010
0100
0001
0010
0100
,  // measure 80
2100
3001
0102
0013
,  // measure 81
2002
0000
3003
0000
;

//---------------dance-single - ----------------
#NOTES:
     dance-single:
     :
     Challenge:
     15:
     0.637138,0.814264,0.423617,0.399639,0.115895,558.000000,505.000000,53.000000,50.000000,104.000000,0.000000,0.637138,0.814264,0.423617,0.399639,0.115895,558.000000,505.000000,53.000000,50.000000,104.000000,0.000000:
0000
0000
0000
0000
,
0000
0000
0000
0000
,
0000
0000
0000
0000
,
0000
0000
0000
0000
,
0000
0000
0000
0000
,
0000
0000
0000
0000
,
0000
0000
0000
0000
,
0000
0000
0000
0000
,
0022
0033
2020
3030
,
2200
3300
0202
0303
,
0220
0330
2002
3003
,
0220
0330
2002
3003
,
1010
0001
0101
1000
,
0110
0001
0110
1000
,
0001
0010
1000
0100
0001
0010
1000
0100
,
0010
0001
0010
0001
1000
0010
1000
0010
0100
0001
0100
0001
1000
0100
1000
0100
,
0020
0030
0000
0000
0000
0000
0000
0000
MMMM
0000
0000
0000
0000
0000
0000
0000
0001
0000
1000
0000
0100
0000
0000
0000
1000
0000
0000
0000
0010
0000
0000
0000
,
0101
0001
1000
0010
0100
1000
0100
0010
,
1000
0000
0001
0010
0001
0000
0100
0010
0200
0000
0010
0000
2300
0000
0100
0000
,
3010
0010
0001
0100
0010
1000
0001
0010
,
0210
0000
0302
0000
0103
1000
0200
0000
,
1300
0100
0001
0010
0100
0001
0100
0010
,
0001
0000
1000
0010
1000
0000
0100
0010
0200
0000
0010
0000
0302
0000
0100
0000
,
0013
0010
1000
0100
0010
0001
1000
0010
,
0120
0000
0000
0000
2030
0000
0000
0000
3001
0100
0001
0100
0002
0000
0003
0000
,
1010
1000
0001
0100
0010
0001
0010
0100
,
0001
0000
1000
0100
1000
0000
0010
0100
0020
0000
0100
0000
0032
0000
0010
0000
,
0103
0100
1000
0010
0100
0001
1000
0100
,
0120
0000
2030
0000
3010
0001
0020
0000
,
0031
0010
1000
0100
0010
1000
0010
0100
,
1000
0000
0001
0100
0001
0000
0010
0100
0020
0000
0100
0000
2030
0000
0010
0000
,
3100
0100
0001
0010
0100
1000
0001
0100
,
0010
0000
0010
0000
1000
0000
1000
0000
0100
0010
0001
1000
0200
0000
0300
0000
,
1001
0000
0100
0010
0110
1000
MMMM
1000
,
0100
0000
0001
0010
0011
1000
MMMM
1000
,
0100
0000
0010
1000
1100
0010
MMMM
0010
,
0001
0100
0001
0100
0101
1000
MMMM
1000
,
0010
0000
0100
0010
1100
0001
MMMM
0001
,
0010
0000
0100
0010
0101
0010
MMMM
1000
,
0200
0000
0000
0000
0310
0001
0010
0001
2000
0000
0000
0000
3010
1000
0010
1000
,
0001
0011
MMMM
1100
MMMM
0011
MMMM
1100
,
0011
0000
0100
0010
0110
0001
MMMM
0001
,
0100
0000
1000
0010
1010
0001
MMMM
0001
,
0100
0000
0010
0001
0101
0010
MMMM
0010
,
2000
0000
3100
0000
1100
0001
MMMM
0001
,
0010
0000
0100
0010
0101
1000
MMMM
0001
,
MMMM
1000
0010
0100
0001
0010
0100
0010
,
0110
MMMM
MMMM
MMMM
,
1000
0100
0010
0001
0100
0010
1000
0100
,
0011
0100
1000
0010
0100
0001
0010
0100
,
1000
0001
0100
0001
1000
0100
1000
0001
,
0010
0001
1000
0010
0100
0010
1000
0100
,
0010
0001
0100
0010
1000
MMMM
0100
0001
,
0010
1000
0100
1000
0010
0001
0100
0010
,
1000
0100
0001
0010
0001
0100
1000
0010
,
0100
0001
0010
0001
1000
0010
0100
0010
,
1000
0100
0010
0001
0100
MMMM
0100
1000
,
0010
1000
0001
1000
0010
0100
0001
0100
,
0010
1000
0100
0010
0001
0010
0100
1000
,
0001
1000
0100
0010
0001
0100
0010
1000
,
0100
0001
0100
1000
0001
0100
0001
0010
,
1001
0100
1000
0010
0001
0100
1000
0010
,
1001
0100
0001
0010
1000
0100
0001
0010
,
1100
0000
0010
0000
0001
0000
0100
0000
1010
0000
1000
0000
0100
1000
0100
1000
,
0002
0000
1003
MMMM
,
0110
0000
0001
0010
0100
1000
0001
0100
,
1000
0100
0002
1000
0000
1003
0010
1000
,
0010
0000
0101
1000
0100
0010
0100
0001
,
1000
0010
0100
0001
0000
0001
0100
0010
,
1000
0000
0011
0100
1000
0100
0010
0001
,
0100
0010
0002
0010
0000
0013
1000
0100
,
0010
0001
0100
0010
2000
0100
3200
0010
,
0320
0100
0130
MMMM
0001
0100
1000
0010
,
0110
0000
0101
1000
0100
0010
0001
0100
,
0010
1000
0001
0110
MMMM
1001
MMMM
0110
,
0020
0000
1030
0100
0001
0010
1000
0100
,
0001
0010
0200
1000
0000
1300
0100
0010
,
0011
0101
1100
1010
,
0001
0010
0100
0010
0001
1000
0010
0100
,
0010
0000
0010
0000
1000
0000
1000
0000
0100
0000
0100
0000
0010
0001
0010
0001
,
2000
0000
0000
0000
3020
0000
0130
MMMM
,
2002
0000
3003
0000
;

//---------------dance-double - ----------------
#NOTES:
     dance-double:
     :
     Easy:
     5:
     0.187259,0.293135,0.023978,0.055949,0.000000,164.000000,161.000000,3.000000,7.000000,0.000000,0.000000,0.187259,0.293135,0.023978,0.055949,0.000000,164.000000,161.000000,3.000000,7.000000,0.000000,0.000000:
00000000
00000000
00000000
00000000
,
00000000
00000000
00000000
00000000
,
00000000
00000000
00000000
00000000
,
00000000
00000000
00000000
00000000
,
00000000
00000000
00000000
00000000
,
00000000
00000000
00000000
00000000
,
00000000
00000000
00000000
00000000
,
00000000
00000000
00000000
00000000
,
10000000
00000000
00010000
00000000
,
10000000
00000000
00010000
00000000
,
00001000
00000000
00000001
00000000
,
00001000
00000000
00000001
00000000
,
00000100
00000010
00000100
00000010
,
00010000
00001000
00010000
00001000
,
00100000
01000000
00100000
01000000
,
10000000
00100000
00010000
01000000
,
10000000
00000000
00000000
00000000
,
00100000
00000000
00010000
00000000
,
00100000
00010000
00100000
00000000
,
10000000
00000000
10000000
00000000
,
01000000
10000000
01000000
00000000
,
00010000
00000000
00100000
00000000
,
00010000
00000000
00010000
00000000
,
00001000
00000000
00000100
00000000
,
00000020
00000000
00000000
00000030
,
00000100
00000000
00001000
00000000
,
00000100
00001000
00000100
00000000
,
00000001
00000000
00000001
00000000
,
00000010
00000001
00000010
00000000
,
00001000
00000000
00000100
00000000
,
00001000
00000000
00001000
00000000
,
00010000
00000000
00100000
00000000
,
02000000
00000000
00000000
03000000
,
00100000
00000000
00000000
00000000
,
00100000
00000000
00010000
00000000
,
01000000
00000000
10000000
00000000
,
01000000
00000000
00010000
00000000
,
00100000
00000000
10000000
00000000
,
00100000
00000000
01000000
00000000
,
00010000
00000000
00001000
00000000
,
00010000
00000000
00001000
00000000
,
00000100
00000000
00000000
00000000
,
00000100
00000000
00001000
00000000
,
00000010
00000000
00000001
00000000
,
00000010
00000000
00001000
00000000
,
00000100
00000000
00000001
00000000
,
00000100
00000000
00000010
00000000
,
00001000
00000000
00000000
00000000
,
00001000
00010000
00001000
00010000
,
00001000
00000000
00000100
00000000
,
00001000
00000000
00000010
00000000
,
00000001
00000000
00000100
00000000
,
00001000
00000000
00000000
00000000
,
00010000
00000000
01000000
00000000
,
10000000
00000000
00010000
00000000
,
00100000
00000000
10000000
00000000
,
01000000
00000000
00000000
00000000
,
10000000
00000000
01000000
00100000
,
01000000
00000000
10000000
00000000
,
00100000
00000000
00010000
00001000
,
00010000
00000000
00001000
00000000
,
00000010
00000000
00001000
00000000
,
00000100
00000000
00000001
00000000
,
00000020
00000000
00000030
00000000
,
00001001
00000000
00000000
00000000
,
00000001
00000000
00001000
00000000
,
00000001
00000100
00000001
00000100
,
00001000
00000000
00000010
00000000
,
00010000
00001000
00010000
00001000
,
01000000
00000000
00100000
00000000
,
10000000
00010000
10000000
00010000
,
02000000
00000000
03100000
00000000
,
00200000
00000000
01300000
00000000
,
00010000
00000000
00001000
00000000
,
00011000
00000000
00000000
00000000
,
00000010
00000000
00000010
00000000
,
00000100
00000000
00000010
00000000
,
00000100
00000000
00001000
00001000
,
00000100
00000000
00000001
00000001
,
00000100
00000000
00001000
00001000
,
00010000
00000000
00001000
00000000
,
00022000
00000000
00033000
00000000
;

//---------------dance-double - ----------------
#NOTES:
     dance-double:
     :
     Medium:
     9:
     0.327704,0.488558,0.183834,0.151863,0.000000,287.000000,264.000000,23.000000,19.000000,0.000000,0.000000,0.327704,0.488558,0.183834,0.151863,0.000000,287.000000,264.000000,23.000000,19.000000,0.000000,0.000000:
00000000
00000000
00000000
00000000
,
00000000
00000000
00000000
00000000
,
00000000
00000000
00000000
00000000
,
00000000
00000000
00000000
00000000
,
00000000
00000000
00000000
00000000
,
00000000
00000000
00000000
00000000
,
00000000
00000000
00000000
00000000
,
00000000
00000000
00000000
00000000
,
01000000
00000000
10000000
00000000
,
00100000
00000000
00010000
00000000
,
00001000
00000000
00000010
00000000
,
00000001
00000000
00000100
00000000
,
00000001
00000010
00000100
00001000
,
00010000
00100000
01000000
10000000
,
00100000
01000000
00100000
00000000
00010000
00001000
00010000
00000000
,
00000100
00000010
00000100
00000010
00000100
00000010
00000100
00000000
,
00001001
00000000
00000000
00000000
,
00010000
00000000
00001000
00000000
00000010
00000100
00001000
00000000
,
00000110
00000000
00000001
00000000
00001000
00000100
00000010
00000000
,
00000001
00000000
00000100
00000000
00001000
00000010
00000100
00000000
,
00001000
00010000
00022000
00033000
,
00001000
00000000
00010000
00000000
00100000
01000000
00010000
00000000
,
01100000
00000000
10000000
00000000
00010000
01000000
00100000
00000000
,
10000000
00000000
00010000
00000000
10000000
00100000
01000000
00000000
,
20000000
00010000
00000000
30010000
,
00001000
00000000
00010000
00000000
01000000
00100000
00010000
00000000
,
01100000
00000000
10000000
00000000
00010000
00100000
01000000
00000000
,
10000000
00000000
00100000
00000000
00010000
01000000
00100000
00000000
,
00010000
00001000
00022000
00033000
,
00010000
00000000
00001000
00000000
00000100
00000010
00001000
00000000
,
00000110
00000000
00000001
00000000
00001000
00000010
00000100
00000000
,
00000001
00000000
00001000
00000000
00000001
00000100
00000010
00000000
,
00000002
00001000
00000000
00001003
,
00000110
00000000
00000100
00000000
,
00000001
00000000
00001000
00000000
,
00001000
00000000
00010000
00000000
,
00000100
00000000
00001000
00000000
,
00000010
00000000
00000001
00000000
,
00000001
00000000
00000100
00000000
,
00000020
00000030
00002000
00003000
,
00020000
00030000
02000000
03000000
,
10010000
00000000
00010000
00000000
,
00100000
00000000
10000000
00000000
,
10000000
00000000
01000000
00000000
,
00010000
00000000
00010000
00000000
,
00001000
00000000
00010000
00000000
,
00000100
00000000
00000010
00000000
,
00000001
00000000
00000000
00000000
,
00000100
00000010
00001000
00001000
,
00000001
00000010
00000100
00010000
,
00001000
00000100
00000010
00001000
,
00000100
00001000
00010000
00100000
,
00010000
01000000
00100000
10000000
,
01000000
00010000
00001000
00010000
,
00000100
00000010
00000001
00000100
,
00001000
00010000
00000100
00000010
,
00000001
00000100
00001000
00010000
,
00011000
00100000
00010000
00100000
,
01000000
10000000
00010000
00100000
,
00001000
00000100
00000001
00000010
,
00000100
00001000
00000001
00001000
,
00001001
00000001
00000010
00001000
,
00011000
00010000
00100000
10000000
,
10010000
10000000
01000000
00010000
,
00022000
00000000
00033000
00000000
,
00011000
00000000
00010000
00000000
00001000
00010000
00001000
00000000
,
00000100
00000001
00000001
00000100
,
00001000
00000000
00001000
00000000
00010000
00001000
00010000
00000000
,
01000000
10000000
00100000
01100000
,
01000000
00000000
00010000
00000000
10000000
00010000
00100000
00000000
,
01000000
00010000
00001000
00010000
,
00000010
00000000
00000010
00000000
00000100
00000010
00001000
00000000
,
00000002
00000000
00001003
00001001
,
00000001
00000010
00000100
00001000
,
00000100
00010000
00000100
00010000
00000000
00010100
00000000
00011000
,
00000000
00010000
00001000
01000000
,
00100000
00000000
10000000
01000000
00000000
01000000
00100000
00000000
,
01000000
00010000
00001000
00010000
,
00001000
00000100
00000001
00000010
,
00000100
00010000
00001000
00011000
,
02002000
03003000
02200000
03300000
,
20020000
00000000
30030000
00000000
;

//---------------dance-double - ----------------
#NOTES:
     dance-double:
     :
     Hard:
     13:
     0.490985,0.618841,0.319711,0.295733,0.000000,430.000000,390.000000,40.000000,37.000000,0.000000,0.000000,0.490985,0.618841,0.319711,0.295733,0.000000,430.000000,390.000000,40.000000,37.000000,0.000000,0.000000:
00000000
00000000
00000000
00000000
,
00000000
00000000
00000000
00000000
,
00000000
00000000
00000000
00000000
,
00000000
00000000
00000000
00000000
,
00000000
00000000
00000000
00000000
,
00000000
00000000
00000000
00000000
,
00000000
00000000
00000000
00000000
,
00000000
00000000
00000000
00000000
,
00021000
00030000
02000000
03000000
,
20000000
30000000
00200000
00300000
,
00012000
00003000
00000200
00000300
,
00000002
00000003
00000020
00000030
,
00000110
00000001
00000100
00001000
,
00011000
00010000
01000000
10000000
,
01100000
00010000
00100000
01000000
10000000
00100000
00010000
00001000
,
00000100
00001000
00010000
00001000
00000010
00000001
00000100
00001000
,
00022000
00033000
00000000
00000000
00000000
00000000
00000000
00000000
00000000
00000000
00000000
00000000
00000000
00000000
00000000
00000000
00000010
00000000
00000000
00000000
00001000
00000000
00000000
00000000
00010000
00000000
00000000
00000000
01000000
00000000
00000000
00000000
,
10000000
00000000
11000000
00000000
00100000
00010000
00001000
00000000
,
00000100
00000010
00001000
00010000
00000100
00000010
00000001
00000001
,
00000200
00000000
00000310
00010000
00000000
00010000
00001000
00000100
,
00000002
00000000
00000100
00000000
00001003
00000010
00000200
00000000
,
00000301
00000000
00000101
00000000
00000010
00001000
00010000
00000000
,
01000000
00100000
00010000
00001000
01000000
00100000
10000000
01000000
,
00200000
00000000
00310000
01000000
00000000
00001000
00000100
00000001
,
00000020
00000000
00000001
00000000
00000130
00001000
00000010
00000000
,
00000001
00000000
00000011
00000000
00000100
00001000
00010000
00000000
,
00100000
01000000
00010000
00001000
00100000
01000000
10000000
10000000
,
00200000
00000000
01300000
00001000
00000000
00001000
00010000
00100000
,
20000000
00000000
00100000
00000000
30010000
01000000
00200000
00000000
,
10300000
00000000
10100000
00000000
01000000
00010000
00001000
00000000
,
00000010
00000100
00001000
00010000
00000010
00000100
00000001
00000010
,
00000200
00000000
00001300
00000010
00000000
00010000
00100000
10000000
,
02000000
00000000
10000000
00000000
03100000
00010000
00001000
00000100
,
00000010
00000000
00000000
00000001
00000100
00000000
00000000
00000100
,
00000010
00000000
00001000
00000000
00000100
00000010
00000000
00000000
,
00000001
00000000
00000000
00000100
00001000
00000000
00000000
00010000
,
00100000
00000000
01000000
00000000
00001000
00010000
00000000
10000000
,
00010000
00000000
00000000
01000000
00100000
00000000
00000000
10000000
,
01000000
00000000
00010000
00000000
00100000
00001000
00000000
00010000
,
00000200
00000000
00000320
00000000
,
00000031
00001000
00000000
00010000
00000000
00000100
00000000
00001000
,
00011000
00000000
00000000
00000010
00000001
00000000
00000000
00000100
,
00000010
00000000
00010000
00000000
00000100
00001000
00000000
00000000
,
01000000
00000000
00000000
00100000
00010000
00000000
00000000
01000000
,
00100000
00000000
10000000
00000000
01000000
00010000
00000000
00010000
,
00000100
00000000
00000000
00001000
00000010
00000100
00000000
00000001
,
00000010
00000000
00000100
00000000
00010000
00001000
00000000
00100000
,
00010000
00000000
00000000
00000000
,
02000000
23000000
30200000
00320000
,
00031000
00000000
01001000
00000000
00010000
00100000
00010000
00001000
,
01000000
00000000
11000000
00000000
10000000
00100000
00010000
01000000
,
00001000
00000000
00101000
00000000
00010000
00001000
00000010
00000001
,
00000200
00000000
00001000
00000000
00000310
00000000
00000100
00000001
,
00000010
00000000
00001100
00000000
00000010
00000001
00000100
00000010
,
00001000
00000000
00010010
00000000
00001000
00010000
01000000
10000000
,
00100000
00000000
10010000
00000000
00100000
01000000
00010000
00001000
,
00200000
00000000
00010000
00000000
01300000
00000000
10000000
00010000
,
01000000
00000000
10010000
00000000
00010000
01000000
10000000
00100000
,
00010000
00000000
00011000
00000000
00001000
00000100
00000001
00000000
,
00000010
00000000
00001001
00000000
00000100
00000010
00000001
00000100
,
00001000
00000000
00011000
00000000
00010000
01000000
00100000
00000000
,
01100000
00000000
10000000
01000000
00010000
00001000
00000100
00000001
,
00000110
00000000
00000001
00000010
00001000
00010000
00100000
10000000
,
01100000
00100000
00010000
00100000
10000000
01000000
00010000
00001000
,
00022000
00000000
00033000
00000000
,
00011000
00000000
00110000
00010000
01000000
00100000
10000000
00000000
,
01000000
00100000
01000000
00010000
00000000
00010000
00001000
00000000
,
00010100
00000000
00000110
00000001
00001000
00000100
00000001
00000100
,
00001000
00000010
00001000
00000001
00000000
00000001
00000100
00000010
,
00001000
00000000
00001100
00010000
00001000
00100000
00010000
00000000
,
00010000
01000000
00100000
10000000
00000000
10000000
00010000
00000000
,
01020000
00000000
10000000
00000000
00130000
01000000
00010000
00002000
,
00000000
00000010
00003010
00000000
00000001
00000100
00000010
00001000
,
00001001
00000000
00000001
00000010
00001000
00010000
00001000
01000000
,
00010000
00100000
00001000
00110000
00000000
11000000
00000000
20100000
,
00000000
00000000
31000000
00000000
00010000
10000000
01000000
00000000
,
00010000
00100000
00001000
00010000
00000100
00000010
00000001
00000100
,
00000010
00001001
00000100
00001001
,
00001000
00000100
00000010
00000001
00000100
00001000
00010000
00100000
,
00010000
00001000
00010000
01000000
10000000
00100000
00010000
00001000
,
00010020
00001030
00001200
00000310
,
00002002
00000000
00003003
00000000
;

//---------------dance-double - ----------------
#NOTES:
     dance-double:
     :
     Challenge:
     15:
     0.633713,0.814264,0.399639,0.319711,0.115895,555.000000,505.000000,50.000000,40.000000,180.000000,0.000000,0.633713,0.814264,0.399639,0.319711,0.115895,555.000000,505.000000,50.000000,40.000000,180.000000,0.000000:
00000000
00000000
00000000
00000000
,
00000000
00000000
00000000
00000000
,
00000000
00000000
00000000
00000000
,
00000000
00000000
00000000
00000000
,
00000000
00000000
00000000
00000000
,
00000000
00000000
00000000
00000000
,
00000000
00000000
00000000
00000000
,
00000000
00000000
00000000
00000000
,
00002002
00003003
00000220
00000330
,
00020020
00030030
00022000
00033000
,
02002000
03003000
02200000
03300000
,
20020000
30030000
22000000
33000000
,
00110000
00001000
00110000
00001000
,
00001010
00010000
00001010
00010000
,
00010000
00100000
10000000
01000000
00010000
00001000
00010000
00100000
,
01000000
00001000
01000000
00001000
00010000
00000010
00010000
00000010
00001000
00000100
00001000
00000100
00000010
00000001
00000010
00000001
,
00000200
00000300
00000000
00000000
00000000
00000000
00000000
00000000
MMMMMMMM
00000000
00000000
00000000
00000000
00000000
00000000
00000000
00000010
00000000
00010000
00000000
00001000
00000000
00000000
00000000
01000000
00000000
00000000
00000000
00010000
00000000
00000000
00000000
,
11000000
00010000
00100000
01000000
10000000
01000000
00100000
00010000
,
01000000
00000000
00001000
00010000
00001000
00000000
00010000
00001000
00020000
00000000
00030100
00000000
00001000
00000000
00000001
00000000
,
00000010
00000100
00001000
00000010
00000100
00000010
00001000
00000001
,
00000010
00000000
00000110
00000000
00000100
00001000
00000002
00000000
,
00000103
00000001
00000010
00001000
00010000
00001000
00000010
00000100
,
00010000
00000000
00000010
00001000
00000010
00000000
00010000
00001000
00200000
00000000
00310000
00000000
01000000
00000000
00100000
00000000
,
10000000
01000000
00010000
00001000
00010000
01000000
00100000
00010000
,
00002000
00000000
00000000
00000000
00003200
00000000
00000000
00000000
00000310
00000100
00000010
00000100
00000020
00000000
00000030
00000000
,
00000011
00001000
00000100
00000010
00000001
00000010
00000100
00001000
,
00000010
00000000
00010000
00001000
00010000
00000000
00001000
00010000
00002000
00000000
00103000
00000000
00010000
00000000
10000000
00000000
,
01000000
00100000
00010000
01000000
00100000
01000000
00010000
10000000
,
01000000
00000000
01100000
00000000
00100000
00010000
20000000
00000000
,
30100000
10000000
01000000
00010000
00001000
00010000
01000000
00100000
,
00001000
00000000
01000000
00010000
01000000
00000000
00001000
00010000
00000200
00000000
00001300
00000000
00000010
00000000
00000100
00000000
,
00000001
00000010
00001000
00010000
00001000
00000010
00000100
00001000
,
00010000
00000000
00010000
00000000
00100000
00000000
00100000
00000000
01000000
10000000
00010000
00100000
02000000
00000000
03000000
00000000
,
10010000
00000000
00010000
01000000
01010000
10000000
MMMM0000
10000000
,
01000000
00000000
00010000
00001000
00011000
00000010
0000MMMM
00000010
,
00000100
00000000
00000010
00001000
00001010
0001MMMM
MMMM0000
0001MMMM
,
00001000
00000100
00000001
00001000
00001001
0001MMMM
MMMM0000
0001MMMM
,
00001000
00000000
00100000
00010000
01100000
01000000
MMMM0000
01000000
,
00010000
00000000
10000000
01000000
11000000
00010000
MMMM0000
00010000
,
02000000
00000000
00000000
00000000
03100000
10000000
00100000
10000000
00020000
00000000
00000000
00000000
00130000
00010000
00100000
00010000
,
10000000
00110000
MMMMMMMM
01001000
MMMMMMMM
00010010
MMMMMMMM
00001100
,
00000011
00000000
00000100
00001000
00001001
00000010
0000MMMM
00000010
,
00010000
00000000
00001000
00010000
01010000
00100000
MMMM0000
00100000
,
10000000
00000000
01000000
00100000
00110000
MMMM1000
0000MMMM
MMMM1000
,
02000000
00000000
03010000
00000000
01010000
MMMM1000
0000MMMM
MMMM1000
,
00000100
00000000
00000001
00000010
00000011
00000100
0000MMMM
00000100
,
0000MMMM
00000010
00000001
00000100
00001000
00010000
00100000
01000000
,
01100000
MMMMMMMM
MMMMMMMM
MMMMMMMM
,
00010000
00100000
10000000
01000000
00010000
00001000
00000010
00000001
,
00001100
00000001
00000100
00000001
00000010
00001000
00010000
00001000
,
00000100
00000001
00000010
00000100
00001000
00000010
00010000
00001000
,
01000000
00010000
00100000
01000000
10000000
00100000
01000000
00010000
,
00100000
00001000
00010000
00000100
00001000
0000MMMM
00000001
00000010
,
00001000
00000010
00000001
00000100
00000010
00000001
00000010
00001000
,
00000100
00010000
00001000
00100000
00010000
10000000
00100000
01000000
,
10000000
01000000
00010000
01000000
00100000
10000000
01000000
00010000
,
00001000
00000010
00000100
00001000
00000001
0000MMMM
00000100
00000010
,
00001000
00000001
00000100
00000010
00010000
00001000
01000000
00010000
,
10000000
00100000
01000000
00010000
10000000
01000000
00100000
00010000
,
00001000
00010000
00100000
10000000
00100000
00010000
01000000
00100000
,
10000000
01000000
00100000
00001000
00010000
00000010
00001000
00000001
,
00000011
00000100
00001000
00000010
00000100
00001000
00010000
01000000
,
01010000
10000000
00100000
00010000
00001000
00000010
00000001
00000100
,
00001100
00000000
00001000
00000000
00010000
00000000
00100000
00000000
10100000
00000000
10000000
00000000
01000000
00010000
01000000
00010000
,
00002000
00000000
00003010
MMMMMMMM
,
00001001
00000000
00000101
00000010
00010000
00001000
00000100
00000001
,
00000010
00001000
00020000
00001000
00000000
00031000
01000000
00010000
,
00100000
00000000
00110000
10000000
01000000
00100000
00010000
01000000
,
00100000
10000000
00010000
01000000
00000000
00001000
00010000
00000100
,
00000010
00000000
00001001
00000100
00000010
00001000
00000100
00000001
,
00000100
00000010
00000001
00000100
00000000
00000100
00001000
00010000
,
00100000
10000000
01000000
00010000
00002000
00010000
00023000
00000010
,
00030020
00001000
00001030
0000MMMM
00000001
00000010
00000100
00001000
,
00000001
00000000
00001001
00000010
00010000
00000100
00001000
00000010
,
00000100
00000100
00000001
00000110
MMMMMMMM
00011000
MMMMMMMM
01100000
,
20000000
00000000
30010000
00100000
01000000
10000000
00100000
01000000
,
00100000
10000000
01000000
00100000
00000000
00100000
00001000
00000100
,
00000001
00000101
00001000
00001010
,
00010000
00001000
00000100
00000010
00001000
00000100
00000010
00000001
,
00000100
00000000
00000100
00000000
00001000
00000000
00001000
00000000
00010000
00000000
00010000
00000000
00100000
10000000
00100000
10000000
,
00020000
00000000
00000000
00000000
02030000
00000000
03100000
MMMMMMMM
,
20020000
00000000
30030000
00000000
;
