#VERSION:0.83;
#TITLE:Cocoa;
#SUBTITLE:;
#ARTIST:Kawai Sprite;
#TITLETRANSLIT:;
#SUBTITLETRANSLIT:;
#ARTISTTRANSLIT:;
#GENRE:Friday Night Funkin';
#ORIGIN:;
#CREDIT:;
#BANNER:Cocoa.png;
#BACKGROUND:../bg.png;
#PREVIEWVID:;
#JACKET:Cocoa-jacket.png;
#CDIMAGE:;
#DISCIMAGE:;
#LYRICSPATH:;
#CDTITLE:../cdtitle.png;
#MUSIC:Cocoa.ogg;
#OFFSET:2.096000;
#SAMPLESTART:0.304000;
#SAMPLELENGTH:15.000000;
#SELECTABLE:YES;
#BPMS:0.000=100.000;
#STOPS:;
#DELAYS:;
#WARPS:;
#TIMESIGNATURES:0.000=4=4;
#TICKCOUNTS:0.000=4;
#COMBOS:0.000=1;
#SPEEDS:0.000=1.000=0.000=0;
#SCROLLS:0.000=1.000;
#FAKES:;
#LABELS:0.000=Song Start;
#BGCHANGES: -1.000=Cocoa.avi=1.000=0=0=0=StretchNoLoop====,
99999=-nosongbg-=1.000=0=0=0 // don't automatically add -songbackground-
;
#KEYSOUNDS:;
#ATTACKS:
;

//---------------dance-single - ----------------
#NOTEDATA:;
#CHARTNAME:;
#STEPSTYPE:dance-single;
#DESCRIPTION:;
#CHARTSTYLE:;
#DIFFICULTY:Hard;
#METER:12;
#RADARVALUES:0.483612,0.450541,0.138528,0.077922,0.476190,391.000000,375.000000,16.000000,9.000000,0.000000,0.000000,0.000000,0.000000,0.000000,0.483612,0.450541,0.138528,0.077922,0.476190,391.000000,375.000000,16.000000,9.000000,0.000000,0.000000,0.000000,0.000000,0.000000;
#CREDIT:led_light;
#NOTES:
0000
0000
0000
0000
,
1100
0000
0000
0000
0010
0000
1000
0000
0000
0100
0000
0001
0000
0100
1000
0000
,
1100
0000
0000
0000
0010
0000
1000
0000
0000
0100
0000
0001
0000
0100
1000
0000
,
0010
0001
0010
0000
1000
0000
0010
0001
0010
0000
1000
0000
0100
0001
0100
0000
,
1000
0000
0100
0001
0100
0000
1000
0000
0010
0001
0010
0000
1000
0000
0001
0000
,
0011
0000
0000
0000
0100
0000
0001
0000
0000
0010
0000
1000
0000
0010
0001
0000
,
0011
0000
0000
0000
0100
0000
0001
0000
0000
0010
0000
1000
0000
0010
0001
0000
,
0100
1000
0100
0000
0001
0000
0100
1000
0100
0000
0001
0000
0010
1000
0010
0000
,
0001
0000
0010
1000
0010
0000
0001
0000
0100
1000
0100
0000
0001
0000
1000
0000
,
1100
0100
0010
0000
0200
0000
0000
0000
,
0300
0000
0000
0000
0000
0000
1000
0001
0010
0000
0100
0000
1000
0000
0010
0000
,
0100
1000
0100
0000
0001
0000
0100
1000
0100
0000
0001
0000
0010
1000
0010
0000
,
0001
0000
0010
1000
0010
0000
0001
0000
0100
1000
0100
0000
0001
0000
1000
0000
,
0101
0100
0010
0000
0200
0000
0000
0000
,
0300
0000
0000
0000
0000
0000
0001
1000
0010
0000
0100
0000
0001
0000
0010
0000
,
0100
0001
0100
0000
1000
0000
0100
0001
0100
0000
1000
0000
0010
0001
0010
0000
,
1000
0000
0010
0001
0010
0000
1000
0000
0100
0001
0100
0000
1000
0000
0001
0000
,
1001
0000
0000
0000
0001
0100
0000
0010
0000
0010
0000
0100
0010
0000
1000
0000
,
1010
0000
0000
0000
1000
0100
0000
0010
0000
0010
0000
0100
0010
0000
0001
0000
,
0011
0000
0000
0000
1000
0001
0000
0100
0000
0100
0000
0001
0010
0000
0100
0000
,
1000
0010
0000
0100
0010
0000
1000
0010
0000
0100
0010
0000
1000
0010
0000
0000
,
1001
0000
0000
0000
0001
0010
0000
0100
0000
0100
0000
0010
0100
0000
1000
0000
,
1100
0000
0000
0000
1000
0010
0000
0100
0000
0100
0000
0010
0100
0000
0001
0000
,
0101
0000
0000
0000
1000
0001
0000
0010
0000
0010
0000
0001
0100
0000
0010
0000
,
1000
0100
0000
0010
0100
0000
1000
0100
0000
0010
0100
0000
1000
0100
0000
0000
,
0010
0100
0010
0000
0002
0000
0003
0000
2000
0000
0000
0000
3100
0000
1000
0000
,
0020
0030
0100
0000
0001
0000
1000
0000
,
0100
0010
0100
0000
0001
0000
0100
0010
0100
0000
0001
0000
0100
0010
0100
0000
,
1000
0000
0010
0100
0010
0000
0001
0000
0010
0100
0010
0000
0001
0000
0010
0000
,
0100
0010
0100
0000
0002
0000
0003
0000
2000
0000
3000
0000
0010
0000
1000
0000
,
0200
0300
0010
0000
0001
0000
1000
0000
,
0010
0100
0010
0000
0001
0000
0010
0100
0010
0000
0001
0000
0010
0100
0010
0000
,
1000
0000
0100
0010
0100
0000
0001
0000
0100
0010
0100
0000
0001
0000
0100
0000
,
1100
0000
0000
0000
0010
0000
1000
0000
0000
0100
0000
0001
0000
0100
1000
0000
,
1100
0000
0000
0000
0010
0000
1000
0000
0000
0100
0000
0001
0000
0100
1000
0000
,
1010
0000
0000
0000
0100
0000
1000
0000
0000
0010
0000
0001
0000
0010
1000
0000
,
1010
0000
0000
0000
0100
0000
1000
0000
0000
0010
0000
0001
0000
0010
1000
0000
,
0001
0010
0100
0000
1000
0000
0010
0000
1000
0100
0010
0000
0001
0000
0100
0000
,
0001
1000
0100
0000
0010
0000
0100
0000
1000
0100
1000
0000
0001
0000
0100
0000
,
0001
0100
0010
0000
1000
0000
0100
0000
1000
0010
0100
0000
0001
0000
0010
0000
,
0001
1000
0010
0000
0100
0000
0010
0000
1000
0010
1000
0000
0001
0000
0010
0000
,
0100
0001
0100
0000
1000
0000
0010
0000
1000
0100
0001
0000
0100
0000
1000
0000
,
0010
0100
0010
0000
1000
0000
0001
0000
0010
0100
0010
0000
0100
1000
0010
0000
,
0100
1000
0100
0000
0001
0000
0010
0000
0001
0100
1000
0000
0100
0000
0001
0000
,
0010
0100
0010
0000
0001
0000
1000
0000
0010
0100
0010
0000
0100
0001
0010
0000
,
0200
0300
0000
0000
;

//---------------dance-single - ----------------
#NOTEDATA:;
#CHARTNAME:;
#STEPSTYPE:dance-single;
#DESCRIPTION:;
#CHARTSTYLE:;
#DIFFICULTY:Medium;
#METER:9;
#RADARVALUES:0.372294,0.352597,0.138528,0.129870,0.017316,301.000000,285.000000,16.000000,15.000000,0.000000,0.000000,0.000000,0.000000,0.000000,0.372294,0.352597,0.138528,0.129870,0.017316,301.000000,285.000000,16.000000,15.000000,0.000000,0.000000,0.000000,0.000000,0.000000;
#CREDIT:led_light;
#NOTES:
0000
0000
0000
0000
,
0011
0000
1000
0100
0000
1000
0010
0000
,
1100
0000
0001
0010
0000
0001
0100
0000
,
0001
0010
0010
1000
0010
0010
0001
0100
,
0100
1000
0100
0100
0001
0010
0010
0001
,
1100
0000
0001
0010
0000
0001
0100
0000
,
0011
0000
1000
0100
0000
1000
0010
0000
,
1000
0100
0100
0001
0100
0100
1000
0010
,
0010
0001
0010
0010
1000
0100
0100
1000
,
0011
1000
0010
0000
0200
0000
0000
0000
,
0300
0000
0000
0001
1000
0010
0100
0001
,
0010
0100
0100
0010
0001
0001
0010
0100
,
0100
1000
0010
0010
0100
1000
1000
0100
,
0101
1000
0100
0000
0020
0000
0000
0000
,
0030
0000
0000
0001
1000
0100
0010
0001
,
0100
0010
0010
0100
0001
0001
0100
0010
,
0010
1000
0100
0100
0010
1000
1000
0010
,
0011
0000
0100
0000
0100
0100
1000
0100
,
0101
0000
0010
0000
0010
0010
0001
0010
,
1010
0000
0100
0000
0100
0100
0001
0100
,
1000
0000
0000
0100
0000
0000
0001
0000
0000
0010
0000
0000
1000
0000
0000
0000
,
1010
0000
0100
0000
0100
0100
0001
0100
,
1100
0000
0010
0000
0010
0010
1000
0010
,
0011
0000
0100
0000
0100
0100
1000
0100
,
0001
0000
0000
0100
0000
0000
1000
0000
0000
0010
0000
0000
0001
0000
0000
0000
,
1000
1000
0200
0300
0002
0003
1000
0010
,
0002
0003
2000
3000
0020
0030
2000
3000
,
1000
0100
0010
1000
0100
0010
0001
0100
,
0010
0001
0100
0010
1000
0100
0010
0100
,
1000
1000
0020
0030
0002
0003
1000
0100
,
0002
0003
2000
3000
0200
0300
2000
3000
,
1000
0010
0100
1000
0010
0100
0001
0010
,
0100
0001
0010
0100
1000
0010
0100
0010
,
1010
0000
0001
0100
0000
0001
0010
0000
,
0101
0000
1000
0010
0000
1000
0100
0000
,
0101
0000
1000
0010
0000
1000
0100
0000
,
1010
0000
0001
0100
0000
0001
0010
0000
,
1000
0100
0010
0001
1000
0100
0010
0001
,
1000
0010
0100
0001
1000
0010
0001
0010
,
1000
0100
0010
0001
1000
0100
0010
0001
,
1000
0010
0100
0001
1000
0010
0001
0010
,
1000
0100
0001
0100
1000
0100
0001
0100
,
1000
0100
0010
0100
1000
0001
0100
0010
,
1000
0010
0001
0010
1000
0010
0001
0010
,
1000
0010
0100
0010
1000
0001
0010
0100
,
2000
3000
0000
0000
;

//---------------dance-single - ----------------
#NOTEDATA:;
#CHARTNAME:;
#STEPSTYPE:dance-single;
#DESCRIPTION:;
#CHARTSTYLE:;
#DIFFICULTY:Easy;
#METER:6;
#RADARVALUES:0.278293,0.274242,0.121212,0.060606,0.000000,225.000000,211.000000,14.000000,7.000000,0.000000,0.000000,0.000000,0.000000,0.000000,0.278293,0.274242,0.121212,0.060606,0.000000,225.000000,211.000000,14.000000,7.000000,0.000000,0.000000,0.000000,0.000000,0.000000;
#CREDIT:led_light;
#NOTES:
0000
0000
0000
0000
,
1001
0000
0100
0000
0000
0001
0100
0000
,
1001
0000
0100
0000
0000
1000
0100
0000
,
1000
0100
0001
0000
1000
0010
0001
0000
,
1000
0100
0001
0000
1000
0010
0001
0000
,
1001
0000
0010
0000
0000
0001
0010
0000
,
1001
0000
0010
0000
0000
1000
0010
0000
,
1000
0010
0001
0000
1000
0100
0001
0000
,
1000
0010
0001
0000
1000
0100
0001
0000
,
1000
0001
0020
0000
,
0030
0000
0001
1000
,
0001
0100
1000
0000
0001
0010
1000
0000
,
0001
0100
1000
0000
0001
0010
1000
0000
,
0001
1000
0200
0000
,
0300
0000
1000
0001
,
1000
0010
0001
0000
1000
0100
0001
0000
,
1000
0010
0001
0000
1000
0100
0001
0000
,
1001
0000
0001
0000
0010
0000
0001
1000
,
1100
0000
1000
0000
0010
0000
1000
0001
,
0101
0010
1000
0001
,
0010
0100
0010
0100
,
1001
0000
1000
0000
0100
0000
1000
0001
,
0011
0000
0001
0000
0100
0000
0001
1000
,
1010
0100
0001
1000
,
0100
0010
0100
0010
,
0002
0100
0000
0103
,
2000
0100
0000
3100
,
0001
0100
1000
0000
0001
0010
1000
0000
,
0001
0100
1000
0000
0001
0010
1000
0000
,
0002
0010
0000
0013
,
2000
0010
0000
3010
,
0001
0010
1000
0000
0001
0100
1000
0000
,
0001
0010
1000
0000
0001
0100
1000
0000
,
1001
0000
0100
0000
0000
0001
0100
0000
,
1001
0000
0100
0000
0000
1000
0100
0000
,
1001
0000
0010
0000
0000
0001
0010
0000
,
1001
0000
0010
0000
0000
1000
0010
0000
,
1000
0100
0010
0000
1000
0100
0010
0000
,
0001
0100
0010
0000
0001
0100
0010
0000
,
1000
0100
0010
0000
1000
0100
0010
0000
,
0001
0100
0010
0000
0001
0100
0010
0000
,
1000
0100
0001
0000
1000
0100
0001
0000
,
1000
0010
0001
0000
1000
0010
0001
0000
,
1000
0100
0001
0000
1000
0100
0001
0000
,
1000
0010
0001
0000
1000
0010
0001
0000
,
2000
3000
0000
0000
;

//---------------dance-single - ----------------
#NOTEDATA:;
#CHARTNAME:;
#STEPSTYPE:dance-single;
#DESCRIPTION:;
#CHARTSTYLE:;
#DIFFICULTY:Beginner;
#METER:2;
#RADARVALUES:0.092764,0.137121,0.000000,0.025974,0.000000,75.000000,75.000000,0.000000,3.000000,0.000000,0.000000,0.000000,0.000000,0.000000,0.092764,0.137121,0.000000,0.025974,0.000000,75.000000,75.000000,0.000000,3.000000,0.000000,0.000000,0.000000,0.000000,0.000000;
#CREDIT:led_light;
#NOTES:
0000
0000
0000
0000
,
1000
0000
0000
0000
,
1000
0000
0000
0000
,
0100
0000
0100
0000
,
0100
0000
0100
0000
,
0001
0000
0000
0000
,
0001
0000
0000
0000
,
0010
0000
0010
0000
,
0010
0000
0010
0000
,
2000
0000
0000
0000
,
3000
0000
0001
0000
,
0010
0000
0100
0000
,
0010
0000
0010
0000
,
0002
0000
0000
0000
,
0003
0000
1000
0000
,
0010
0000
0100
0000
,
0010
0000
0010
0000
,
1000
0000
0000
0000
,
1000
0000
0000
0000
,
1000
0000
0000
0000
,
1000
1000
1000
1000
,
0001
0000
0000
0000
,
0001
0000
0000
0000
,
0001
0000
0000
0000
,
0001
0001
0001
0001
,
1000
0000
1000
0000
,
0100
0000
0010
0000
,
0100
0000
0100
0000
,
0010
0000
0100
0000
,
0001
0000
0001
0000
,
0010
0000
0100
0000
,
0010
0000
0010
0000
,
0100
0000
0010
0000
,
1000
0000
0000
0000
,
1000
0000
0000
0000
,
0001
0000
0000
0000
,
0001
0000
0000
0000
,
1000
0000
0100
0000
,
1000
0000
0100
0000
,
0001
0000
0010
0000
,
0001
0000
0010
0000
,
1000
0000
0100
0000
,
0001
0000
0010
0000
,
1000
0000
0010
0000
,
0001
0000
0100
0000
,
2000
3000
0000
0000
;

//---------------dance-single - FNF Hard----------------
#NOTEDATA:;
#CHARTNAME:;
#STEPSTYPE:dance-single;
#DESCRIPTION:FNF Hard;
#CHARTSTYLE:;
#DIFFICULTY:Edit;
#METER:13;
#RADARVALUES:0.551639,0.646429,0.000000,0.225108,0.813853,446.000000,446.000000,0.000000,26.000000,0.000000,0.000000,0.000000,0.000000,0.000000,0.551639,0.646429,0.000000,0.225108,0.813853,446.000000,446.000000,0.000000,26.000000,0.000000,0.000000,0.000000,0.000000,0.000000;
#CREDIT:led_light (FNF Hard);
#NOTES:
// measure 0
0000
0000
0000
0000
,  // measure 1
1000
0000
0000
0000
0010
0000
1000
0000
0000
0100
0000
0001
0000
0100
1000
0000
,  // measure 2
1000
0000
0000
0000
0010
0000
1000
0000
0000
0100
0000
0001
0000
0100
1000
0000
,  // measure 3
1000
0001
1000
0001
0010
0000
1000
0001
1000
0001
0010
0000
1000
0001
1000
0001
,  // measure 4
0010
0000
1000
0001
1000
0001
0010
0000
1000
0001
1000
0001
0010
0000
0100
0000
,  // measure 5
1000
0000
0000
0000
0010
0000
1000
0000
0000
0100
0000
0001
0000
0100
1000
0000
,  // measure 6
1000
0000
0000
0000
0010
0000
1000
0000
0000
0100
0000
0001
0000
0100
1000
0000
,  // measure 7
1000
0001
1000
0001
0010
0000
1000
0001
1000
0001
0010
0000
1000
0001
1000
0001
,  // measure 8
0010
0000
1000
0001
1000
0001
0010
0000
1000
0001
1000
0001
0010
0000
0100
0000
,  // measure 9
0000
0000
0000
0000
0002
0003
0000
0000
0200
0000
0000
0000
0000
0000
0300
0000
0020
0000
0000
0000
0000
0000
0000
0000
0000
0000
0000
0000
0000
0000
0000
0000
,  // measure 10
0030
0000
0000
0000
0000
0000
0000
0000
0000
0000
0000
0000
0100
0000
0001
0000
2000
3000
0000
0000
0100
0000
0000
0000
0001
0000
0000
0000
0100
0000
0000
0000
,  // measure 11
1000
0001
1000
0001
0010
0000
1000
0001
1000
0001
0010
0000
1000
0001
1000
0001
,  // measure 12
0010
0000
1000
0001
1000
0001
0010
0000
1000
0001
1000
0001
0010
0000
0100
0000
,  // measure 13
0020
0000
0000
0000
0002
0003
0030
0000
0200
0000
0000
0000
0000
0000
0300
0000
0020
0000
0000
0000
0000
0000
0000
0000
0000
0000
0000
0000
0000
0000
0000
0000
,  // measure 14
0030
0000
0000
0000
0000
0000
0000
0000
0000
0000
0000
0000
0100
0000
0001
0000
2000
3000
0000
0000
0100
0000
0000
0000
0001
0000
0000
0000
0100
0000
0000
0000
,  // measure 15
1000
0001
1000
0001
0010
0000
1000
0001
1000
0001
0010
0000
1000
0001
1000
0001
,  // measure 16
0010
0000
1000
0001
1000
0001
0010
0000
1000
0001
1000
0001
0010
0000
0100
0000
,  // measure 17
0000
0000
0000
0000
1000
0100
0000
0001
0000
0001
0000
0010
0001
0000
1000
0000
,  // measure 18
0100
0000
0000
0000
1000
0100
0000
0001
0000
0001
0000
0010
0001
0000
1000
0000
,  // measure 19
0100
0000
0000
0000
1000
0100
0000
0001
0000
0001
0000
0010
0001
0000
1000
0000
,  // measure 20
1000
0001
0000
1000
0001
0000
1000
0001
0000
1000
0001
0000
1000
0001
0000
0000
,  // measure 21
0000
0000
0000
0000
1000
0100
0000
0001
0000
0001
0000
0010
0001
0000
1000
0000
,  // measure 22
0100
0000
0000
0000
1000
0100
0000
0001
0000
0001
0000
0010
0001
0000
1000
0000
,  // measure 23
0100
0000
0000
0000
1000
0100
0000
0001
0000
0001
0000
0010
0001
0000
1000
0000
,  // measure 24
1000
0001
0000
1000
0001
0000
1000
0001
0000
1000
0001
0000
1000
0001
0000
0000
,  // measure 25
0000
0000
1000
0000
0100
0000
1000
0000
0020
0000
0000
0000
0000
0000
0030
0000
0002
0000
0000
0000
0000
0000
0003
0000
0020
0030
0000
0000
2000
0000
0000
0000
,  // measure 26
0000
0000
0000
3000
0020
0000
0030
0000
0002
0000
0000
0003
0020
0000
0000
0030
,  // measure 27
1000
0001
1000
0001
0010
0000
1000
0001
1000
0001
0010
0000
1000
0001
1000
0001
,  // measure 28
0010
0000
1000
0001
1000
0001
0010
0000
1000
0001
1000
0001
0010
0000
0100
0000
,  // measure 29
0000
0000
1000
0000
0100
0000
1000
0000
0020
0000
0000
0000
0000
0000
0030
0000
0002
0000
0000
0000
0000
0000
0003
0000
0020
0030
0000
0000
2000
0000
0000
0000
,  // measure 30
0000
0000
0000
3000
0020
0000
0030
0000
0002
0000
0000
0003
0020
0000
0000
0030
,  // measure 31
1000
0001
1000
0001
0010
0000
1000
0001
1000
0001
0010
0000
1000
0001
1000
0001
,  // measure 32
0010
0000
1000
0001
1000
0001
0010
0000
1000
0001
1000
0001
0010
0000
0100
0000
,  // measure 33
1000
0000
0000
0000
0010
0000
1000
0000
0000
0100
0000
0001
0000
0100
1000
0000
,  // measure 34
1000
0000
0000
0000
0010
0000
1000
0000
0000
0100
0000
0001
0000
0100
1000
0000
,  // measure 35
1000
0000
0000
0000
0010
0000
1000
0000
0000
0100
0000
0001
0000
0100
1000
0000
,  // measure 36
1000
0000
0000
0000
0010
0000
1000
0000
0000
0100
0000
0001
0000
0100
1000
0000
,  // measure 37
1000
0100
0001
0100
1000
0100
0001
0010
1000
0100
0001
0100
1000
0100
0001
0010
,  // measure 38
1000
0000
0100
0000
0001
0000
0100
0000
1000
0000
0100
0000
0001
0000
0010
0000
0001
0000
1000
0000
0001
0000
0100
0000
0001
0000
0100
0000
0010
0000
2000
3000
,  // measure 39
1000
0100
0001
0100
1000
0100
0001
0010
1000
0100
0001
0100
1000
0100
0001
0010
,  // measure 40
1000
0100
0001
0100
1000
0100
0001
0010
0001
1000
0001
0100
0001
0100
0010
1000
,  // measure 41
1000
0100
0001
0100
1000
0100
0001
0010
1000
0100
0001
0100
1000
0100
0001
0010
,  // measure 42
1000
0000
0100
0000
0001
0000
0100
0000
1000
0000
0100
0000
0001
0000
0010
0000
0001
0000
1000
0000
0001
0000
0100
0000
0001
0000
0100
0000
0010
0000
2000
3000
,  // measure 43
1000
0100
0001
0100
1000
0100
0001
0010
1000
0100
0001
0100
1000
0100
0001
0010
,  // measure 44
1000
0100
0001
0100
1000
0100
0001
0010
0001
1000
0001
0100
0001
0100
0010
1000
,  // measure 45
0002
0003
0000
0000
;
