#TITLE:Cocoa;
#SUBTITLE:[B-Side Remix];
#ARTIST:Rozebud;
#TITLETRANSLIT:;
#SUBTITLETRANSLIT:;
#ARTISTTRANSLIT:;
#GENRE:Friday Night Funkin';
#CREDIT:;
#BANNER:Cocoa [B-Side Remix].png;
#BACKGROUND:../bg.png;
#LYRICSPATH:;
#CDTITLE:../cdtitle.png;
#MUSIC:Cocoa [B-Side Remix].ogg;
#OFFSET:-0.049000;
#SAMPLESTART:2.210000;
#SAMPLELENGTH:15.000000;
#SELECTABLE:YES;
#BPMS:0.000000=111.000000
;
#STOPS:
;
#BGCHANGES:-99.000=Cocoa [B-Side Remix].avi=1.000=0=0=1====#000000=,
-5.000=Cocoa [B-Side Remix].avi=1.000=0=0=0=StretchNoLoop====,
99999=-nosongbg-=1.000=0=0=0 // don't automatically add -songbackground-
;
#KEYSOUNDS:;
#ATTACKS:;

//---------------dance-single - FNF Hard----------------
#NOTES:
     dance-single:
     :
     Edit:
     14:
     0.718471,0.729126,0.000000,0.244141,1.059570,515.000000,515.000000,0.000000,25.000000,0.000000,0.000000,0.718471,0.729126,0.000000,0.244141,1.059570,515.000000,515.000000,0.000000,25.000000,0.000000,0.000000:
0000
0000
0000
0000
,
1000
0000
0100
0001
0000
0001
1000
0000
0000
0000
0010
0100
1000
0000
0001
0000
,
1000
0000
0100
0001
0000
0001
1000
0000
0000
0000
0010
0001
0100
1000
0001
0000
,
0010
0000
0100
0001
1000
0000
0010
0001
0100
0001
1000
0000
0010
0000
0100
0001
,
1000
0000
1000
0010
0100
0001
1000
0010
1000
0010
0100
0001
0020
0030
2000
3000
,
0001
0000
0010
1000
0000
1000
0001
0000
0000
0000
0100
0010
0001
0000
1000
0000
,
0001
0000
0010
1000
0000
1000
0001
0000
0000
0000
0100
1000
0010
0001
1000
0000
,
0100
0000
0010
1000
0001
0000
0100
1000
0010
1000
0001
0000
0100
0000
0010
1000
,
0001
0000
0001
0100
0010
1000
0001
0100
0001
0100
0010
1000
0200
0300
0002
0003
,
0000
0000
0100
0000
0002
0000
0003
0010
0000
1000
0010
0000
0020
0000
0000
0000
,
0030
0000
0000
0001
0000
1000
0010
0001
0100
0100
1000
0000
0001
0000
0100
0000
,
0010
0000
0100
0001
1000
0000
0010
0001
0100
0001
1000
0000
0010
0000
0100
0001
,
1000
0000
1000
0010
0100
0001
1000
0010
1000
0010
0100
0001
0020
0030
2000
3000
,
0000
0000
0010
0000
2000
0000
3000
0100
0000
0001
0100
0000
0200
0000
0000
0000
,
0300
0000
0000
1000
0000
0001
0100
1000
0010
0010
0001
0000
1000
0000
0010
0000
,
0100
0000
0010
1000
0001
0000
0100
1000
0010
1000
0001
0000
0100
0000
0010
1000
,
0001
0000
0001
0100
0010
1000
0001
0100
0001
0100
0010
1000
0200
0300
0002
0003
,
0000
0000
0000
1000
0001
1000
0000
0100
0000
0100
0000
0100
0010
0001
0010
0000
,
0100
0000
1000
0100
0001
1000
0000
0100
0000
0100
0000
0100
1000
0010
0001
0000
,
0100
0000
1000
0100
0001
1000
0000
0100
0000
0100
0000
0100
0010
0001
0010
0000
,
0010
0001
1000
0100
0100
0000
0010
0001
1000
0100
0100
0000
0010
0001
1000
0100
,
0100
0000
0000
0001
1000
0001
0000
0010
0000
0010
0000
0010
0100
1000
0100
0000
,
0010
0000
0001
0010
1000
0001
0000
0010
0000
0010
0000
0010
0001
0100
1000
0000
,
0010
0000
0001
0010
1000
0001
0000
0010
0000
0010
0000
0010
0100
1000
0100
0000
,
0100
1000
0001
0010
0010
0000
0100
1000
0001
0010
0010
0000
0100
1000
0001
0010
,
0010
1000
0100
0001
0010
0000
1000
0000
0100
0000
0001
1000
0010
0000
0200
0000
,
0000
0000
0000
0000
0310
0000
0001
1000
0002
0000
0000
0000
2003
0000
0000
0000
,
3010
0000
0100
0001
1000
0000
0010
0001
0100
0001
1000
0000
0010
0000
0100
0001
,
1000
0000
1000
0010
0100
0001
1000
0010
1000
0010
0100
0001
0020
0030
2000
3000
,
0000
0001
1000
1000
0100
0000
0010
0000
0001
0000
1000
1000
0100
0000
0020
0000
,
0000
0000
0000
0000
0230
0000
0000
0000
0301
0000
0010
0010
2000
3000
0002
0003
,
0100
0000
0010
1000
0001
0000
0100
1000
0010
1000
0001
0000
0100
0000
0010
1000
,
0001
0000
0001
0100
0010
1000
0001
0100
0001
0100
0010
1000
0200
0300
0010
0001
,
1000
0000
0100
0001
0000
0001
1000
0000
0000
0000
0010
0100
1000
0000
0001
0000
,
0001
0000
0010
1000
0000
1000
0001
0000
0000
0000
0100
1000
0010
0001
1000
0000
,
0010
0000
0100
0001
1000
0000
0010
0001
0100
0001
1000
0000
0010
0000
0100
0001
,
1000
0000
0001
0100
0010
1000
0001
0100
0001
0100
0010
1000
0200
0300
2000
3000
,
0010
1000
0100
0001
0010
1000
0010
0001
0010
1000
0100
0001
0010
1000
0010
0001
,
0010
1000
0100
0001
0010
1000
0010
0001
0010
1000
0100
0001
0010
0100
1000
0100
,
0100
0001
0010
1000
0100
0001
0100
1000
0100
0001
0010
1000
0100
0001
0100
1000
,
0100
0001
0010
1000
0100
0001
0100
1000
0100
0001
0010
1000
0100
0010
0001
0010
,
0010
1000
0100
0001
0010
1000
0010
0001
0010
1000
0100
0001
0010
1000
0010
0001
,
0010
1000
0100
0001
0010
1000
0010
0001
0001
0010
0100
1000
0010
0100
1000
0010
,
0100
0001
0010
1000
0100
0001
0100
1000
0100
0001
0010
1000
0100
0001
0100
1000
,
0100
0001
0010
1000
0100
0001
0100
1000
1000
0100
0010
0001
0100
0010
0001
0100
,
0200
0300
0000
0000
;

//---------------dance-single - ----------------
#NOTES:
     dance-single:
     :
     Hard:
     13:
     0.666853,0.596558,0.000000,0.166016,0.834961,478.000000,478.000000,0.000000,17.000000,0.000000,0.000000,0.666853,0.596558,0.000000,0.166016,0.834961,478.000000,478.000000,0.000000,17.000000,0.000000,0.000000:
// measure 0
0000
0000
0000
0000
,  // measure 1
1000
0000
0100
1000
0000
1000
0100
0000
0000
0000
1000
0001
0100
0000
0010
0000
,  // measure 2
1000
0000
0100
1000
0000
1000
0100
0000
0000
0000
1000
0001
0100
0010
1000
0000
,  // measure 3
0001
0000
0100
0001
0100
0000
0001
1000
0100
1000
0100
0000
1000
0000
0001
0100
,  // measure 4
0001
0000
0100
0010
1000
0001
1000
0001
1000
0100
1000
0001
0010
0000
0100
0000
,  // measure 5
1000
0000
0010
1000
0000
1000
0010
0000
0000
0000
1000
0001
0010
0000
0100
0000
,  // measure 6
1000
0000
0010
1000
0000
1000
0010
0000
0000
0000
1000
0001
0010
0100
1000
0000
,  // measure 7
0001
0000
0010
0001
0010
0000
0001
1000
0010
1000
0010
0000
1000
0000
0001
0010
,  // measure 8
0001
0000
0010
0100
1000
0001
1000
0001
1000
0010
1000
0001
0100
0000
0010
0000
,  // measure 9
1000
0000
0010
0000
2000
0000
3100
0001
0000
0001
0100
0000
2000
0000
0000
0000
,  // measure 10
3002
0000
0000
0103
0000
0001
0100
0010
1000
0001
0010
0000
0100
0000
0010
0000
,  // measure 11
0100
0000
1000
0001
0100
0000
0001
1000
0010
0100
0010
0000
1000
0000
0100
0010
,  // measure 12
0100
0000
1000
0100
0010
0001
0010
0001
0100
0001
1000
0100
0010
0000
0100
0000
,  // measure 13
1000
0000
0100
0000
2000
0000
3010
0001
0000
0001
0010
0000
2000
0000
0000
0000
,  // measure 14
3002
0000
0000
0013
0000
0001
0010
0100
1000
0001
0100
0000
0010
0000
0100
0000
,  // measure 15
0010
0000
1000
0001
0010
0000
0001
1000
0100
0010
0100
0000
1000
0000
0010
0100
,  // measure 16
0010
0000
1000
0010
0100
0001
0100
0001
0010
0001
1000
0010
0100
0000
0010
0000
,  // measure 17
1000
0000
0000
0100
0001
0100
0000
1000
0000
1000
0000
0100
0001
0100
1000
0000
,  // measure 18
0001
0000
0010
1000
0010
0001
0000
1000
0000
1000
0000
0001
0010
1000
0010
0000
,  // measure 19
0001
0000
1000
0100
0010
0001
0000
0100
0000
0100
0000
0010
0100
0001
1000
0000
,  // measure 20
0001
0100
0010
0100
0001
0000
1000
0100
0010
0100
1000
0000
0001
0010
0100
0010
,  // measure 21
0001
0000
0000
0100
1000
0100
0000
0001
0000
0001
0000
0100
1000
0100
0001
0000
,  // measure 22
1000
0000
0010
0001
0010
1000
0000
0001
0000
0001
0000
1000
0010
0001
0010
0000
,  // measure 23
1000
0000
0001
0100
0010
1000
0000
0100
0000
0100
0000
0010
0100
1000
0001
0000
,  // measure 24
1000
0100
0010
0100
1000
0000
0001
0100
0010
0100
0001
0000
1000
0010
0100
0010
,  // measure 25
1000
0100
1000
0000
0001
0000
0100
0000
0001
0000
0100
0010
1000
0000
0200
0000
,  // measure 26
0020
0000
0330
0000
0100
0000
1000
0001
2000
0000
0000
0000
3002
0000
0000
0000
,  // measure 27
0103
0000
0001
1000
0100
0000
1000
0001
0010
0100
0010
0000
0001
0000
0100
0010
,  // measure 28
0100
0000
0001
0100
0010
1000
0010
1000
0100
1000
0001
0100
0010
0000
0100
0000
,  // measure 29
0001
0010
0001
0000
1000
0000
0010
0000
1000
0000
0010
0100
0001
0000
0020
0000
,  // measure 30
0200
0000
0330
0000
0020
0000
0030
0000
0002
0000
0003
0100
0002
0000
2003
0000
,  // measure 31
3010
0000
1000
0001
0010
0000
0001
1000
0100
0010
0100
0000
1000
0000
0010
0100
,  // measure 32
0010
0000
1000
0010
0100
0001
0100
0001
0010
0001
1000
0010
0100
0000
0010
1000
,  // measure 33
0001
0000
0010
0001
0000
0001
0010
0000
0000
0000
0001
1000
0010
0000
0100
0000
,  // measure 34
0001
0000
0100
0001
0000
0001
0100
0000
0000
0000
0001
1000
0100
0010
0001
0000
,  // measure 35
1000
0000
0010
1000
0010
0000
1000
0001
0010
0001
0010
0000
0001
0000
1000
0010
,  // measure 36
1000
0000
0010
0100
0001
1000
0001
1000
0001
0010
0001
1000
0100
0000
0010
0000
,  // measure 37
0001
0100
0001
0000
0100
0000
0010
0000
1000
0100
1000
0000
0100
0000
0010
0000
,  // measure 38
0100
1000
0100
0000
1000
0000
0001
0000
0100
0010
1000
0000
0010
0100
0001
0000
,  // measure 39
1000
0100
1000
0000
0100
0000
0010
0000
0001
0100
0001
0000
0100
0000
0010
0000
,  // measure 40
0100
0001
0100
0000
0001
0000
1000
0000
0100
0010
0001
0000
0010
0100
1000
0000
,  // measure 41
0100
0010
0100
0000
0010
0000
0001
0000
1000
0010
1000
0000
0010
0000
0100
0000
,  // measure 42
0001
0010
0001
0000
1000
0000
0010
0000
0100
0010
1000
0000
0100
0010
0001
0000
,  // measure 43
0010
0100
0010
0000
0100
0000
1000
0000
0001
0100
0001
0000
0100
0000
0010
0000
,  // measure 44
1000
0100
1000
0000
0001
0000
0100
0000
0010
0100
0001
0000
0010
0100
1000
0000
,  // measure 45
0002
0003
0000
0000
;

//---------------dance-single - ----------------
#NOTES:
     dance-single:
     :
     Beginner:
     1:
     0.082310,0.110474,0.000000,0.009766,0.000000,59.000000,59.000000,0.000000,1.000000,0.000000,0.000000,0.082310,0.110474,0.000000,0.009766,0.000000,59.000000,59.000000,0.000000,1.000000,0.000000,0.000000:
0000
0000
0000
0000
,
0001
0000
0000
0000
,
0001
0000
0000
0000
,
0100
0000
0000
0000
,
0100
0000
0000
0000
,
1000
0000
0000
0000
,
1000
0000
0000
0000
,
0010
0000
0000
0000
,
0010
0000
0000
0000
,
0001
0000
0000
0000
,
0001
0000
0000
0000
,
1000
0000
0000
0000
,
1000
0000
1000
0000
,
0100
0000
0000
0000
,
0100
0000
0000
0000
,
0010
0000
0000
0000
,
0010
0000
0010
0000
,
0001
0000
0000
0000
,
0001
0000
0000
0000
,
0001
0000
0000
0000
,
1000
0000
0001
0000
,
1000
0000
0000
0000
,
1000
0000
0000
0000
,
1000
0000
0000
0000
,
0001
0000
1000
0000
,
0001
0000
0000
0000
,
0001
0000
0000
0000
,
0010
0000
0000
0000
,
0100
0000
0100
0000
,
1000
0000
0000
0000
,
1000
0000
0000
0000
,
0010
0000
0000
0000
,
0100
0000
0100
0000
,
0001
0000
0000
0000
,
0001
0000
0000
0000
,
0100
0000
0000
0000
,
0100
0000
0000
0000
,
0001
0000
0001
0000
,
0001
0000
0001
0000
,
0010
0000
0010
0000
,
0010
0000
0010
0000
,
1000
0000
1000
0000
,
1000
0000
1000
0000
,
0100
0000
0100
0000
,
0100
0000
0100
0000
,
0002
0003
0000
0000
;

//---------------dance-single - ----------------
#NOTES:
     dance-single:
     :
     Easy:
     5:
     0.230190,0.243042,0.039063,0.068359,0.000000,165.000000,161.000000,4.000000,7.000000,0.000000,0.000000,0.230190,0.243042,0.039063,0.068359,0.000000,165.000000,161.000000,4.000000,7.000000,0.000000,0.000000:
0000
0000
0000
0000
,
1000
1000
0000
1000
,
0001
0001
0000
0001
,
0100
0001
0100
0100
,
0010
1000
0100
0100
,
1000
1000
0000
1000
,
0001
0001
0000
0001
,
0010
0001
0010
0010
,
0100
1000
0010
0010
,
0000
1000
0001
0020
,
0030
0010
0100
0100
,
1000
0100
1000
1000
,
0100
0010
0001
0001
,
0000
1000
0001
0200
,
0300
0100
0010
0010
,
1000
0010
1000
1000
,
0010
0100
0001
0001
,
0000
1000
0100
0001
,
1001
1000
0010
0001
,
1001
1000
0100
0001
,
0100
0100
0100
0200
,
0300
1000
0010
0001
,
1001
1000
0100
0001
,
1001
1000
0010
0001
,
0010
0010
0010
0020
,
0030
0001
0001
2000
,
3000
0001
0010
1000
,
0100
0010
0100
0100
,
1000
0010
0100
0100
,
0000
1000
1000
0002
,
0003
1000
0100
0001
,
0010
0100
0010
0010
,
0001
0100
0010
0010
,
1000
1000
0000
1000
,
0001
0001
0000
0001
,
0100
0001
0100
0100
,
0010
1000
0100
0100
,
1000
0001
1000
0001
,
0100
0010
0100
0010
,
1000
0100
1000
0100
,
0010
0001
0010
0001
,
1000
0001
1000
0001
,
0010
0100
0010
0100
,
1000
0010
1000
0010
,
0100
0001
0100
0001
,
2000
3000
0000
0000
;

//---------------dance-single - ----------------
#NOTES:
     dance-single:
     :
     Medium:
     9:
     0.390625,0.375610,0.019531,0.097656,0.000000,280.000000,278.000000,2.000000,10.000000,0.000000,0.000000,0.390625,0.375610,0.019531,0.097656,0.000000,280.000000,278.000000,2.000000,10.000000,0.000000,0.000000:
0000
0000
0000
0000
,
1000
0100
0001
0100
0000
1000
0010
0000
,
1000
0100
0001
0100
0000
1000
0010
0000
,
1000
0100
1000
0000
0001
0100
0001
0000
,
1000
0100
0010
0001
0100
0010
0100
0000
,
0001
0010
1000
0010
0000
0001
0100
0000
,
0001
0010
1000
0010
0000
0001
0100
0000
,
0001
0010
0001
0000
1000
0010
1000
0000
,
0001
0010
0100
1000
0010
0100
0010
0000
,
1000
0100
0020
0000
0031
0000
2200
0000
,
3300
0000
0001
0000
0100
0010
1000
0000
,
0001
0100
0001
0000
1000
0100
1000
0000
,
0001
0100
0010
1000
0100
0010
0100
0000
,
1000
0010
0200
0000
0301
0000
2020
0000
,
3030
0000
0001
0000
0010
0100
1000
0000
,
0001
0010
0001
0000
1000
0010
1000
0000
,
0001
0010
0100
1000
0010
0100
0010
0000
,
1000
0000
1000
0000
0100
0001
0100
1000
,
0001
0000
0001
0000
0010
1000
0010
0001
,
1000
0000
1000
0000
0010
0001
0010
1000
,
0001
0100
0001
0000
0001
0010
0001
0000
,
1000
0000
1000
0000
0010
0001
0010
1000
,
0001
0000
0001
0000
0100
1000
0100
0001
,
1000
0000
1000
0000
0100
0001
0100
1000
,
0001
0010
0001
0000
0001
0100
0001
0000
,
1000
0100
0001
0000
0001
0000
0001
0100
,
2000
3001
0002
0203
,
0310
1000
0010
0000
0100
0001
0100
0000
,
0010
1000
0100
0001
0100
1000
0010
0000
,
1000
0010
0001
0000
0001
0000
0001
0010
,
1000
0001
0001
0010
,
0100
1000
0100
0000
0010
0001
0010
0000
,
0100
1000
0010
0001
0010
1000
0100
0000
,
1000
0100
0001
0100
0000
1000
0010
0000
,
0001
0010
1000
0010
0000
0001
0100
0000
,
1000
0100
1000
0000
0001
0100
0001
0000
,
1000
0100
0010
0001
0100
0010
0100
0000
,
0001
0010
0100
1000
0001
0010
0100
1000
,
0001
0100
0010
1000
0001
0100
1000
0100
,
0001
0010
0100
1000
0001
0010
0100
1000
,
0001
0100
0010
1000
0001
0100
1000
0100
,
0001
0010
1000
0010
0001
0010
1000
0010
,
0001
0010
0100
0010
0001
1000
0010
0100
,
0001
0100
1000
0100
0001
0100
1000
0100
,
0001
0100
0010
0100
0001
1000
0100
0010
,
0002
0003
0000
0000
;
