#VERSION:0.83;
#TITLE:ただ君に晴れ;
#SUBTITLE:;
#ARTIST:ヨルシカ;
#TITLETRANSLIT:Cloudless;
#SUBTITLETRANSLIT:;
#ARTISTTRANSLIT:Yorushika;
#GENRE:J-Music;
#ORIGIN:;
#CREDIT:;
#BANNER:Cloudless.png;
#BACKGROUND:Cloudless-bg.png;
#PREVIEWVID:;
#JACKET:Cloudless-jacket.png;
#CDIMAGE:;
#DISCIMAGE:;
#LYRICSPATH:;
#CDTITLE:../cdtitle.png;
#MUSIC:Cloudless.ogg;
#OFFSET:0.619000;
#SAMPLESTART:55.938000;
#SAMPLELENGTH:15.000000;
#SELECTABLE:YES;
#BPMS:0.000=140.000;
#STOPS:130.000=0.429;
#DELAYS:;
#WARPS:;
#TIMESIGNATURES:0.000=4=4;
#TICKCOUNTS:0.000=4;
#COMBOS:0.000=1;
#SPEEDS:0.000=1.000=0.000=0;
#SCROLLS:0.000=1.000;
#FAKES:;
#LABELS:0.000=Song Start;
#BGCHANGES:-0.250=Cloudless.avi=1.000=0=0=0=StretchNoLoop====,
99999=-nosongbg-=1.000=0=0=0 // don't automatically add -songbackground-
;
#KEYSOUNDS:;
#ATTACKS:
;

//---------------dance-single - ----------------
#NOTEDATA:;
#CHARTNAME:;
#STEPSTYPE:dance-single;
#DESCRIPTION:;
#CHARTSTYLE:;
#DIFFICULTY:Challenge;
#METER:13;
#RADARVALUES:0.585795,0.745235,0.321174,0.253951,0.149383,549.000000,506.000000,43.000000,34.000000,4.000000,0.000000,0.000000,0.000000,0.000000,0.585795,0.745235,0.321174,0.253951,0.149383,549.000000,506.000000,43.000000,34.000000,4.000000,0.000000,0.000000,0.000000,0.000000;
#CREDIT:led_light;
#NOTES:
// measure 0
0000
0000
0000
0000
,  // measure 1
0000
0000
0000
0000
,  // measure 2
0000
0000
0000
0000
,  // measure 3
0000
0000
0000
0000
,  // measure 4
0000
0000
0000
0000
,  // measure 5
0000
0000
0000
0000
,  // measure 6
0000
0000
0000
0000
,  // measure 7
0000
0000
0000
0000
,  // measure 8
0000
0000
0000
0000
,  // measure 9
0011
0000
0001
0100
0001
0000
0100
0000
0010
0000
1000
0010
1000
0000
0100
0000
,  // measure 10
0010
0000
0001
0010
0001
0000
0100
0000
0010
0000
1000
0000
1001
0000
0001
0000
,  // measure 11
0010
0000
0001
0010
0100
0000
1000
0000
0001
0000
1000
0100
0010
0000
0001
0000
,  // measure 12
0100
0010
1000
1000
0100
0100
0010
0001
,  // measure 13
0101
0000
0010
1000
0010
0000
1000
0000
0100
0000
0010
0001
0010
0000
0100
0000
,  // measure 14
1000
0000
0001
0010
0001
0000
0100
0000
0010
0000
1000
0000
1001
0000
1000
0100
,  // measure 15
1000
0000
0001
0010
0100
0010
0100
1000
0001
0010
0100
0000
1000
0000
0001
0000
,  // measure 16
0100
0010
1000
0010
1000
0000
0001
0000
0010
0100
0010
0000
0100
0000
1000
0000
,  // measure 17
1001
0000
0001
0010
0200
0000
0310
0001
,  // measure 18
0100
0100
0010
0010
0100
0010
1000
0001
,  // measure 19
0101
0000
0010
1000
0002
0000
0013
0100
,  // measure 20
1000
0001
0010
0001
1000
0001
0100
0010
,  // measure 21
1010
0000
1000
0100
0020
0000
0130
1000
,  // measure 22
0010
0010
0100
0010
0110
0010
2000
0000
,  // measure 23
3001
0010
0100
2000
0000
3100
0010
0001
,  // measure 24
0000
0000
0001
0000
1000
0000
0001
0010
0001
0100
0010
0000
1000
0000
0001
0000
,  // measure 25
1001
0000
0001
0100
0020
0000
0130
0001
,  // measure 26
0010
0000
0010
0000
0100
0000
0010
0000
0001
1000
0001
0000
0010
0000
0001
0000
,  // measure 27
0101
0000
0010
0100
0002
0000
1003
0100
,  // measure 28
0010
0010
0001
0001
0010
0100
1000
0001
,  // measure 29
1001
0000
1000
0100
0020
0000
0130
1000
,  // measure 30
0010
0010
0100
0010
0110
0010
1000
0100
,  // measure 31
1100
0000
0010
0001
0011
0000
1000
0020
,  // measure 32
0000
0130
0001
0010
0110
0000
1100
1000
,  // measure 33
0100
0010
0002
0000
0103
0010
1000
0100
,  // measure 34
0001
0100
1000
0000
1001
0000
0100
0010
,  // measure 35
1000
0100
0020
0000
0130
1000
0001
0001
,  // measure 36
0100
0001
1000
0010
0110
0010
1000
0100
,  // measure 37
0001
0100
2000
3000
0001
0010
0100
0010
,  // measure 38
0100
1000
0001
0100
0110
0000
1000
0100
,  // measure 39
0010
0002
0000
0013
0100
2000
0000
3001
,  // measure 40
0100
0010
0120
0000
1030
0001
1000
0100
,  // measure 41
0000
0000
0001
0100
0000
0000
1000
0010
,  // measure 42
0000
0000
0001
0010
0000
0000
1000
0001
,  // measure 43
0000
0000
0010
0100
0000
0000
1000
0100
,  // measure 44
0000
0000
0010
0001
1001
0000
1000
0001
,  // measure 45
0010
0001
0100
0010
0110
0000
0001
1000
,  // measure 46
0100
1000
0010
0100
0020
0030
2010
0000
,  // measure 47
3001
0021
0000
0130
1000
1020
0000
1030
,  // measure 48
0100
0000
0010
0001
0010
0000
0100
0000
1000
0000
1100
0000
0000
0000
0100
0000
,  // measure 49
0101
0000
0000
0000
0010
0000
1010
0000
0000
0000
0001
0000
0021
0000
0030
0100
,  // measure 50
1000
0001
1000
0001
0010
0000
0100
0000
0010
0001
0100
0010
1000
0000
0100
0000
,  // measure 51
0001
0100
1000
0000
0001
0100
0010
1000
,  // measure 52
0100
0010
0001
0000
0011
0000
0001
0100
,  // measure 53
1000
0100
0001
0000
1000
0001
0100
0010
,  // measure 54
1000
0100
0010
0100
0110
0000
0001
0010
,  // measure 55
1000
0010
0002
0000
1003
0010
0100
0001
,  // measure 56
1000
0100
0010
0010
0001
0000
0010
0100
,  // measure 57
1000
0002
0000
0103
0010
2000
0000
3100
,  // measure 58
0010
0100
0010
0100
MMMM
0000
0011
0001
,  // measure 59
0010
0100
2000
0000
3010
0100
0001
0010
,  // measure 60
1000
0010
0001
0000
1001
0000
0010
0100
,  // measure 61
0001
0010
0200
0300
0010
0001
1000
1000
,  // measure 62
0010
1000
0001
0100
0110
0100
0001
0010
,  // measure 63
1000
0010
0002
0003
1000
0100
0010
0100
,  // measure 64
0010
0001
1000
0010
0110
0000
0001
0010
,  // measure 65
0100
2100
0000
3100
0010
0012
0000
1003
,  // measure 66
0010
0100
0101
0001
2000
0000
3001
0010
,  // measure 67
0100
2000
0000
3100
0010
0002
0003
0001
,  // measure 68
0100
0000
0010
0000
2000
0000
0000
0000
3010
0000
1000
0000
1100
0000
1000
0010
,  // measure 69
1000
0000
0010
0000
0100
0000
0001
0100
0001
0000
0010
0000
0100
0000
1000
0100
,  // measure 70
1000
0000
0010
0000
0100
0000
0001
0000
1001
0000
1000
0000
0100
0000
1000
0100
,  // measure 71
0010
0000
0001
0000
1000
0000
0001
0010
0100
0000
1000
0000
0010
0000
0100
0000
,  // measure 72
0001
0000
0001
0000
0010
0000
0010
0000
0100
0000
1000
0000
1010
0000
0100
0001
,  // measure 73
0100
0000
0001
0000
0010
0000
0100
1000
0100
0000
0010
0000
0001
0000
1000
0100
,  // measure 74
1000
0000
0010
0000
0100
0000
0001
0000
1001
0000
0001
0010
0001
0000
1000
0100
,  // measure 75
0010
0100
0010
0001
1000
0100
0010
0000
0001
0000
1000
0000
0010
0100
0001
0100
,  // measure 76
0001
1000
0100
0010
2002
0000
3003
0000
;

//---------------dance-single - ----------------
#NOTEDATA:;
#CHARTNAME:;
#STEPSTYPE:dance-single;
#DESCRIPTION:;
#CHARTSTYLE:;
#DIFFICULTY:Hard;
#METER:11;
#RADARVALUES:0.505768,0.515932,0.171790,0.276359,0.003735,474.000000,451.000000,23.000000,37.000000,0.000000,0.000000,0.000000,0.000000,0.000000,0.505768,0.515932,0.171790,0.276359,0.003735,474.000000,451.000000,23.000000,37.000000,0.000000,0.000000,0.000000,0.000000,0.000000;
#CREDIT:led_light;
#NOTES:
0000
0000
0000
0000
,
0000
0000
0000
0000
,
0000
0000
0000
0000
,
0000
0000
0000
0000
,
0000
0000
0000
0000
,
0000
0000
0000
0000
,
0000
0000
0000
0000
,
0000
0000
0000
0000
,
0000
0000
0000
0000
,
1000
0100
0010
0100
1000
0010
0100
0010
,
1000
0001
0010
0100
0001
0001
0100
1000
,
0001
0010
0100
0010
0001
0100
0010
0001
,
0010
1000
0001
0001
0010
0010
0100
1000
,
1001
0001
0010
0001
1000
0010
0100
0010
,
1000
0100
0010
0100
1000
1000
0001
1000
,
0001
0100
1000
0100
0001
0010
1000
0010
,
0001
0100
0010
1000
0001
0001
0010
0000
,
0110
0000
1000
1000
0001
0000
0100
0010
,
1000
0001
0010
0001
1000
0100
0010
0001
,
1001
0000
0001
0010
0001
0000
0001
1000
,
0001
0100
0010
0100
0001
1000
0100
0010
,
0110
0000
0001
1000
0002
0000
0103
0010
,
1000
0001
1000
0100
1000
0001
0020
0000
,
0130
1000
0001
0010
0000
0001
1000
0010
,
0000
0010
0000
0110
0000
1000
0100
0010
,
0110
0000
0001
1000
0002
0000
0103
0010
,
1000
0001
0010
0001
1000
1000
0100
0010
,
0011
0000
0001
0100
0020
0000
1030
0001
,
0010
0100
1000
0010
0100
0010
1000
0100
,
0110
0000
1000
1000
0002
0000
0103
0010
,
1000
0001
1000
0100
1000
0001
0010
0100
,
1100
0000
0010
0100
0101
0000
1000
0020
,
0000
0130
0001
1000
1001
0000
1000
0100
,
0010
0001
1000
0000
0001
0100
0010
1000
,
0100
1000
0001
0000
0011
0000
0100
1000
,
0001
1000
0020
0000
0130
0001
1000
0100
,
0001
0100
1000
0001
1001
0001
0010
1000
,
0010
0001
2000
3000
0010
0100
0001
1000
,
0001
0010
0100
1000
0001
0000
1000
0100
,
0010
0002
0000
0013
0100
2000
0000
3001
,
0100
0010
0120
0000
1030
0001
2000
0000
,
3000
0002
0003
0200
,
0000
0000
0300
0020
,
0030
2000
3000
0002
,
0000
0000
1003
1001
,
0100
0000
0010
1000
0001
0000
1000
0100
,
0010
0000
0100
1000
0002
0000
1003
0000
,
0100
0020
0000
0031
0100
0002
0000
1003
,
0010
0100
0001
0000
0001
0010
0000
0100
,
0010
0000
0000
0000
0001
0000
0010
0000
0000
0000
0100
0000
2000
0000
3000
1000
,
0001
0010
0100
1000
0010
0100
0001
0100
,
0010
1000
0002
0000
1003
0100
0010
0001
,
0100
0001
1000
0000
1010
0000
0100
0001
,
1000
0001
0020
0000
0130
1000
0001
0100
,
1000
0100
0001
1000
1001
0000
0010
0001
,
0010
1000
0002
0000
0013
0100
1000
0001
,
1000
0010
0100
0001
1000
0000
0001
0100
,
0010
2000
0000
3010
0100
0002
0000
0013
,
0100
0010
0100
0010
0110
0000
1000
0100
,
0010
0001
2000
0000
3001
0100
0010
1000
,
0100
1000
0001
0000
0011
0000
0100
1000
,
0001
1000
0020
0030
0100
0001
1000
0100
,
0001
0100
1000
0001
1001
0001
0010
1000
,
0010
0001
2000
3000
0010
0100
0001
1000
,
0001
0010
0100
1000
0001
0000
1000
0100
,
0010
0002
0000
0013
0100
2000
0000
3001
,
0100
0010
0110
0010
2000
0000
3001
0010
,
0100
2000
0000
3100
0010
0002
0003
0001
,
1000
0001
0200
0300
0100
0010
1000
0100
,
0010
0100
1000
0010
0100
0010
1000
0001
,
0010
0100
0001
0001
0100
1000
0001
0010
,
0100
0010
0001
0100
0010
0001
0010
1000
,
0001
0001
0010
0010
0100
1000
1001
0001
,
0010
0001
1000
0010
0100
0010
1000
0100
,
0010
0100
1000
1000
0001
1000
0001
0100
,
1000
0100
0001
0010
1000
0010
0001
0100
,
0010
1000
0001
0010
0220
0000
0330
0000
;

//---------------dance-single - ----------------
#NOTEDATA:;
#CHARTNAME:;
#STEPSTYPE:dance-single;
#DESCRIPTION:;
#CHARTSTYLE:;
#DIFFICULTY:Medium;
#METER:9;
#RADARVALUES:0.387329,0.429943,0.156852,0.224075,0.000000,363.000000,342.000000,21.000000,30.000000,0.000000,0.000000,0.000000,0.000000,0.000000,0.387329,0.429943,0.156852,0.224075,0.000000,363.000000,342.000000,21.000000,30.000000,0.000000,0.000000,0.000000,0.000000,0.000000;
#CREDIT:led_light;
#NOTES:
0000
0000
0000
0000
,
0000
0000
0000
0000
,
0000
0000
0000
0000
,
0000
0000
0000
0000
,
0000
0000
0000
0000
,
0000
0000
0000
0000
,
0000
0000
0000
0000
,
0000
0000
0000
0000
,
0000
0000
0000
0000
,
1000
0010
0100
0000
1000
0100
0010
0000
,
1000
0100
0010
0000
0100
1000
0010
0100
,
0001
0010
0100
0000
0001
0100
0010
0000
,
0001
0100
0010
0000
0001
0010
0001
0010
,
1000
0100
0010
0000
1000
0010
0100
0000
,
1000
0010
0100
0000
0010
1000
0100
0010
,
0001
0000
1001
0000
0100
0100
0100
0000
,
1000
1000
1000
0000
0010
0100
0020
0000
,
1030
1100
1000
1010
,
0100
0000
0100
0000
0001
0010
0100
1000
,
0001
0000
1000
0100
2000
0000
3001
0000
,
0100
0010
0100
0010
1000
0000
0001
0000
,
0010
1010
0010
0011
,
1000
0000
1000
0000
0100
0001
1000
0010
,
0100
0010
0001
0000
0100
0010
1000
0000
,
0001
0000
0001
0000
0100
0010
1000
0001
,
1001
0000
1000
0100
2000
0000
3100
1000
,
0001
0000
1000
0000
0010
0010
0100
0010
,
1000
0000
0100
0010
0200
0000
0310
0000
,
0001
0001
0100
0001
1000
0000
0010
0000
,
0110
0000
0001
0100
0002
0000
1003
0100
,
1000
0001
0101
0010
,
1001
0000
0010
0000
0110
0000
1000
0001
,
0000
0010
0100
0000
0110
0000
0001
0100
,
0010
0000
2000
0000
3100
0000
0010
0100
,
0010
0000
0001
0000
1001
0000
0001
0100
,
0001
0000
0020
0000
0130
0000
1000
0100
,
1000
0100
1000
0000
1001
0000
1000
0100
,
0001
0000
0200
0000
1300
0000
0001
0100
,
0010
0000
1000
0100
0010
0000
0100
1000
,
0100
1000
0000
0001
0010
0001
0000
0100
,
0010
2000
3000
0002
,
0003
2000
3000
0200
,
0000
0300
0000
0020
,
0030
0002
0003
2000
,
0000
3000
0000
0001
,
0010
0001
0001
0010
,
0100
1000
0010
2000
,
3001
0020
0000
0130
0000
2000
0000
3000
,
0000
0001
0100
0000
0010
1000
0000
0100
,
0010
0000
0100
1000
0000
1000
0002
0000
,
0013
0100
1000
0000
0010
0100
0002
0000
,
0100
0000
1003
0000
0001
0000
1000
0100
,
1000
0000
0001
0000
1001
0000
0001
0010
,
0100
0000
0020
0000
0031
0000
0100
0010
,
1000
0000
0010
0000
0110
0000
0001
0100
,
0001
0000
0020
0000
0130
0000
1000
0100
,
1000
0000
0010
0001
0010
0000
2000
0000
,
0000
0000
0000
0000
0000
3000
0000
0001
,
0010
0100
1000
0000
0110
0000
1000
0010
,
0100
0000
0002
0000
0013
0000
0100
0010
,
0100
0000
1000
0000
1001
0000
1000
0010
,
1000
0000
0100
0000
0100
0010
0001
0010
,
0001
0000
1000
0000
1001
0000
0001
0010
,
1000
0000
0010
0000
0010
0001
1000
0010
,
0100
0000
0001
0010
0100
0000
0010
0001
,
0010
0002
0000
1003
0100
2000
0000
3010
,
0100
0001
1001
0002
,
0000
0000
0000
0000
,
0000
0000
2000
0000
3003
0000
0001
0010
,
0100
0000
0001
0100
0010
0000
0001
0100
,
0010
0000
0100
0001
0010
0100
1000
0010
,
0100
0000
1000
0100
0010
0000
1000
0100
,
0010
0000
1000
0010
1000
0010
0001
0100
,
0010
0000
0001
0010
0100
0000
0001
0010
,
0100
0000
0010
0001
0100
0010
1000
0000
,
1001
0000
0100
0100
0100
0000
0001
0001
,
0001
0010
0100
0000
2002
0000
3003
0000
;

//---------------dance-single - ----------------
#NOTEDATA:;
#CHARTNAME:;
#STEPSTYPE:dance-single;
#DESCRIPTION:;
#CHARTSTYLE:;
#DIFFICULTY:Easy;
#METER:7;
#RADARVALUES:0.301967,0.372617,0.164321,0.179260,0.000000,283.000000,261.000000,22.000000,24.000000,0.000000,0.000000,0.000000,0.000000,0.000000,0.301967,0.372617,0.164321,0.179260,0.000000,283.000000,261.000000,22.000000,24.000000,0.000000,0.000000,0.000000,0.000000,0.000000;
#CREDIT:led_light;
#NOTES:
0000
0000
0000
0000
,
0000
0000
0000
0000
,
0000
0000
0000
0000
,
0000
0000
0000
0000
,
0000
0000
0000
0000
,
0000
0000
0000
0000
,
0000
0000
0000
0000
,
0000
0000
0000
0000
,
0000
0000
0000
0000
,
1000
1000
0100
0100
,
0001
0000
0001
0000
0010
0100
0010
0000
,
1000
1000
0001
0001
,
0100
0000
0100
0000
0010
1000
0010
1000
,
0001
0001
0010
0010
,
1000
0000
1000
0000
0100
0010
0100
0000
,
0001
0101
1000
1100
,
0010
0100
0010
0000
0001
0000
0100
0000
,
1001
0100
0001
0100
,
1000
0000
0100
0000
0001
0100
0001
0000
,
0110
0001
0010
1000
,
0010
0000
0010
0000
0001
0100
0001
0000
,
0110
1000
0100
0001
,
0100
0000
1000
0000
0100
0010
0100
0000
,
1000
0100
1000
0000
0010
0000
0010
0000
,
0100
0000
0001
0000
0010
0100
0010
0000
,
1001
0010
0001
0010
,
1000
0000
1000
0000
0010
0001
0010
0000
,
0110
0001
0100
0100
,
1000
0000
0100
0000
0001
0010
0001
0000
,
0110
1000
0010
0010
,
0001
0002
0013
1000
,
1010
0000
0001
0000
0011
0000
0100
0010
,
0000
0000
0100
0000
0110
0000
0001
1000
,
0001
0100
0100
0010
,
1000
0000
0001
0000
0110
0000
0001
0100
,
0010
0000
2000
0000
3100
0000
0001
0100
,
0001
0000
2002
0000
3003
0000
0010
0100
,
0010
0001
0001
1000
,
0100
0010
1001
0001
,
0100
0020
0000
1030
0000
2200
0000
0000
,
3300
0020
0031
2000
,
0000
0100
0000
3020
,
0000
0030
0000
0200
,
0000
0010
0000
0302
,
0000
0000
0003
0010
,
0100
0100
0000
1000
,
0001
0001
0000
0020
,
0030
0100
0000
1000
0000
0020
0000
0000
,
0030
0100
0100
0001
,
0010
0001
0010
1000
,
0010
0001
1000
0002
,
0000
0103
0000
0001
,
0001
1000
0000
0100
,
0000
0010
0000
0100
,
1000
1001
0000
0001
,
0000
0010
0000
0001
,
0001
0100
0000
0020
,
0000
0000
0000
0000
,
0100
0000
0130
0010
0100
0000
0001
1000
,
0001
0010
0010
0100
,
1000
0000
0001
0000
0110
0000
0001
0010
,
0100
0000
2000
0000
3010
0000
0001
0010
,
0001
0000
2002
0000
3003
0000
0100
0010
,
0100
0001
0001
1000
,
0010
0000
0001
0010
1000
0000
0001
0000
,
0010
0200
0000
1300
0000
2020
0000
0000
,
3030
0100
0110
0002
,
0000
0000
0000
0000
,
0000
0000
1003
0001
,
0001
0010
0010
1000
,
1000
0000
0100
0010
0100
0000
0001
0000
,
0001
1000
1000
0010
,
0010
0000
0100
0001
0100
0001
1000
0000
,
1000
0100
0100
0001
,
0001
0000
0010
0100
0010
0000
1000
0000
,
1010
0000
0001
0000
0011
0000
0100
0010
,
0100
1000
0020
0030
;

//---------------dance-single - ----------------
#NOTEDATA:;
#CHARTNAME:;
#STEPSTYPE:dance-single;
#DESCRIPTION:;
#CHARTSTYLE:;
#DIFFICULTY:Beginner;
#METER:3;
#RADARVALUES:0.130177,0.200640,0.014938,0.059753,0.000000,122.000000,120.000000,2.000000,8.000000,0.000000,0.000000,0.000000,0.000000,0.000000,0.130177,0.200640,0.014938,0.059753,0.000000,122.000000,120.000000,2.000000,8.000000,0.000000,0.000000,0.000000,0.000000,0.000000;
#CREDIT:led_light;
#NOTES:
0000
0000
0000
0000
,
0000
0000
0000
0000
,
0000
0000
0000
0000
,
0000
0000
0000
0000
,
0000
0000
0000
0000
,
0000
0000
0000
0000
,
0000
0000
0000
0000
,
0000
0000
0000
0000
,
0000
0000
0000
0000
,
1000
0000
1000
0000
,
1000
0000
0001
0001
,
0001
0000
1000
0000
,
0001
0000
0010
0010
,
0010
0000
0100
0000
,
0010
0000
0100
0000
,
1000
0000
1000
0000
,
0001
0001
0001
0000
,
0001
0000
0100
0000
,
0001
0000
0000
0000
,
1000
0000
0100
0000
,
1000
0000
0000
0000
,
0010
0000
0100
0000
,
0010
0000
0000
0000
,
1000
0000
0001
0000
,
1000
0000
0000
0000
,
0001
0000
0010
0000
,
0001
0000
0000
0000
,
1000
0000
0010
0000
,
1000
0000
0000
0000
,
0100
0000
0010
0000
,
0100
0000
0100
0000
,
1000
0000
0001
0000
,
1000
1000
1000
1000
,
0000
0001
0000
0010
,
0010
0010
0000
1000
,
0000
0100
0000
1000
,
1000
1000
0000
0001
,
0000
1000
0000
0010
,
0010
0010
0000
0002
,
0000
0003
0000
1000
,
0000
0001
0000
2000
,
0000
0000
0000
3000
,
0000
0000
0000
0002
,
0000
0000
0000
0003
,
0000
0000
0000
1000
,
0000
1000
0000
1000
,
0000
0000
0000
1001
,
0000
0000
0000
0110
,
0000
0000
0000
0001
,
0000
0001
0000
1000
,
0000
0001
0000
2000
,
0000
3000
0000
1000
,
0000
0000
0000
0100
,
0000
0000
0000
0010
,
0000
0000
0000
0001
,
0000
0000
0000
0001
,
0000
0000
0000
0200
,
0000
0000
0000
0000
,
0000
0300
0000
0001
,
0000
1000
0000
0100
,
0100
0100
0000
0001
,
0000
0010
0000
0001
,
0001
0001
0000
1000
,
0000
0001
0000
0100
,
0100
0100
0000
2000
,
0000
3000
0000
0002
,
0000
0003
0000
1000
,
0000
0000
0000
0000
,
0000
0000
0000
0001
,
0000
0001
0000
0001
,
0001
0001
0000
1000
,
0000
1000
0000
1000
,
1000
1000
0000
0010
,
0000
0010
0000
0010
,
0010
0010
0000
0001
,
0000
0100
0000
1000
,
0000
0001
0002
0003
;
