#TITLE:Chrono Diver -PENDULUMs-;
#SUBTITLE:;
#ARTIST:猫叉L.E.D.Master+;
#TITLETRANSLIT:;
#SUBTITLETRANSLIT:;
#ARTISTTRANSLIT:NekomataL.E.D.Master+;
#GENRE:BEMANI;
#CREDIT:;
#BANNER:Chrono Diver -PENDULUMs-.png;
#BACKGROUND:Chrono Diver -PENDULUMs--bg.png;
#LYRICSPATH:;
#CDTITLE:../cdtitle.png;
#MUSIC:Chrono Diver -PENDULUMs-.ogg;
#OFFSET:0.205000;
#SAMPLESTART:92.855003;
#SAMPLELENGTH:15.000000;
#SELECTABLE:YES;
#DISPLAYBPM:196.000000;
#BPMS:0.000000=196.000000
,376.000000=186.000000
,377.000000=162.000000
,378.000000=144.000000
,379.000000=129.000000
,380.000000=122.000000
,381.000000=117.000000
,382.000000=97.000000
,383.000000=81.000000
,383.500000=65.000000
,384.000000=34.500000
;
#STOPS:
;
#BGCHANGES:-3.000=Chrono Diver -PENDULUMs-.avi=1.000=0=0=0=StretchNoLoop====,
99999=-nosongbg-=1.000=0=0=0 // don't automatically add -songbackground-
;
#KEYSOUNDS:;
#ATTACKS:;

//---------------dance-single - ----------------
#NOTES:
     dance-single:
     :
     Hard:
     16:
     0.803713,0.898834,0.000000,0.000000,0.409092,722.000000,722.000000,0.000000,0.000000,0.000000,0.000000,0.803713,0.898834,0.000000,0.000000,0.409092,722.000000,722.000000,0.000000,0.000000,0.000000,0.000000:
0000
0000
0000
0000
,
0000
0000
0000
0000
,
0000
0000
0000
0000
,
0000
0000
0000
0000
,
0000
0000
0000
0000
,
0000
0000
0000
0000
,
0000
0000
0000
0000
,
0000
0000
0000
0000
,
0000
0000
0000
0000
,
0001
1000
0010
0100
0000
0001
1000
0100
,
0000
1000
0001
0100
0000
0001
0010
0100
,
1000
0001
0100
1000
0001
1000
0100
0001
,
1000
0001
0010
0100
0000
1000
0001
0100
,
0010
0100
0001
0100
0010
0100
0001
0010
,
0100
1000
0100
0010
0100
1000
0100
0010
,
0001
0001
1000
1000
0010
0010
0100
0100
,
0001
0100
0001
0000
1000
0100
1000
0000
0001
0100
0010
1000
0001
0010
0100
1000
,
0001
1000
0010
0100
0001
0001
1000
1000
,
0100
0000
0010
0000
0001
0000
0010
0000
0100
0000
1000
0001
1000
0000
0100
0000
,
0010
0001
1000
0010
0001
0001
0010
0010
,
1000
0000
0001
0000
0100
0000
0010
0000
1000
0001
1000
0001
1000
0100
1000
0100
,
0010
0100
1000
0001
0010
0001
1000
0010
,
0100
0000
0001
0000
0010
0000
0000
0000
0100
0010
0001
0010
0100
1000
0001
1000
,
0001
1000
0010
0100
0001
1000
0100
1000
,
0001
0000
0010
0000
0100
0000
1000
0000
0001
0000
1000
0001
0000
0100
0001
0000
,
1000
0001
0100
0010
1000
1000
0001
0001
,
0010
0000
0100
0000
1000
0000
0100
0000
0010
0000
0001
1000
0001
0000
0010
0000
,
0100
1000
0001
0100
1000
1000
0100
0100
,
0001
0000
1000
0000
0010
0000
0100
0000
0001
1000
0001
1000
0001
0010
0001
0010
,
0100
0010
0001
1000
0100
1000
0001
0100
,
0010
0000
1000
0000
0100
0000
0000
0000
0010
0100
1000
0100
0010
0001
1000
0001
,
1000
0001
0100
0010
1000
0001
0010
0001
,
1000
0000
0100
0000
0010
0000
0001
0000
1000
0000
0001
1000
0000
0010
1000
0000
,
0001
1000
0001
0010
0100
0100
1000
1000
,
0001
0000
0100
0000
0010
0000
1000
0000
0001
0000
1000
0010
0100
0000
0001
0000
,
1000
0001
0010
0100
1000
0100
0001
0100
,
1000
0000
0010
0000
0100
0000
0010
0000
1000
0001
1000
0001
0010
0100
0010
0100
,
1000
0001
0010
0001
1000
0010
0100
0001
,
1000
0010
0100
0010
1000
0001
0010
0100
,
1000
0001
0010
0001
1000
0010
0100
0001
,
0010
0000
0010
0000
0100
0000
0100
0000
0010
0001
1000
0000
0001
0000
0001
0000
,
0100
0100
0100
0010
0010
0010
1000
1000
,
1000
0001
0001
0001
0010
0100
1000
0001
,
0010
0010
0010
0001
0001
0001
1000
1000
,
1000
0010
0010
0010
0100
0010
1000
0001
,
0010
0100
0100
1000
0001
0001
0100
1000
,
1000
0001
0010
0010
1000
0001
0010
0100
,
0010
0000
0010
0000
0100
1000
0010
0000
0010
0000
0100
0001
,
1000
0000
0000
1000
0000
0000
0001
0000
0000
1000
0000
0001
,
0010
0000
0100
1000
0000
0000
0001
0000
0000
0001
0000
0000
,
0100
0000
0000
0100
0000
0000
0010
0000
0000
0100
0000
0010
,
1000
0000
0001
0010
0000
0000
0100
0000
0000
0100
0000
0000
,
1000
0000
0000
1000
0000
0000
0001
0000
0000
1000
0000
0001
,
0100
0000
0010
1000
0000
0000
0001
0000
0000
0001
0000
0000
,
0010
0000
0000
0010
0000
0000
0100
0000
0000
0010
0000
0100
,
1000
0000
0001
0100
0000
0000
0010
0000
0010
1000
0000
1000
,
0001
0000
0000
0000
,
0000
0000
0000
0000
,
0000
0000
0000
0000
,
0000
0000
0000
0000
,
1000
0100
1000
0000
0001
0100
0001
0000
1000
0010
1000
0000
0001
0010
0001
0000
,
1000
0000
0001
0100
0010
0000
1000
0000
0001
0000
1000
0000
0100
0010
0001
0000
,
1000
0000
0001
1000
0010
0000
0100
0000
0001
0000
1000
0000
0100
0000
0010
0000
,
0100
0000
1000
0000
0001
0000
0010
0000
0100
0010
0100
0000
1000
0001
1000
0000
,
0001
0100
0010
0100
0001
1000
0010
0100
,
0001
0000
0010
0000
0100
0000
1000
0000
0001
0000
1000
0100
0010
0000
0001
0000
,
1000
0010
0100
0001
1000
1000
0100
0010
,
0001
0001
1000
1000
0001
0010
0100
1000
,
0001
0010
0001
0000
1000
0010
1000
0000
0001
0100
0001
0000
1000
0100
1000
0000
,
0001
0000
1000
0010
0100
0000
0001
0000
1000
0000
0001
0000
0010
0100
1000
0000
,
0001
0000
1000
0001
0100
0000
0010
0000
1000
0000
0001
0000
0010
0000
0100
0000
,
0010
0000
0001
0000
1000
0000
0100
0000
0010
0100
0010
0000
0001
1000
0001
0000
,
1000
0010
0100
0010
1000
0001
0100
0010
,
1000
0000
0100
0000
0010
0000
0001
0000
1000
0000
0001
0010
0100
0000
1000
0000
,
0001
0100
0010
1000
0001
0001
0010
0100
,
1000
1000
0001
0001
1000
0100
0010
0001
,
0010
0100
0010
0000
0100
0000
1000
0001
1000
0000
0010
0000
0100
0010
0100
0000
,
0001
0000
1000
0100
1000
0000
0001
0000
0100
0010
1000
0001
0100
0010
1000
0000
,
0000
0100
1000
0001
1000
0010
0100
0001
,
1000
0000
0001
0000
0100
0000
0010
0000
1000
0000
0001
0000
0010
0100
1000
0000
,
0001
0010
0100
0000
0010
0000
0001
0100
0010
0000
0100
0000
0001
1000
0100
0000
,
0010
0000
0100
1000
0001
0000
1000
0000
0001
1000
0010
0100
0001
1000
0100
0000
,
0000
0010
0001
1000
0001
0010
0100
1000
,
0001
0000
1000
0000
0010
0000
0100
0000
0010
0000
1000
0000
0100
0010
0001
0000
,
0010
0100
0010
0000
0100
0000
1000
0001
1000
0000
0010
0000
0100
0010
0100
0000
,
0001
0000
1000
0100
1000
0000
0001
0000
0100
0010
1000
0001
0100
0010
1000
0000
,
0000
0100
1000
0001
1000
0010
0100
0001
,
1000
0000
1000
0000
0001
0000
0100
0000
0010
0000
1000
0000
0001
0010
0100
0000
,
1000
0100
0010
0000
0100
0000
1000
0010
0100
0000
0010
0000
1000
0001
0010
0000
,
0100
0000
0010
0001
1000
0000
0001
0000
1000
0001
0100
0010
1000
0001
0010
0000
,
0000
0100
1000
0001
1000
0010
0100
0001
,
1000
0000
0100
0010
0100
0000
0010
0001
0010
0000
0100
0000
1000
0001
1000
0001
,
1000
0100
1000
0100
0010
0001
0010
0001
,
1000
0010
1000
0010
0100
0001
0100
0001
,
1000
0100
1000
0100
0001
0100
0001
0100
,
1000
0001
0100
0010
1000
0001
0010
0100
,
1000
0001
0000
0000
0000
0000
0000
0000
;

//---------------dance-single - ----------------
#NOTES:
     dance-single:
     :
     Beginner:
     6:
     0.247125,0.337063,0.000000,0.054546,0.000000,222.000000,222.000000,0.000000,7.000000,0.000000,0.000000,0.247125,0.337063,0.000000,0.054546,0.000000,222.000000,222.000000,0.000000,7.000000,0.000000,0.000000:
0000
0000
0000
0000
,
0000
0000
0000
0000
,
0000
0000
0000
0000
,
0000
0000
0000
0000
,
0000
0000
0000
0000
,
0000
0000
0000
0000
,
0000
0000
0000
0000
,
0000
0000
0000
0000
,
0000
0000
0000
0000
,
1000
0000
1000
0000
,
0001
0000
0001
0000
,
1000
0000
1000
0000
,
0010
0000
0010
0000
,
0100
0100
0100
0000
,
0001
0001
0001
0000
,
0010
0010
0010
0000
,
0010
0010
0010
0010
,
0010
0000
0100
0000
,
1000
0001
0010
0001
,
1000
0000
0010
0000
,
0100
0001
1000
0001
,
0100
0000
0010
0000
,
1000
0000
0001
1000
,
0001
0000
0010
0000
,
0100
1000
0001
0000
,
0100
0000
0010
0000
,
1000
0001
0100
0001
,
1000
0000
0100
0000
,
0010
0001
1000
0001
,
0010
0000
0100
0000
,
1000
0000
0001
1000
,
0001
0000
0100
0000
,
0010
1000
0001
0000
,
1000
0000
0010
0000
,
0100
0001
0100
0001
,
1000
0000
0100
0000
,
0010
0000
0001
0001
,
0001
0000
0010
0000
,
0100
0000
1000
0000
,
0010
0000
0100
0000
,
0010
0010
0010
0010
,
0010
0000
0000
0010
0000
0000
0100
0000
,
0000
0100
0000
0000
0001
0000
1000
0000
,
0001
0000
0000
0001
0000
0000
1000
0000
,
0000
1000
0000
0000
0100
0000
0010
0000
,
0001
0000
0000
0001
0000
0000
1000
0000
,
0000
1000
0000
0000
0001
0000
0100
0000
,
0010
0000
1000
0000
,
0002
0000
0000
0000
,
0003
0000
1000
0000
,
2000
0000
0000
0000
,
3000
0000
0100
0000
,
0200
0000
0000
0000
,
0300
0000
0001
0000
,
0002
0000
0003
0000
,
0100
0000
1000
0000
,
0020
0000
0000
0000
,
0000
0000
0000
0000
,
0030
0000
0000
0000
,
0000
0000
0000
0000
,
1000
1000
0001
0001
,
1000
0001
1000
0000
,
0001
0010
0001
0010
,
0100
1000
0100
1000
,
0001
0000
1000
0000
,
0010
0010
0010
0000
,
0100
0000
0001
0000
,
0010
0100
1000
1000
,
0001
0001
1000
1000
,
0001
1000
0001
0000
,
1000
0100
1000
0100
,
0010
0001
0010
0001
,
1000
0000
0001
0000
,
0100
0100
0100
0000
,
0010
0000
1000
0000
,
0100
0010
0001
0001
,
1000
0000
0000
1000
0000
0000
0100
0000
,
0000
0100
0000
0000
0001
0000
0000
0001
,
0000
0100
1000
0100
,
1000
0010
1000
0010
,
0100
0000
0000
0100
0000
0000
0001
0000
,
0000
0001
0000
0000
1000
0000
0000
1000
,
0000
0001
1000
0010
,
0100
0001
0100
0001
,
1000
0000
0000
1000
0000
0000
0100
0000
,
0000
0100
0000
0000
0001
0000
0000
0001
,
0000
0100
1000
0100
,
1000
0010
1000
0010
,
0100
0000
0000
0100
0000
0000
0001
0000
,
0000
0001
0000
0000
0010
0000
0000
0010
,
0000
0100
1000
0010
,
0100
0001
0010
0100
,
0020
0000
0000
0000
,
0000
0000
0030
0000
,
0200
0000
0000
0000
,
0000
0000
0000
0000
,
0000
0300
0000
0000
0000
0000
0000
0000
;

//---------------dance-single - ----------------
#NOTES:
     dance-single:
     :
     Challenge:
     18:
     0.959557,1.198445,0.311689,0.124676,0.763638,862.000000,822.000000,40.000000,16.000000,0.000000,0.000000,0.959557,1.198445,0.311689,0.124676,0.763638,862.000000,822.000000,40.000000,16.000000,0.000000,0.000000:
// measure 0
0000
0000
0000
0000
,  // measure 1
0000
0000
0000
0000
,  // measure 2
0000
0000
0000
0000
,  // measure 3
0000
0000
0000
0000
,  // measure 4
0000
0000
0000
0000
,  // measure 5
0000
0000
0000
0000
,  // measure 6
0000
0000
0000
0000
,  // measure 7
0000
0000
0000
0000
,  // measure 8
0000
0000
0000
0000
,  // measure 9
1000
0100
0010
0001
0001
0010
0100
1000
,  // measure 10
0001
0100
0010
1000
1000
0010
0100
0001
,  // measure 11
1000
0001
0010
1000
0001
0100
1000
0001
,  // measure 12
1000
0010
0100
0001
0001
0100
0010
1000
,  // measure 13
0001
0000
1000
0100
1000
0000
0001
0000
0010
0000
0100
1000
0100
0000
0010
0000
,  // measure 14
0001
0000
1000
0010
0100
0000
0001
0000
0100
0000
0010
1000
0001
0000
0010
0000
,  // measure 15
0100
1000
0100
0000
0010
0001
0010
0000
0001
0010
0100
0000
1000
0010
0100
0000
,  // measure 16
0001
0100
0001
0100
0010
1000
0010
1000
0001
0010
0100
1000
0100
0010
0001
1000
,  // measure 17
0010
0100
0001
1000
0010
0010
1000
0001
,  // measure 18
0010
0000
0010
0000
0100
0000
1000
0000
0100
0000
0010
0001
0010
0001
1000
0000
,  // measure 19
0100
0010
0001
1000
0010
0001
0010
1000
,  // measure 20
0001
0000
0100
0000
0010
0000
1000
0001
1000
0001
1000
0100
0010
0001
0010
0100
,  // measure 21
1000
0001
0010
0001
1000
0100
0010
0001
,  // measure 22
1000
0000
0020
0000
0100
0000
0030
0000
0001
0100
0010
1000
0010
0100
0001
1000
,  // measure 23
0001
1000
0100
0001
0100
1000
0001
0010
,  // measure 24
0100
0000
1000
0000
1001
0000
0011
0000
0100
0000
1000
0001
0100
0010
1000
0001
,  // measure 25
0010
0100
1000
0001
0010
0010
0001
1000
,  // measure 26
0010
0000
0010
0000
0100
0000
0001
0000
0100
0000
0010
1000
0010
1000
0001
0000
,  // measure 27
0100
0010
1000
0001
0010
1000
0010
0001
,  // measure 28
1000
0000
0100
0000
0010
0000
0001
1000
0001
1000
0001
0100
0010
1000
0010
0100
,  // measure 29
0001
1000
0010
1000
0001
0100
0010
1000
,  // measure 30
0001
0000
0020
0000
0100
0000
0030
0000
1000
0100
0010
0001
0010
0100
1000
0001
,  // measure 31
1000
0001
0100
1000
0100
0001
1000
0010
,  // measure 32
0100
0000
0001
0000
1001
0000
1010
0000
0100
0000
0001
1000
0100
0010
0001
1000
,  // measure 33
0010
0100
0110
0100
0001
1000
1001
1000
,  // measure 34
0100
0000
0010
0000
0110
0000
0010
0000
0001
0000
1000
0001
1000
0000
0010
0000
,  // measure 35
0100
0000
0001
0100
0001
0000
0100
0000
0010
0000
1000
0010
1000
0000
0001
0000
,  // measure 36
0010
0000
0100
1000
0100
0000
1000
0000
0001
0100
0001
0100
0010
1000
0010
0100
,  // measure 37
0001
1000
1001
1000
0100
0010
0110
0010
,  // measure 38
0001
0000
1000
0000
1001
0000
1000
0000
0010
0000
0100
0001
0100
0000
0010
0000
,  // measure 39
1000
0010
0101
0100
0001
0010
1100
0001
,  // measure 40
1001
0000
0011
0000
0110
0000
1001
0000
0001
1000
0010
0100
0001
1000
0100
0000
,  // measure 41
1100
1000
1000
0011
0001
0001
1010
1000
,  // measure 42
1000
0101
0001
0001
1001
0100
0010
0001
,  // measure 43
0011
0001
0001
1100
1000
1000
0101
0001
,  // measure 44
0001
1010
1000
1000
1001
0010
0100
1000
,  // measure 45
1100
1000
0010
1010
0010
0001
0011
0001
,  // measure 46
0100
0101
0100
1000
1100
1000
0001
0100
,  // measure 47
0010
0000
0110
0000
1000
0100
0010
0000
0110
0000
0001
0100
,  // measure 48
0020
0000
0000
0100
0000
0000
0001
0000
0000
0001
0000
1030
,  // measure 49
0001
0000
1000
0100
0000
0000
0010
0000
0010
0001
0000
0001
,  // measure 50
0200
0000
0000
0010
0000
0000
1000
0000
0000
1000
0000
0301
,  // measure 51
1000
0000
0001
0010
0000
0000
0100
0000
0100
1000
0000
1000
,  // measure 52
0002
0000
0000
0100
0000
0000
0010
0000
0000
0010
0000
1003
,  // measure 53
0100
0000
1000
0001
0000
0000
0100
0000
0100
0010
0000
0010
,  // measure 54
2000
0000
0000
0010
0000
0000
0100
0000
0000
0100
0000
3001
,  // measure 55
0010
0000
0001
1000
0000
0000
0010
0000
0010
0100
0000
0100
,  // measure 56
0020
0000
0000
0000
,  // measure 57
0200
0000
0000
0330
,  // measure 58
2002
0000
0000
0003
,  // measure 59
0200
0000
0000
3300
,  // measure 60
0010
0001
0010
0100
1000
0100
0010
0001
1000
0001
1000
0010
0100
0001
1000
0001
,  // measure 61
0010
0000
0100
1000
0001
1000
0100
1000
0001
0100
0001
0000
1000
0010
1000
0000
,  // measure 62
0001
0000
1000
0100
0010
0000
0100
0000
1000
0000
0001
0010
0100
0000
0010
0000
,  // measure 63
0001
0000
1000
0000
0010
0000
0100
0000
0001
1000
0001
1000
0001
0000
0100
0000
,  // measure 64
0010
0000
1000
0000
0001
0000
1000
0000
0100
0000
0010
0001
0010
0000
0100
0000
,  // measure 65
1000
0000
0001
0000
0010
0000
0001
0000
0100
0000
0010
1000
0010
0000
1000
0000
,  // measure 66
0001
1000
0100
1000
0001
0001
1000
0010
,  // measure 67
0100
0001
1001
1001
0100
0010
0110
1000
,  // measure 68
0100
1000
0100
0010
0001
0010
0100
1000
0001
1000
0001
0100
0010
1000
0001
1000
,  // measure 69
0100
0000
0010
0001
1000
0001
0010
0001
1000
0010
1000
0000
0001
0100
0001
0000
,  // measure 70
1000
0000
0001
0010
0100
0000
0010
0000
0001
0000
1000
0100
0010
0000
0100
0000
,  // measure 71
1000
0000
0001
0000
0100
0000
0010
0000
1000
0001
1000
0001
1000
0000
0010
0000
,  // measure 72
0100
0000
0001
0000
1000
0000
0001
0000
0010
0000
0100
1000
0100
0000
0010
0000
,  // measure 73
0001
0000
1000
0000
0100
0000
1000
0000
0010
0000
0100
0001
0100
0000
0001
0000
,  // measure 74
1000
0001
0010
0001
1000
1000
0001
0100
,  // measure 75
0010
1000
1001
1001
0010
0100
0110
0001
,  // measure 76
1000
0001
0100
0001
0100
0001
1000
0001
0010
0001
0010
0001
1000
0001
0100
0001
,  // measure 77
0100
0001
1000
0100
0010
0100
0010
0100
1000
0001
0100
0010
1000
0001
2000
0000
,  // measure 78
0000
3100
0010
0001
1000
0001
0010
0100
,  // measure 79
1000
0000
0001
0000
0010
0000
0001
0000
1000
0000
0010
0000
0100
0001
0100
0000
,  // measure 80
0001
1000
0010
1000
0010
1000
0001
1000
0100
1000
0100
1000
0001
0100
0010
0100
,  // measure 81
0010
0100
0001
0010
0100
0010
0100
0010
0001
1000
0010
0100
0001
1000
0002
0000
,  // measure 82
0000
1003
0100
1000
0001
1000
0010
0100
,  // measure 83
0001
0100
0010
0100
0001
1000
0010
1000
0001
0010
0001
1000
0100
1000
0001
0000
,  // measure 84
1000
0001
0100
0001
0100
0001
1000
0001
0010
0001
0010
0001
1000
0001
0100
0001
,  // measure 85
0100
0001
1000
0100
0010
0100
0010
0100
1000
0001
0100
0010
1000
0001
2000
0000
,  // measure 86
0000
3100
0010
0001
1000
0001
0010
0100
,  // measure 87
1000
0000
0001
0000
0010
0000
0001
0000
1000
0000
0010
0000
0100
0001
0100
0000
,  // measure 88
0001
1000
0010
1000
0010
1000
0001
1000
0100
1000
0100
1000
0001
0100
0010
0100
,  // measure 89
0010
0100
0001
0010
0100
0010
0100
0010
0001
1000
0010
0100
0001
1000
0002
0000
,  // measure 90
0000
1003
0100
1000
0001
1000
0010
0100
,  // measure 91
0001
0100
0010
1000
0001
0010
0100
1000
0100
0010
0001
1000
0010
0100
0001
1000
,  // measure 92
0001
1000
0001
1000
0001
1000
0001
1000
,  // measure 93
0100
0010
0100
0010
0100
0010
0100
0010
,  // measure 94
0001
1000
0001
1000
0010
0100
0010
0100
,  // measure 95
1000
0000
0000
0000
0000
0000
0000
0000
0000
0000
0000
0000
0000
0000
0000
0000
0000
0000
0000
0000
0000
0000
0000
0000
0100
0000
0000
0000
0000
0000
0000
0000
0000
0000
0000
0000
0000
0000
0000
0000
0000
0000
0000
0000
0000
0000
0000
0000
0001
0000
0000
0000
0000
0000
0000
0000
0000
0000
0000
0000
0000
0000
0000
0000
0000
0000
0000
0000
0000
0000
0000
0000
1000
0000
0000
0000
0000
0000
0000
0000
0000
0000
0000
0000
0000
0000
0000
0000
0000
0000
0000
0000
0000
0000
0000
0000
0010
0000
0000
0000
0000
0000
0000
0000
0000
0000
0000
0000
0000
0000
0000
0000
0000
0000
0000
0000
0000
0000
0000
0000
0001
0000
0000
0000
0000
0000
0000
0000
0000
0000
0000
0000
0000
0000
0000
0000
0000
0000
0000
0000
0000
0000
0000
0000
0010
0000
0000
0000
0000
0000
0000
0000
0000
0000
0000
0000
0000
0000
0000
0000
0000
0000
0000
0000
0000
0000
0000
0000
1000
0000
0000
0000
0000
0000
0000
0000
0000
0000
0000
0000
0000
0000
0000
0000
0000
0000
0001
0000
0010
0000
0100
0000
,  // measure 96
2000
3001
0000
0000
0000
0000
0000
0000
;

//---------------dance-single - ----------------
#NOTES:
     dance-single:
     :
     Medium:
     13:
     0.615586,0.636674,0.241559,0.124676,0.031169,553.000000,522.000000,31.000000,16.000000,0.000000,0.000000,0.615586,0.636674,0.241559,0.124676,0.031169,553.000000,522.000000,31.000000,16.000000,0.000000,0.000000:
0000
0000
0000
0000
,
0000
0000
0000
0000
,
0000
0000
0000
0000
,
0000
0000
0000
0000
,
0000
0000
0000
0000
,
0000
0000
0000
0000
,
0000
0000
0000
0000
,
0000
0000
0000
0000
,
0000
0000
0000
0000
,
0000
0001
0010
0001
0000
0010
0100
0010
,
0000
0100
1000
0100
0000
1000
0010
1000
,
0000
0010
0100
0001
0100
0010
1000
0001
,
1000
0100
0010
0001
0000
1000
0010
0100
,
0000
0001
0100
0001
0000
0100
0010
0100
,
0000
0010
1000
0010
0000
1000
0100
1000
,
0000
0100
0010
0001
0010
0100
1000
0001
,
1000
0000
1001
0000
1000
0100
0001
0010
,
1000
0000
1001
0000
0001
0010
0100
0010
,
0001
1000
0010
0100
0000
1000
0100
0001
,
0000
1000
0100
0010
1000
0010
0001
0010
,
0100
1000
0010
0100
0001
1000
0001
1000
,
1001
0000
0100
0000
1000
0010
0100
0001
,
1000
0200
0001
0000
1300
0001
1000
0010
,
0100
0001
1000
0010
0100
0001
0010
0100
,
1000
0000
0001
0000
0010
0000
0001
0000
0100
0000
0000
0010
0000
0000
1000
0000
,
0001
0000
1001
0000
1000
0100
0010
0100
,
1000
0001
0100
0010
0000
0001
0010
1000
,
0000
0001
0010
0100
0001
0100
1000
0100
,
0010
0001
0100
0010
1000
0001
1000
0001
,
1001
0000
0010
0000
0001
0100
0010
1000
,
0001
0020
1000
0000
0031
1000
0001
0100
,
0010
1000
0001
0100
0010
1000
0100
0010
,
0001
0000
1000
0000
0100
0000
1000
0000
0010
0000
0000
0100
0000
0000
0001
0000
,
1000
0000
1001
0000
0100
0010
0001
0010
,
0100
1000
0001
0100
0000
0010
1000
0001
,
0020
0100
0130
0000
2000
0001
3001
0000
,
0200
0010
0310
0000
1000
0001
1000
0001
,
0010
0000
0110
0000
1000
0001
1000
0010
,
0000
0100
0001
1000
0010
0100
0001
1000
,
0010
0110
1000
1001
,
0100
0100
0010
0010
0001
1000
0001
0000
,
1001
0000
1000
1010
0000
0001
0101
0000
,
1000
1100
0000
0001
0011
0000
0010
0000
,
1001
0000
0001
0101
0000
1000
1010
0000
,
0001
0011
0000
1000
1100
0000
0100
0000
,
1001
0000
0001
0110
0000
1000
0110
0000
,
0001
0110
0000
1000
0110
0000
0001
0000
,
1000
0000
1000
0000
1000
0000
0001
0000
0001
0000
0001
0000
,
0210
0000
1000
0000
,
0010
0000
0000
0000
0000
0000
0301
0000
0001
1000
0000
0000
,
1200
0000
0010
0000
,
0001
0000
1300
0001
,
0120
0000
1000
0000
,
0100
0000
0000
0000
0000
0000
0031
0000
0001
1000
0000
0000
,
1020
0000
0100
0000
,
0001
0000
1030
0001
,
2002
0000
0000
0000
,
0000
0000
0000
0000
,
3003
0000
0000
0000
,
0000
0000
0000
0000
,
0001
0010
1000
0010
0001
0010
1000
0000
,
0010
0000
0001
1000
0000
1000
0010
0000
,
0100
0000
0001
0010
0000
0010
0100
0010
,
0001
0000
1001
0000
0010
0100
0001
0000
,
1000
0100
0010
0000
0001
0010
0100
0000
,
1000
0000
0010
0100
0000
0100
0010
1000
,
0001
0000
0010
0000
0100
1000
0100
0000
,
0010
0010
0100
0100
0010
0001
1000
0000
,
1000
0010
0001
0010
1000
0010
0001
0000
,
0010
0000
1000
0001
0000
0001
0010
0000
,
0100
0000
1000
0010
0000
0010
0100
0010
,
1000
0000
1001
0000
0010
0100
1000
0000
,
0001
0100
0010
0000
1000
0010
0100
0000
,
0001
0000
0010
0100
0000
0100
0010
0001
,
1000
0000
0010
0000
0100
0001
0100
0000
,
0010
0010
0100
0100
0010
1000
0001
0000
,
1000
0100
0100
0001
0100
0100
1000
0010
,
0010
0001
0010
0010
1000
0001
0010
2000
,
0000
3010
0001
1000
0100
0010
0001
1000
,
0010
0100
0001
1000
0001
0100
0010
0000
,
1000
0001
0001
0010
1000
1000
0010
0001
,
0001
0100
1000
1000
0100
0001
0010
0200
,
0000
0310
0001
1000
0010
0100
0010
1000
,
0001
0100
1000
0100
0001
1000
0100
0010
,
0001
0100
0100
1000
0100
0100
0001
0010
,
0010
1000
0010
0010
0001
1000
0010
0002
,
0000
0013
1000
0001
0100
0010
1000
0001
,
0010
0100
1000
0001
1000
0100
0010
0000
,
0001
1000
1000
0010
0001
0001
0010
1000
,
1000
0100
0001
0001
0100
1000
0010
0200
,
0000
0310
1000
0001
0010
0100
0010
0001
,
1000
0100
0001
0100
1000
0001
0100
1000
,
0100
0010
0100
0010
1000
0100
1000
0100
,
0010
0001
0010
0001
1000
0001
1000
0001
,
0100
0010
0100
0010
1000
0001
1000
0001
,
0010
1000
0010
0001
1000
0010
0001
0010
,
2000
3001
0000
0000
0000
0000
0000
0000
;

//---------------dance-single - ----------------
#NOTES:
     dance-single:
     :
     Easy:
     9:
     0.382932,0.486868,0.171429,0.163637,0.015584,344.000000,322.000000,22.000000,21.000000,0.000000,0.000000,0.382932,0.486868,0.171429,0.163637,0.015584,344.000000,322.000000,22.000000,21.000000,0.000000,0.000000:
0000
0000
0000
0000
,
0000
0000
0000
0000
,
0000
0000
0000
0000
,
0000
0000
0000
0000
,
0000
0000
0000
0000
,
0000
0000
0000
0000
,
0000
0000
0000
0000
,
0000
0000
0000
0000
,
0000
0000
0000
0000
,
1000
0010
0100
0000
,
0001
0010
0100
0000
,
1000
0010
0001
0010
,
1000
0100
0010
0000
,
0100
1000
0010
0000
,
0100
0001
0010
0000
,
0100
1000
0010
0000
,
1000
0010
0001
0010
,
1001
0000
0001
1000
,
0100
0010
0100
0000
,
1000
0001
0100
0010
,
1000
0001
1000
0000
,
1000
0010
0100
0001
,
1000
0000
0001
0010
,
1000
0010
0001
1000
,
0010
0100
0110
0000
,
1001
0000
1000
0001
,
0010
0100
0010
0000
,
0001
1000
0010
0100
,
0001
1000
0001
0000
,
0001
0100
0010
1000
,
0001
0000
1000
0100
,
0001
0100
1000
0001
,
0100
0010
0110
0000
,
1001
0000
1000
0100
,
0010
0001
0010
0100
,
2000
0000
3020
0000
,
0230
0000
0301
1000
,
1001
0000
0001
0100
,
0010
1000
0010
0100
,
0002
0000
0023
0000
,
0130
1000
0001
1000
,
1001
0000
0000
1100
0000
0000
0011
0000
,
0000
0110
0000
0000
1001
0000
0001
0000
,
0101
0000
0000
0110
0000
0000
1010
0000
,
0000
1100
0000
0000
0110
0000
0001
0000
,
1010
0000
0000
0101
0000
0000
1100
0000
,
0000
0011
0000
0000
0110
0000
1000
0000
,
0001
0000
0001
0000
0001
0000
1000
0000
1000
0000
1000
0000
,
0020
0000
0100
0000
,
2030
0000
3100
0010
,
0002
0000
0010
0000
,
0203
0000
0310
1000
,
0200
0000
0010
0000
,
2300
0000
3010
0100
,
0002
0000
0100
0000
,
0023
0000
0130
1000
,
2002
0000
0000
0000
,
0000
0000
0000
0000
,
3003
0000
0000
0000
,
0000
0000
0000
0000
,
1000
0100
1000
0000
0001
0010
0001
0000
,
1000
0000
0010
0100
0000
0100
0010
0000
,
1000
0000
0001
0010
0000
0100
1000
0000
,
0001
0000
1000
0000
0010
0100
0010
0000
,
1000
0000
0010
0000
0100
0001
0100
0000
,
0010
0000
1000
0001
0000
0001
1000
0000
,
0100
0000
0010
0000
0001
1000
0001
0000
,
0100
0010
1000
0001
,
0001
0010
0001
0000
1000
0100
1000
0000
,
0001
0000
0100
0010
0000
0010
0100
0000
,
0001
0000
1000
0100
0000
0010
0001
0000
,
1000
0000
0001
0000
0100
0010
0100
0000
,
0001
0000
0100
0000
0010
1000
0010
0000
,
0100
0000
0001
1000
0000
1000
0001
0000
,
0010
0000
0100
0000
1000
0001
1000
0000
,
0010
0100
0001
1000
,
0010
0000
0010
1000
0000
1000
0100
0000
,
0100
0010
0000
0010
0001
0000
0001
2000
,
0000
3001
1000
0010
,
0100
0000
0001
0000
1000
0010
1000
0000
,
0001
0000
0001
0010
0000
0010
1000
0000
,
1000
0100
0000
0100
0001
0000
0001
0020
,
0000
0130
0010
0001
,
0010
0100
0010
0000
0001
1000
0001
0000
,
0100
0000
0100
0001
0000
0001
0010
0000
,
0010
0100
0000
0100
1000
0000
1000
0002
,
0000
1003
0001
0100
,
0010
0000
1000
0000
0001
0100
0001
0000
,
1000
0000
1000
0100
0000
0100
0001
0000
,
0001
0010
0000
0010
1000
0000
1000
0200
,
0000
0310
0100
1000
,
0100
0010
0100
0000
1000
0001
1000
0000
,
0020
0000
0001
0000
,
0100
0000
1000
0000
,
0031
0010
1000
0100
,
0001
0100
1000
0010
,
0200
0310
0000
0000
0000
0000
0000
0000
;

//---------------dance-double - ----------------
#NOTES:
     dance-double:
     :
     Easy:
     9:
     0.382932,0.486868,0.171429,0.132468,0.015584,344.000000,322.000000,22.000000,17.000000,0.000000,0.000000,0.382932,0.486868,0.171429,0.132468,0.015584,344.000000,322.000000,22.000000,17.000000,0.000000,0.000000:
00000000
00000000
00000000
00000000
,
00000000
00000000
00000000
00000000
,
00000000
00000000
00000000
00000000
,
00000000
00000000
00000000
00000000
,
00000000
00000000
00000000
00000000
,
00000000
00000000
00000000
00000000
,
00000000
00000000
00000000
00000000
,
00000000
00000000
00000000
00000000
,
00000000
00000000
00000000
00000000
,
00010000
00001000
00100000
00000000
,
00001000
00010000
00000010
00000000
,
00000100
00000001
00000010
00000100
,
00010000
00001000
00010000
00000000
,
00001000
00010000
00000100
00000000
,
00010000
00001000
01000000
00000000
,
00100000
10000000
01000000
00000000
,
00100000
00001000
00010000
00001000
,
00011000
00000000
00000100
00000010
,
00000001
00001000
00000010
00000000
,
00000100
00001000
00010000
00100000
,
01000000
00010000
10000000
00000000
,
01000000
00100000
00010000
10000000
,
01000000
00000000
00010000
00001000
,
00000100
00000010
00001000
00000001
,
00000010
00000100
00000110
00000000
,
00011000
00000000
01000000
00100000
,
10000000
00010000
00100000
00000000
,
01000000
00010000
00001000
00000010
,
00000100
00001000
00000001
00000000
,
00000100
00000010
00001000
00000001
,
00000100
00000000
00001000
00010000
,
01000000
00100000
00010000
10000000
,
00100000
01000000
01100000
00000000
,
00011000
00000000
00000100
00000010
,
00000001
00000010
00000100
00010000
,
00002000
00000000
02003000
00000000
,
03200000
00000000
10300000
00010000
,
10010000
00000000
01000000
00100000
,
10000000
00100000
01000000
00001000
,
00020000
00000000
00030200
00000000
,
00000310
00000100
00000010
00000100
,
00001001
00000000
00000000
00000101
00000000
00000000
00001010
00000000
,
00000000
00011000
00000000
00000000
00110000
00000000
01000000
00000000
,
11000000
00000000
00000000
10010000
00000000
00000000
10100000
00000000
,
00000000
01010000
00000000
00000000
00011000
00000000
00000100
00000000
,
00001001
00000000
00000000
00000110
00000000
00000000
00001100
00000000
,
00000000
00011000
00000000
00000000
01010000
00000000
10000000
00000000
,
00010000
00000000
00010000
00000000
00010000
00000000
10000000
00000000
10000000
00000000
10000000
00000000
,
02000000
00000000
00010000
00000000
,
10000000
00000000
03010000
00001000
,
00000200
00000000
00000001
00000000
,
00001000
00000000
00000301
00000010
,
00002000
00000000
01000000
00000000
,
00010000
00000000
00103000
01000000
,
00020000
00000000
00000100
00000000
,
00001000
00000000
00030010
00000100
,
00002002
00000000
00000000
00000000
,
00000000
00000000
00000000
00000000
,
00003003
00000000
00000000
00000000
,
00000000
00000000
00000000
00000000
,
00000001
00000010
00001000
00000000
00001000
00000010
00000001
00000000
,
00000100
00000000
00001000
00010000
00000000
00010000
00001000
00000000
,
00100000
00000000
01000000
10000000
00000000
10000000
00010000
00000000
,
01000000
00000000
00100000
00000000
10000000
00010000
10000000
00000000
,
01000000
00000000
00100000
00000000
00001000
00010000
00001000
00000000
,
00100000
00000000
01000000
10000000
00000000
10000000
00100000
00000000
,
00010000
00000000
00001000
00000000
00000100
00000010
00000100
00000000
,
00000001
00000010
00000100
00001000
,
00000001
00000100
00001000
00000000
00001000
00000100
00000001
00000000
,
00000010
00000000
00001000
00010000
00000000
00010000
00001000
00000000
,
01000000
00000000
00100000
10000000
00000000
10000000
00010000
00000000
,
00100000
00000000
01000000
00000000
10000000
00010000
10000000
00000000
,
00100000
00000000
01000000
00000000
00001000
00010000
00001000
00000000
,
01000000
00000000
00100000
10000000
00000000
10000000
01000000
00000000
,
00010000
00000000
00001000
00000000
00000010
00000100
00000010
00000000
,
00000001
00000100
00000010
00001000
,
00000001
00000000
00000001
00000010
00000000
00000010
00001000
00000000
,
00001000
00010000
00000000
00010000
00100000
00000000
00100000
20000000
,
00000000
30010000
10000000
01000000
,
00100000
00000000
00001000
00000000
00010000
00001000
00010000
00000000
,
00000010
00000000
00000010
00000100
00000000
00000100
00001000
00000000
,
00001000
00010000
00000000
00010000
01000000
00000000
01000000
00200000
,
00000000
01300000
10000000
00100000
,
01000000
00010000
01000000
00000000
00100000
10000000
00010000
00000000
,
10000000
00000000
10000000
01000000
00000000
01000000
00010000
00000000
,
00010000
00001000
00000000
00001000
00000100
00000000
00000100
00000002
,
00000000
00001003
00000001
00000010
,
00000100
00000000
00010000
00000000
00001000
00010000
00001000
00000000
,
01000000
00000000
01000000
00100000
00000000
00100000
00010000
00000000
,
00010000
00001000
00000000
00001000
00000010
00000000
00000010
00000200
,
00000000
00000310
00000001
00000100
,
00000010
00001000
00000010
00000000
00000100
00000001
00001000
00000000
,
00000200
00000000
00000001
00000000
,
00001000
00000000
00000001
00000000
,
00000310
00000001
00000100
00001000
,
00010000
01000000
10000000
00100000
,
00020000
00031000
00000000
00000000
00000000
00000000
00000000
00000000
;

//---------------dance-double - ----------------
#NOTES:
     dance-double:
     :
     Medium:
     13:
     0.615586,0.636674,0.241559,0.124676,0.031169,553.000000,522.000000,31.000000,16.000000,0.000000,0.000000,0.615586,0.636674,0.241559,0.124676,0.031169,553.000000,522.000000,31.000000,16.000000,0.000000,0.000000:
00000000
00000000
00000000
00000000
,
00000000
00000000
00000000
00000000
,
00000000
00000000
00000000
00000000
,
00000000
00000000
00000000
00000000
,
00000000
00000000
00000000
00000000
,
00000000
00000000
00000000
00000000
,
00000000
00000000
00000000
00000000
,
00000000
00000000
00000000
00000000
,
00000000
00000000
00000000
00000000
,
00000000
00100000
00010000
00100000
00000000
01000000
10000000
01000000
,
00000000
10000000
00100000
10000000
00000000
00100000
00010000
00100000
,
00000000
00010000
00001000
00010000
00000100
00000010
00000001
00001000
,
00000001
00000010
00001000
00010000
00000000
00001000
00010000
00100000
,
00000000
01000000
00010000
01000000
00000000
00100000
10000000
00100000
,
00000000
10000000
01000000
10000000
00000000
01000000
00010000
01000000
,
00000000
00010000
00001000
00010000
00000010
00000100
00000001
00001000
,
00000100
00000000
00000110
00000000
00000001
00000010
00001000
00010000
,
00001000
00000000
00011000
00000000
00010000
00000100
00000010
00000100
,
00001000
00000001
00000100
00000010
00000000
00010000
00001000
00010000
,
00000000
00000100
00001000
00000001
00000010
00001000
00010000
00001000
,
00010000
00100000
10000000
01000000
00010000
00001000
00010000
00001000
,
00011000
00000000
00100000
00000000
01000000
10000000
00010000
01000000
,
00100000
00020000
00001000
00000000
00030100
00001000
00000001
00000010
,
00001000
00000010
00000001
00001000
00000100
00010000
00001000
01000000
,
00100000
00000000
10000000
00000000
00010000
00000000
00100000
00000000
01000000
00000000
00000000
10000000
00000000
00000000
00100000
00000000
,
00010000
00000000
00011000
00000000
00001000
00100000
01000000
00100000
,
00010000
10000000
00100000
01000000
00000000
00001000
00010000
00001000
,
00000000
00100000
00010000
10000000
01000000
00010000
00001000
00010000
,
00001000
00000100
00000001
00000010
00001000
00010000
00001000
00010000
,
00011000
00000000
00000100
00000000
00000010
00000001
00001000
00000010
,
00000100
00002000
00010000
00000000
00103000
00010000
10000000
01000000
,
00010000
01000000
10000000
00010000
00100000
00001000
00010000
00000010
,
00000100
00000000
00000001
00000000
00001000
00000000
00000100
00000000
00000010
00000000
00000000
00000001
00000000
00000000
00000100
00000000
,
00001000
00000000
00000110
00000000
00000001
00001000
00000010
00000100
,
00000001
00000010
00001000
00010000
00000000
00001000
00010000
01000000
,
20000000
00010000
30010000
00000000
02000000
00001000
03001000
00000000
,
00020000
00000100
00030100
00000000
00001000
00000010
00001000
00000010
,
00000001
00000000
00000110
00000000
00000001
00001000
00000100
00000010
,
00000000
00000100
00001000
00000001
00000010
00001000
00010000
00001000
,
00010000
00011000
00010000
10010000
,
10000000
10000000
00010000
00010000
00100000
01000000
00100000
00000000
,
10010000
00000000
10000000
10100000
00000000
01000000
01010000
00000000
,
00001000
00011000
00000000
00000100
00001100
00000000
00000010
00000000
,
00001001
00000000
00000001
00000101
00000000
00000010
00001010
00000000
,
00010000
00011000
00000000
00100000
00110000
00000000
01000000
00000000
,
01100000
00000000
10000000
10010000
00000000
00001000
00011000
00000000
,
00010000
00011000
00000000
00000001
00001001
00000000
00001000
00000000
,
00000001
00000000
00000001
00000000
00000001
00000000
00001000
00000000
00001000
00000000
00001000
00000000
,
00000210
00000000
00001000
00000000
,
00000001
00000000
00000000
00000000
00000000
00000000
00001300
00000000
00001000
00010000
00000000
00000000
,
02100000
00000000
10000000
00000000
,
00010000
00000000
13000000
00100000
,
00021000
00000000
00000100
00000000
,
00001000
00000000
00000000
00000000
00000000
00000000
00030010
00000000
00000010
00000100
00000000
00000000
,
00012000
00000000
01000000
00000000
,
00010000
00000000
00103000
01000000
,
20020000
00000000
00000000
00000000
,
00000000
00000000
00000000
00000000
,
30030000
00000000
00000000
00000000
,
00000000
00000000
00000000
00000000
,
10000000
00100000
00010000
00100000
10000000
00100000
00010000
00000000
,
00001000
00000000
00000010
00000001
00000000
00000001
00000100
00000000
,
00000010
00000000
00000100
00001000
00000000
00010000
00001000
00010000
,
00001000
00000000
00011000
00000000
00010000
00100000
10000000
00000000
,
00010000
00100000
01000000
00000000
10000000
01000000
00100000
00000000
,
00010000
00000000
10000000
00100000
00000000
00100000
01000000
00001000
,
00010000
00000000
00000010
00000000
00010000
00001000
00010000
00000000
,
00000100
00000100
00000010
00000010
00000100
00001000
00000001
00000000
,
00000001
00000100
00001000
00000100
00000001
00000100
00001000
00000000
,
00010000
00000000
01000000
10000000
00000000
10000000
00100000
00000000
,
01000000
00000000
00100000
00010000
00000000
00001000
00010000
00001000
,
00010000
00000000
00011000
00000000
00001000
00000100
00000001
00000000
,
00001000
00000100
00000010
00000000
00000001
00000010
00000100
00000000
,
00001000
00000000
00000001
00000100
00000000
00000100
00000010
00010000
,
00001000
00000000
01000000
00000000
00001000
00010000
00001000
00000000
,
00100000
00100000
01000000
01000000
00100000
00010000
10000000
00000000
,
10000000
00100000
00100000
00010000
00001000
00001000
00000010
00000001
,
00000001
00000100
00001000
00001000
00010000
01000000
10000000
00200000
,
00000000
01300000
00001000
00010000
00001000
00100000
00010000
10000000
,
01000000
00010000
00001000
00000010
00000001
00001000
00000010
00000000
,
00000100
00000001
00000001
00000010
00001000
00001000
00010000
01000000
,
01000000
10000000
00100000
00100000
00010000
00001000
00000100
00000002
,
00000000
00001003
00000100
00000010
00000001
00000010
00000100
00010000
,
00001000
00100000
00010000
01000000
00001000
00010000
00000010
00000100
,
00000001
00000010
00000010
00001000
00010000
00010000
00100000
10000000
,
10000000
01000000
00010000
00010000
00001000
00000100
00000001
00000020
,
00000000
00000130
00010000
00001000
00010000
00000010
00001000
00000001
,
00000100
00001000
00010000
00100000
10000000
00010000
00100000
00000000
,
01000000
10000000
10000000
00100000
00010000
00010000
00001000
00000100
,
00000100
00000001
00000010
00000010
00001000
00010000
01000000
20000000
,
00000000
30010000
01000000
00100000
10000000
00100000
01000000
00001000
,
00010000
00000010
00001000
00000100
00010000
00001000
00100000
01000000
,
10000000
00010000
10000000
00010000
01000000
00100000
01000000
00100000
,
00010000
00001000
00010000
00001000
00000100
00000010
00000100
00000010
,
00001000
00000001
00001000
00000001
00000010
00000100
00000010
00000100
,
00001000
00000001
00000010
00001000
00010000
01000000
10000000
00100000
,
00020000
00031000
00000000
00000000
00000000
00000000
00000000
00000000
;

//---------------dance-double - ----------------
#NOTES:
     dance-double:
     :
     Hard:
     16:
     0.803713,0.898834,0.000000,0.000000,0.409092,722.000000,722.000000,0.000000,0.000000,0.000000,0.000000,0.803713,0.898834,0.000000,0.000000,0.409092,722.000000,722.000000,0.000000,0.000000,0.000000,0.000000:
00000000
00000000
00000000
00000000
,
00000000
00000000
00000000
00000000
,
00000000
00000000
00000000
00000000
,
00000000
00000000
00000000
00000000
,
00000000
00000000
00000000
00000000
,
00000000
00000000
00000000
00000000
,
00000000
00000000
00000000
00000000
,
00000000
00000000
00000000
00000000
,
00000000
00000000
00000000
00000000
,
00000001
00000100
00000010
00001000
00000000
00000100
00010000
00001000
,
00000000
00100000
00010000
10000000
00000000
00100000
01000000
00010000
,
10000000
01000000
00010000
00001000
00010000
00001000
00000010
00000001
,
00001000
00000001
00000100
00000010
00000000
00010000
00001000
00010000
,
01000000
10000000
01000000
00100000
01000000
10000000
01000000
00010000
,
00001000
00000100
00000010
00000100
00001000
00000100
00000010
00000100
,
00000001
00000001
00000010
00000010
00001000
00001000
00010000
00010000
,
01000000
10000000
01000000
00000000
00100000
00010000
00100000
00000000
01000000
10000000
00010000
00100000
00001000
00010000
00000010
00001000
,
00000001
00000010
00001000
00000010
00000001
00000001
00001000
00001000
,
00000001
00000000
00000100
00000000
00001000
00000000
00010000
00000000
00000010
00000000
00010000
00001000
00010000
00000000
00001000
00000000
,
00100000
00010000
10000000
00100000
01000000
01000000
00001000
00001000
,
00010000
00000000
00000100
00000000
00000010
00000000
00001000
00000000
00010000
00001000
00010000
00001000
00100000
00010000
00100000
00010000
,
10000000
01000000
00100000
00010000
00100000
01000000
10000000
01000000
,
00010000
00000000
00001000
00000000
00010000
00000000
00000000
00000000
00001000
00010000
00001000
00010000
00000010
00001000
00000010
00001000
,
00000010
00000100
00000001
00001000
00000010
00000001
00000010
00001000
,
00000001
00000000
00000010
00000000
00000100
00000000
00010000
00000000
00001000
00000000
00100000
00010000
00000000
10000000
01000000
00000000
,
10000000
00100000
00010000
00100000
10000000
10000000
00010000
00010000
,
10000000
00000000
01000000
00000000
00010000
00000000
00001000
00000000
00100000
00000000
00001000
00010000
00001000
00000000
00010000
00000000
,
00000010
00001000
00000001
00000010
00000100
00000100
00010000
00010000
,
00001000
00000000
01000000
00000000
00100000
00000000
00010000
00000000
00001000
00010000
00001000
00010000
00000010
00001000
00000010
00001000
,
00000001
00000100
00000010
00001000
00000010
00000100
00000001
00000100
,
00001000
00000000
00010000
00000000
00001000
00000000
00000000
00000000
00010000
00001000
00010000
00001000
00100000
00010000
00100000
00010000
,
00100000
01000000
10000000
00010000
00100000
10000000
00100000
00010000
,
10000000
00000000
00100000
00000000
01000000
00000000
00001000
00000000
00010000
00000000
00000010
00001000
00000000
00000001
00000100
00000000
,
00000001
00000100
00000010
00001000
00000001
00000001
00001000
00001000
,
00000100
00000000
00000010
00000000
00001000
00000000
00010000
00000000
01000000
00000000
10000000
00010000
10000000
00000000
01000000
00000000
,
00100000
00010000
00100000
00001000
00010000
00001000
01000000
00010000
,
01000000
00000000
00100000
00000000
10000000
00000000
00010000
00000000
00100000
00001000
00100000
00001000
00010000
00001000
00010000
00001000
,
01000000
00001000
00010000
00000100
00000010
00000001
00001000
00000001
,
00000010
00000100
00001000
00000001
00000100
00001000
00010000
00100000
,
10000000
00010000
01000000
00010000
10000000
00100000
01000000
00010000
,
00100000
00000000
00100000
00000000
00001000
00000000
00001000
00000000
00010000
00001000
00010000
00000000
00000010
00000000
00000010
00000000
,
00001000
00001000
00001000
00000001
00000001
00000001
00000010
00000010
,
00000010
00000100
00000100
00000100
00010000
00001000
00100000
00010000
,
10000000
10000000
10000000
00010000
00010000
00010000
01000000
01000000
,
01000000
00100000
00100000
00100000
00010000
00001000
00000100
00000010
,
00001000
00000001
00000001
00000010
00001000
00001000
00010000
01000000
,
01000000
10000000
00100000
00100000
01000000
00001000
00010000
00001000
,
00100000
00000000
00100000
00000000
00010000
10000000
01000000
00000000
01000000
00000000
00010000
00001000
,
00010000
00000000
00000000
00010000
00000000
00000000
00001000
00000000
00000000
00010000
00000000
00000010
,
00001000
00000000
00000001
00000100
00000000
00000000
00001000
00000000
00000000
00001000
00000000
00000000
,
00010000
00000000
00000000
00010000
00000000
00000000
01000000
00000000
00000000
00100000
00000000
01000000
,
10000000
00000000
00010000
00100000
00000000
00000000
00001000
00000000
00000000
00001000
00000000
00000000
,
00010000
00000000
00000000
00010000
00000000
00000000
00001000
00000000
00000000
00010000
00000000
00000010
,
00001000
00000000
00000001
00000100
00000000
00000000
00001000
00000000
00000000
00001000
00000000
00000000
,
00010000
00000000
00000000
00010000
00000000
00000000
01000000
00000000
00000000
00100000
00000000
01000000
,
10000000
00000000
00010000
00100000
00000000
00000000
00001000
00000000
00001000
00010000
00000000
00010000
,
00001000
00000000
00000000
00000000
,
00000000
00000000
00000000
00000000
,
00000000
00000000
00000000
00000000
,
00000000
00000000
00000000
00000000
,
00000010
00000001
00000010
00000000
00000100
00001000
00000100
00000000
00010000
00001000
00010000
00000000
00001000
00010000
00001000
00000000
,
01000000
00000000
00010000
01000000
00100000
00000000
10000000
00000000
00010000
00000000
00100000
00000000
01000000
10000000
00010000
00000000
,
10000000
00000000
00010000
00100000
01000000
00000000
10000000
00000000
00010000
00000000
10000000
00000000
00100000
00000000
01000000
00000000
,
00001000
00000000
00010000
00000000
00000100
00000000
00001000
00000000
00000001
00000010
00000001
00000000
00001000
00000100
00001000
00000000
,
00000001
00000100
00001000
00010000
00001000
00010000
01000000
10000000
,
00010000
00000000
10000000
00000000
01000000
00000000
00100000
00000000
00010000
00000000
10000000
00010000
10000000
00000000
00100000
00000000
,
01000000
00001000
00010000
00001000
00000010
00000010
00000001
00001000
,
00000001
00000001
00000100
00000100
00000010
00001000
00010000
01000000
,
00100000
10000000
00100000
00000000
01000000
00010000
01000000
00000000
00001000
00010000
00001000
00000000
00010000
00001000
00010000
00000000
,
00000100
00000000
00001000
00000100
00000010
00000000
00000001
00000000
00001000
00000000
00000010
00000000
00000100
00000001
00001000
00000000
,
00000001
00000000
00001000
00000010
00000100
00000000
00000001
00000000
00001000
00000000
00000001
00000000
00000010
00000000
00000100
00000000
,
00010000
00000000
00001000
00000000
01000000
00000000
00010000
00000000
10000000
00100000
10000000
00000000
00010000
01000000
00010000
00000000
,
10000000
01000000
00010000
00001000
00010000
00001000
00000100
00000001
,
00001000
00000000
00000001
00000000
00000100
00000000
00000010
00000000
00001000
00000000
00000001
00001000
00000001
00000000
00000010
00000000
,
00000100
00010000
00001000
00010000
00100000
00100000
10000000
00010000
,
10000000
10000000
01000000
01000000
00100000
00010000
00001000
00000100
,
00000010
00000100
00000010
00000000
00000001
00000000
00001000
00000001
00001000
00000000
00000010
00000000
00000100
00000010
00000100
00000000
,
00001000
00000000
00010000
00001000
00010000
00000000
01000000
00000000
10000000
01000000
00100000
00010000
10000000
01000000
00100000
00000000
,
00000000
00010000
10000000
00100000
01000000
00001000
00010000
00000100
,
00010000
00000000
00001000
00000000
00010000
00000000
00000010
00000000
00001000
00000000
00000001
00000000
00000010
00000100
00001000
00000000
,
00000100
00000010
00000001
00000000
00001000
00000000
00000010
00000100
00001000
00000000
00010000
00000000
00100000
10000000
00010000
00000000
,
00100000
00000000
01000000
10000000
00010000
00000000
10000000
00000000
00100000
01000000
00010000
00100000
00001000
00010000
00000100
00000000
,
00000000
00010000
00001000
00100000
01000000
10000000
00010000
00100000
,
01000000
00000000
10000000
00000000
01000000
00000000
00100000
00000000
00001000
00000000
00010000
00000000
00001000
00010000
00000010
00000000
,
00000100
00000010
00000100
00000000
00000001
00000000
00001000
00000001
00001000
00000000
00000100
00000000
00000010
00000100
00000010
00000000
,
00001000
00000000
00010000
00001000
00010000
00000000
00100000
00000000
10000000
00100000
01000000
00010000
10000000
00100000
01000000
00000000
,
00000000
00010000
10000000
01000000
00100000
00001000
00010000
00000010
,
00010000
00000000
00001000
00000000
00010000
00000000
00000100
00000000
00001000
00000000
00000001
00000000
00000100
00000010
00001000
00000000
,
00000010
00000100
00000001
00000000
00001000
00000000
00000100
00000010
00001000
00000000
00010000
00000000
01000000
10000000
00010000
00000000
,
01000000
00000000
00100000
10000000
00010000
00000000
10000000
00000000
01000000
00100000
00010000
01000000
00001000
00010000
00000010
00000000
,
00000000
00010000
00001000
01000000
00100000
10000000
00010000
01000000
,
00100000
00000000
10000000
00010000
10000000
00000000
01000000
00100000
01000000
00000000
00010000
00000000
00001000
00010000
00001000
00010000
,
00001000
00010000
00001000
00010000
00000100
00000010
00000100
00000010
,
00000001
00001000
00000001
00001000
00000010
00000100
00000010
00000100
,
00001000
00010000
00001000
00010000
01000000
00100000
01000000
00100000
,
00010000
10000000
00100000
00010000
00001000
00000100
00000001
00000010
,
00001000
00010000
00000000
00000000
00000000
00000000
00000000
00000000
;

//---------------dance-double - ----------------
#NOTES:
     dance-double:
     :
     Challenge:
     18:
     0.937294,1.198445,0.155845,0.124676,0.763638,842.000000,822.000000,20.000000,16.000000,0.000000,0.000000,0.937294,1.198445,0.155845,0.124676,0.763638,842.000000,822.000000,20.000000,16.000000,0.000000,0.000000:
00000000
00000000
00000000
00000000
,
00000000
00000000
00000000
00000000
,
00000000
00000000
00000000
00000000
,
00000000
00000000
00000000
00000000
,
00000000
00000000
00000000
00000000
,
00000000
00000000
00000000
00000000
,
00000000
00000000
00000000
00000000
,
00000000
00000000
00000000
00000000
,
00000000
00000000
00000000
00000000
,
10000000
00100000
01000000
00010000
00001000
00000100
00000010
00000001
,
00000001
00000010
00000100
00001000
00010000
01000000
00100000
10000000
,
10000000
01000000
00010000
00001000
00010000
00001000
00000010
00000001
,
00000001
00000100
00001000
00010000
00001000
00010000
00100000
10000000
,
01000000
00000000
00100000
00010000
00100000
00000000
01000000
00000000
10000000
00000000
00100000
01000000
00100000
00000000
01000000
00000000
,
00001000
00000000
00010000
00001000
00010000
00000000
00000100
00000000
00000010
00000000
00000001
00001000
00000001
00000000
00000100
00000000
,
00000010
00001000
00000010
00000000
00000100
00001000
00000100
00000000
00001000
00010000
00001000
00000000
00100000
00001000
00100000
00000000
,
00010000
10000000
00010000
10000000
01000000
00100000
01000000
00100000
00001000
00010000
00000010
00001000
00000001
00000100
00000010
00001000
,
00000001
00001000
00000001
00000010
00000100
00000100
00010000
00010000
,
00001000
00000000
01000000
00000000
00100000
00000000
10000000
00000000
00100000
00000000
01000000
00010000
01000000
00010000
10000000
00000000
,
01000000
00100000
00010000
10000000
01000000
00010000
00001000
00000100
,
00000001
00000000
00000100
00000000
00000010
00000000
00001000
00000001
00000100
00000001
00001000
00000010
00010000
00001000
00010000
00001000
,
00100000
00010000
10000000
01000000
00100000
00010000
10000000
00100000
,
01000000
00000000
00002000
00000000
00010000
00000000
00003000
00000000
00000100
00010000
00001000
00100000
00010000
10000000
00010000
10000000
,
00100000
01000000
00001000
00010000
00000010
00010000
00001000
00000010
,
00000001
00000000
00000010
00000000
00001000
00000000
00010000
00000000
00001000
00000000
00100000
00010000
10000000
01000000
00100000
00010000
,
10000000
00010000
10000000
00100000
01000000
01000000
00001000
00001000
,
00010000
00000000
00000100
00000000
00000010
00000000
00000001
00000000
00000010
00000000
00000100
00001000
00000100
00001000
00000001
00000000
,
00000100
00000010
00001000
00000001
00000100
00001000
00010000
01000000
,
10000000
00000000
01000000
00000000
00100000
00000000
00010000
10000000
01000000
10000000
00010000
00100000
00001000
00010000
00001000
00010000
,
00000010
00001000
00000001
00000100
00000010
00001000
00000001
00000010
,
00000100
00000000
00020000
00000000
00001000
00000000
00030000
00000000
01000000
00001000
00010000
00000010
00001000
00000001
00001000
00000001
,
00000010
00000100
00010000
00001000
00100000
00001000
00010000
00100000
,
10000000
00000000
00100000
00000000
00010000
00000000
00001000
00000000
00010000
00000000
00000010
00001000
00000001
00000100
00000010
00001000
,
00000001
00000010
00000001
00000010
00000100
00010000
00000100
00010000
,
00001000
00000000
01000000
00000000
00001000
00000000
01000000
00000000
00100000
00000000
10000000
00010000
10000000
00000000
00010000
00000000
,
00100000
00000000
01000000
10000000
01000000
00000000
00100000
00000000
00001000
00000000
00010000
00001000
00010000
00000000
00000010
00000000
,
00000100
00000000
00000001
00001000
00000001
00000000
00000100
00000000
00000010
00010000
00000010
00010000
00001000
00010000
00001000
00010000
,
00000100
00000010
00000100
00000010
00001000
00010000
00001000
00010000
,
00100000
00000000
01000000
00000000
00100000
00000000
01000000
00000000
00010000
00000000
10000000
00010000
10000000
00000000
01000000
00000000
,
00100000
00010000
00100000
00001000
00010000
00000010
00001000
00000010
,
00000100
00000000
00000101
00000000
00000010
00000000
00001010
00000000
00000001
00001000
00000001
00000010
00000100
00001000
00000001
00000000
,
00000011
00000100
00000100
00001100
00010000
00010000
00011000
01000000
,
01000000
01010000
00100000
00100000
10100000
01000000
00010000
10000000
,
11000000
00100000
00100000
00110000
00001000
00001000
00011000
00000010
,
00000010
00001010
00000100
00000100
00000101
00000010
00001000
00000001
,
00001001
00000100
00000010
00000110
00001000
00010000
00011000
01000000
,
00100000
01100000
00010000
10000000
10010000
00100000
01000000
00010000
,
10000000
00000000
10010000
00000000
01000000
00010000
00001000
00000000
00011000
00000000
00001000
00000100
,
00000002
00000000
00000000
00000100
00000000
00000000
00001000
00000000
00000000
00001000
00000000
00000103
,
00000010
00000000
00010000
00001000
00000000
00000000
00100000
00000000
00100000
01000000
00000000
01000000
,
20000000
00000000
00000000
01000000
00000000
00000000
00010000
00000000
00000000
00010000
00000000
31000000
,
00100000
00000000
00001000
00010000
00000000
00000000
00000010
00000000
00000010
00000100
00000000
00000100
,
00000020
00000000
00000000
00000100
00000000
00000000
00001000
00000000
00000000
00001000
00000000
00010030
,
00001000
00000000
00100000
01000000
00000000
00000000
10000000
00000000
10000000
00100000
00000000
00100000
,
02000000
00000000
00000000
00100000
00000000
00000000
00010000
00000000
00000000
00010000
00000000
03001000
,
00010000
00000000
00000100
00000010
00000000
00000000
00000001
00000000
00000001
00000100
00000000
00000100
,
00002000
00000000
00000000
00000000
,
00020000
00000000
00000000
00033000
,
20020000
00000000
00000000
00030000
,
02000000
00000000
00000000
33000000
,
00100000
00010000
00100000
00010000
10000000
01000000
10000000
01000000
00010000
00001000
00010000
00001000
00000010
00000001
00000010
00000001
,
00001000
00000000
00000001
00000100
00000010
00001000
00000001
00000010
00000100
00001000
00000100
00000000
00010000
00001000
00010000
00000000
,
00001000
00000000
00100000
00010000
10000000
00000000
00100000
00000000
01000000
00000000
00010000
01000000
00100000
00000000
10000000
00000000
,
00010000
00000000
10000000
00000000
01000000
00000000
00010000
00000000
00001000
00010000
00001000
00010000
00001000
00000000
00000010
00000000
,
00000001
00000000
00001000
00000000
00000001
00000000
00000010
00000000
00000100
00000000
00001000
00000001
00001000
00000000
00000001
00000000
,
00000100
00000000
00001000
00000000
00000100
00000000
00000010
00000000
00010000
00000000
00001000
00010000
00001000
00000000
00100000
00000000
,
00010000
10000000
01000000
00010000
01000000
01000000
10000000
10000000
,
01000000
00100000
00001000
00010000
00001000
00000100
00000001
00000100
,
00000010
00001000
00000010
00001000
00000001
00000100
00000001
00000100
00001000
00010000
00001000
00010000
00100000
10000000
00100000
10000000
,
00010000
00000000
10000000
01000000
00100000
00010000
10000000
00100000
01000000
00010000
01000000
00000000
00001000
00010000
00001000
00000000
,
00010000
00000000
00000010
00001000
00000001
00000000
00000010
00000000
00000100
00000000
00001000
00000100
00000010
00000000
00000001
00000000
,
00001000
00000000
00000001
00000000
00000100
00000000
00001000
00000000
00010000
00001000
00010000
00001000
00010000
00000000
00100000
00000000
,
10000000
00000000
00010000
00000000
10000000
00000000
00100000
00000000
01000000
00000000
00010000
10000000
00010000
00000000
10000000
00000000
,
01000000
00000000
00010000
00000000
01000000
00000000
00100000
00000000
00001000
00000000
00010000
00001000
00010000
00000000
00000010
00000000
,
00001000
00000001
00000100
00001000
00000100
00000100
00000001
00000001
,
00000100
00000010
00010000
00001000
00010000
01000000
10000000
01000000
,
00100000
00001000
00010000
00001000
00010000
00001000
01000000
00001000
00010000
00001000
00010000
00001000
00100000
00010000
10000000
00010000
,
10000000
00010000
01000000
00100000
10000000
00100000
10000000
00100000
01000000
00010000
10000000
01000000
00100000
00010000
20000000
00000000
,
00000000
31000000
00100000
00010000
00100000
01000000
10000000
00010000
,
00100000
00000000
00001000
00000000
00010000
00000000
00000010
00000000
00001000
00000000
00000001
00000000
00000010
00000100
00001000
00000000
,
00000100
00010000
00001000
00010000
00001000
00010000
00000010
00010000
00001000
00010000
00001000
00010000
00000100
00000010
00000001
00000010
,
00000001
00000010
00000100
00010000
00001000
00010000
00001000
00010000
00000010
00001000
00000001
00000100
00000010
00001000
00000002
00000000
,
00000000
00001003
00000100
00000010
00000001
00000010
00000100
00010000
,
00001000
00100000
00010000
10000000
00100000
01000000
00010000
01000000
00001000
00010000
00001000
00100000
00010000
10000000
01000000
00000000
,
00100000
00001000
00010000
00001000
00010000
00001000
01000000
00001000
00010000
00001000
00010000
00001000
00100000
00010000
10000000
00010000
,
10000000
00010000
01000000
00100000
10000000
00100000
10000000
00100000
01000000
00010000
10000000
01000000
00100000
00010000
20000000
00000000
,
00000000
31000000
00100000
00010000
00100000
01000000
10000000
00010000
,
00100000
00000000
00001000
00000000
00010000
00000000
00000010
00000000
00001000
00000000
00000001
00000000
00000010
00000100
00001000
00000000
,
00000100
00010000
00001000
00010000
00001000
00010000
00000010
00010000
00001000
00010000
00001000
00010000
00000100
00000010
00000001
00000010
,
00000001
00000010
00000100
00010000
00001000
00010000
00001000
00010000
00000010
00001000
00000001
00000100
00000010
00001000
00000002
00000000
,
00000000
00001003
00000100
00000010
00000001
00000010
00000100
00010000
,
00001000
00100000
00010000
10000000
00100000
01000000
00010000
00100000
00001000
00010000
00000010
00001000
00000001
00000010
00000100
00001000
,
00000001
00000010
00000001
00000010
00000100
00001000
00000100
00001000
,
00010000
00100000
00010000
00100000
01000000
10000000
01000000
10000000
,
00010000
01000000
00010000
01000000
00001000
00010000
00001000
00010000
,
00000100
00000000
00000000
00000000
00000000
00000000
00000000
00000000
00000000
00000000
00000000
00000000
00000000
00000000
00000000
00000000
00000000
00000000
00000000
00000000
00000000
00000000
00000000
00000000
00000010
00000000
00000000
00000000
00000000
00000000
00000000
00000000
00000000
00000000
00000000
00000000
00000000
00000000
00000000
00000000
00000000
00000000
00000000
00000000
00000000
00000000
00000000
00000000
00000001
00000000
00000000
00000000
00000000
00000000
00000000
00000000
00000000
00000000
00000000
00000000
00000000
00000000
00000000
00000000
00000000
00000000
00000000
00000000
00000000
00000000
00000000
00000000
00000010
00000000
00000000
00000000
00000000
00000000
00000000
00000000
00000000
00000000
00000000
00000000
00000000
00000000
00000000
00000000
00000000
00000000
00000000
00000000
00000000
00000000
00000000
00000000
00001000
00000000
00000000
00000000
00000000
00000000
00000000
00000000
00000000
00000000
00000000
00000000
00000000
00000000
00000000
00000000
00000000
00000000
00000000
00000000
00000000
00000000
00000000
00000000
00010000
00000000
00000000
00000000
00000000
00000000
00000000
00000000
00000000
00000000
00000000
00000000
00000000
00000000
00000000
00000000
00000000
00000000
00000000
00000000
00000000
00000000
00000000
00000000
00100000
00000000
00000000
00000000
00000000
00000000
00000000
00000000
00000000
00000000
00000000
00000000
00000000
00000000
00000000
00000000
00000000
00000000
00000000
00000000
00000000
00000000
00000000
00000000
10000000
00000000
00000000
00000000
00000000
00000000
00000000
00000000
00000000
00000000
00000000
00000000
00000000
00000000
00000000
00000000
00000000
00000000
00010000
00000000
00100000
00000000
01000000
00000000
,
20000000
30010000
00000000
00000000
00000000
00000000
00000000
00000000
;
