#VERSION:0.83;
#TITLE:Children of the Beat;
#SUBTITLE:(LED-Special);
#ARTIST:Harmony Machine;
#TITLETRANSLIT:;
#SUBTITLETRANSLIT:;
#ARTISTTRANSLIT:;
#GENRE:;
#ORIGIN:;
#CREDIT:;
#BANNER:Children of the Beat (LED-Special).png;
#BACKGROUND:Children of the Beat (LED-Special)-bg.png;
#PREVIEWVID:;
#JACKET:Children of the Beat (LED-Special)-jacket.png;
#CDIMAGE:;
#DISCIMAGE:;
#LYRICSPATH:;
#CDTITLE:../cdtitle.png;
#MUSIC:Children of the Beat (LED-Special).ogg;
#OFFSET:0.000000;
#SAMPLESTART:85.050003;
#SAMPLELENGTH:15.000000;
#SELECTABLE:YES;
#BPMS:0.000=160.000;
#STOPS:;
#DELAYS:;
#WARPS:;
#TIMESIGNATURES:0.000=4=4;
#TICKCOUNTS:0.000=4;
#COMBOS:0.000=1;
#SPEEDS:0.000=1.000=0.000=0;
#SCROLLS:0.000=1.000;
#FAKES:;
#LABELS:0.000=Song Start;
#BGCHANGES:-99.000=../bg.avi=1.000=0=0=1=====,
99999=-nosongbg-=1.000=0=0=0 // don't automatically add -songbackground-
;
#KEYSOUNDS:;
#ATTACKS:
;

//---------------dance-single - ----------------
#NOTEDATA:;
#CHARTNAME:;
#STEPSTYPE:dance-single;
#DESCRIPTION:;
#CHARTSTYLE:;
#DIFFICULTY:Challenge;
#METER:12;
#RADARVALUES:0.551230,0.571733,0.619574,0.109798,0.000000,492.000000,413.000000,79.000000,14.000000,0.000000,0.000000,0.000000,0.000000,0.000000,0.551230,0.571733,0.619574,0.109798,0.000000,492.000000,413.000000,79.000000,14.000000,0.000000,0.000000,0.000000,0.000000,0.000000;
#CREDIT:led_light;
#NOTES:
0000
0000
0000
0000
,
0000
0000
0000
0000
,
0000
0000
0000
0000
,
0000
0000
0000
0000
,
0000
0000
0000
0000
,
1000
0110
0001
0000
1100
0001
0100
0001
,
0000
0001
0010
0000
0100
0001
0100
0000
,
0010
1001
0100
0000
1010
0100
1000
0100
,
0000
0100
0001
0000
1000
0100
1000
0000
,
0010
0000
0110
0000
1000
0100
1000
0001
,
0000
0010
0100
1000
0001
0000
0101
0000
,
0010
1000
0010
0000
0100
1000
0100
0001
,
0000
0100
0010
1000
0001
0010
0001
0000
,
1000
0100
0010
0000
0010
0001
0100
0001
,
0000
1000
0010
0100
0001
0000
1001
0000
,
1000
0100
1000
0100
0001
0100
0001
0100
,
1000
0100
0010
0001
1000
0000
1100
0000
,
1000
0110
0001
0000
1010
0001
0010
0001
,
0000
0001
0100
0000
0010
0001
0010
0000
,
0100
1001
0010
0000
1100
0010
1000
0010
,
0000
0010
0001
0000
1000
0010
1000
0100
,
0010
0010
0110
0001
,
0100
0000
0100
0000
0110
0000
0001
0010
,
0100
0000
0110
0000
1000
0100
0001
0000
,
0001
0010
1000
0000
1000
0000
0100
0000
,
0101
0000
0100
0000
0110
0000
0001
0010
,
1000
0010
0001
0000
0011
0000
1000
0020
,
0000
0130
0010
0000
1000
0000
0100
0010
,
0001
0011
2100
3001
,
0100
1001
0010
0000
0101
0010
0001
0010
,
0000
0010
1000
0000
0001
0010
0001
0000
,
1000
0110
0001
0000
1100
0001
0100
0001
,
0000
0001
0010
0000
0100
0001
0100
0000
,
2100
0100
0001
0001
,
0100
0100
0001
0001
,
3020
0100
1000
1000
,
0100
0100
1000
1000
,
0230
1000
0010
0010
,
1000
1000
0010
0010
,
0302
0100
1000
1000
,
0100
0100
1000
1000
,
0013
1100
1000
1010
,
0100
0011
0001
0101
,
0100
0010
2000
0000
0100
0000
3100
0000
,
1000
0001
0200
0000
0010
0000
0310
0000
,
0001
0010
2000
0000
0001
0000
3001
0000
,
0010
0100
2000
0000
0001
0000
3001
0000
,
0100
0001
0100
0001
1000
0100
1000
0000
,
0010
1000
0010
1000
0001
0010
0001
0000
,
1000
1100
0100
0101
,
0001
0011
0010
1010
,
1000
0100
0010
0000
0001
1000
0010
0000
,
0100
0001
1000
0000
0100
0010
0001
0000
,
0010
1000
0001
0000
0100
1000
0001
0000
,
1000
0010
0100
0000
0001
1000
0100
0000
,
0010
0001
0010
0001
1000
0010
1000
0010
,
0100
0001
1000
0100
0010
0001
0100
0010
,
1010
0011
1010
0001
,
1100
0000
0101
0000
1100
0000
0100
0010
,
0110
0000
1001
0000
1000
0100
0001
0100
,
0001
0010
0001
0010
1000
0000
0001
0000
,
0011
0000
1100
0000
1001
0000
0001
0010
,
1000
0010
0001
0000
1001
0000
1000
0020
,
0000
0130
0010
0000
1000
0100
0010
0001
,
0011
0000
1100
0000
1001
0000
0100
0010
,
1010
0011
0110
0100
,
1100
0000
0101
0000
0110
0000
1000
0001
,
0011
0000
0110
0000
0010
1000
0100
1000
,
0100
0001
0100
0001
0010
0000
0100
0000
,
1100
0000
0011
0000
1001
0000
1000
0010
,
0001
0010
1000
0000
1001
0000
0001
0020
,
0000
1030
0010
0000
0001
0010
0100
1000
,
1100
0000
0110
0000
1001
0000
0100
0010
,
1010
0011
1010
0001
,
1100
0000
0101
0000
1100
0000
0100
0010
,
0110
0000
1001
0000
1000
0010
0001
0010
,
0001
0100
0001
0100
1000
0000
0001
0000
,
0101
0000
1010
0000
0110
0000
1000
0100
,
0001
0100
1000
0000
1001
0000
1000
0020
,
0000
0130
0010
0000
1000
0100
0010
0001
,
0011
1100
1002
0103
,
0110
0000
0000
0000
;

//---------------dance-double - ----------------
#NOTEDATA:;
#CHARTNAME:;
#STEPSTYPE:dance-double;
#DESCRIPTION:;
#CHARTSTYLE:;
#DIFFICULTY:Challenge;
#METER:12;
#RADARVALUES:0.551230,0.571733,0.619574,0.109798,0.000000,492.000000,413.000000,79.000000,14.000000,0.000000,0.000000,0.000000,0.000000,0.000000,0.551230,0.571733,0.619574,0.109798,0.000000,492.000000,413.000000,79.000000,14.000000,0.000000,0.000000,0.000000,0.000000,0.000000;
#CREDIT:led_light;
#NOTES:
// measure 0
00000000
00000000
00000000
00000000
,  // measure 1
00000000
00000000
00000000
00000000
,  // measure 2
00000000
00000000
00000000
00000000
,  // measure 3
00000000
00000000
00000000
00000000
,  // measure 4
00000000
00000000
00000000
00000000
,  // measure 5
00001000
00010010
00001000
00000000
00000110
00000100
00000001
00001000
,  // measure 6
00000000
00000100
00010000
00000000
00001000
01000000
00010000
00000000
,  // measure 7
10000000
11000000
00100000
00000000
00110000
00010000
00100000
00001000
,  // measure 8
00000000
00010000
00000100
00000000
00000010
00000001
00001000
00000000
,  // measure 9
00000010
00000000
00000110
00000000
00001000
00000001
00001000
00000100
,  // measure 10
00000000
00000010
00000100
00010000
00001000
00000000
00011000
00000000
,  // measure 11
00001000
00100000
00001000
00000000
01000000
00001000
00010000
00001000
,  // measure 12
00000000
00010000
00100000
10000000
00010000
00000000
10010000
00000000
,  // measure 13
10000000
01000000
00010000
00000000
00001000
00010000
01000000
10000000
,  // measure 14
00000000
01000000
00100000
00010000
10000000
00000000
10010000
00000000
,  // measure 15
10000000
01000000
10000000
01000000
00100000
00010000
00100000
00010000
,  // measure 16
00001000
00000100
00000010
00000001
00001000
00000000
00001100
00000000
,  // measure 17
00001000
00010010
00001000
00000000
00000110
00000100
00000001
00001000
,  // measure 18
00000000
00000100
00010000
00000000
00001000
01000000
00010000
00000000
,  // measure 19
10000000
11000000
00100000
00000000
00110000
00010000
00100000
00001000
,  // measure 20
00000000
00010000
00000100
00000000
00000001
00000100
00001000
00000100
,  // measure 21
00000010
00000010
00000110
00001000
,  // measure 22
01000000
00000000
01000000
00000000
01100000
00000000
00100000
10000000
,  // measure 23
00010000
00000000
00101000
00000000
00010000
01000000
10000000
00000000
,  // measure 24
10000000
00100000
00010000
00000000
00001000
00000000
00000100
00000000
,  // measure 25
00000010
00000000
00000010
00000000
00001001
00000000
00000001
00000010
,  // measure 26
00001000
00010000
00001000
00000000
00011000
00000000
00100000
00020000
,  // measure 27
00000000
10030000
00100000
00000000
10000000
01000000
00100000
01000000
,  // measure 28
00010000
00011000
00001200
00000310
,  // measure 29
00001000
00010100
00001000
00000000
00000110
00000010
00000001
00001000
,  // measure 30
00000000
00000010
00010000
00000000
00001000
00100000
00010000
00000000
,  // measure 31
10000000
10100000
01000000
00000000
01010000
00010000
01000000
00001000
,  // measure 32
00000000
00010000
00000010
00000000
00000100
00000001
00001000
00000000
,  // measure 33
00001200
00000010
00000001
00000001
,  // measure 34
00000010
00000010
00001000
00001000
,  // measure 35
00020300
00000100
00001000
00001000
,  // measure 36
00000010
00000010
00001000
00001000
,  // measure 37
02030000
00010000
00100000
00100000
,  // measure 38
10000000
10000000
00100000
00100000
,  // measure 39
03020000
01000000
00001000
00001000
,  // measure 40
00000100
00000100
00001000
00001000
,  // measure 41
00030010
00000110
00000001
00001001
,  // measure 42
00000100
00000110
00001000
00011000
,  // measure 43
01000000
00100000
20000000
00000000
01000000
00000000
31000000
00000000
,  // measure 44
00100000
00001000
00020000
00000000
00001000
00000000
00031000
00000000
,  // measure 45
00010000
00000100
00002000
00000000
00000010
00000000
00003010
00000000
,  // measure 46
00000100
00000001
00002000
00000000
00000001
00000000
00003001
00000000
,  // measure 47
00000100
00000001
00000100
00000001
00001000
00000100
00001000
00000000
,  // measure 48
00000010
00001000
00000010
00010000
00001000
00010000
00001000
00000000
,  // measure 49
00010000
01010000
01000000
11000000
,  // measure 50
10000000
10100000
00100000
00110000
,  // measure 51
01000000
00001000
00010000
00000000
00000100
00010000
00001000
00000000
,  // measure 52
00000100
00000001
00001000
00000000
00000001
00000010
00000100
00000000
,  // measure 53
00010000
00000100
00001000
00000000
00000010
00010000
00001000
00000000
,  // measure 54
01000000
00010000
00100000
00000000
01000000
10000000
00010000
00000000
,  // measure 55
00100000
00010000
00100000
00010000
10000000
00100000
10000000
00100000
,  // measure 56
01000000
00001000
00010000
00000100
00001000
00000001
00000100
00000010
,  // measure 57
00001010
00000011
00001010
00000001
,  // measure 58
00001100
00000000
00000101
00000000
00001100
00000000
00000100
00001000
,  // measure 59
00001010
00000000
00011000
00000000
00010000
01000000
00010000
01000000
,  // measure 60
10000000
00100000
10000000
00100000
00010000
00000000
00001000
00000000
,  // measure 61
00001100
00000000
00001100
00000000
00000101
00000000
00000001
00000010
,  // measure 62
00001000
00010000
00001000
00000000
00011000
00000000
00100000
00020000
,  // measure 63
00000000
10030000
00100000
00000000
01000000
00001000
00010000
00001000
,  // measure 64
00011000
00000000
00110000
00000000
10010000
00000000
01000000
00100000
,  // measure 65
10100000
10100000
00110000
00001000
,  // measure 66
00001100
00000000
00001100
00000000
00000101
00000000
00000100
00000001
,  // measure 67
00000011
00000000
00000011
00000000
00000010
00001000
00010000
00001000
,  // measure 68
00000100
00000001
00000100
00000001
00001000
00000000
00000100
00000000
,  // measure 69
00000011
00000000
00001100
00000000
00011000
00000000
00001000
00010000
,  // measure 70
01000000
10000000
00010000
00000000
10010000
00000000
00010000
00200000
,  // measure 71
00000000
10300000
00100000
00000000
00010000
01000000
00001000
00010000
,  // measure 72
00011000
00000000
00001100
00000000
00001001
00000000
00001000
00000010
,  // measure 73
00010010
00010010
00101000
00010000
,  // measure 74
00010100
00000000
00010100
00000000
01001000
00000000
00001000
00010000
,  // measure 75
00011000
00000000
00010100
00000000
00010000
00001000
00010000
00100000
,  // measure 76
10000000
00100000
10000000
01000000
00010000
00000000
00001000
00000000
,  // measure 77
00001100
00000000
00001100
00000000
00000101
00000000
00000001
00000010
,  // measure 78
00001000
00010000
00001000
00000000
00011000
00000000
00100000
00020000
,  // measure 79
00000000
10030000
00100000
00000000
01000000
00001000
00010000
00001000
,  // measure 80
00011000
00110000
20010000
31000000
,  // measure 81
01100000
00000000
00000000
00000000
;
