#TITLE:Chase Me;
#SUBTITLE:;
#ARTIST:Dreamcatcher;
#TITLETRANSLIT:;
#SUBTITLETRANSLIT:;
#ARTISTTRANSLIT:;
#GENRE:K-Pop;
#CREDIT:;
#BANNER:Chase Me.png;
#BACKGROUND:Chase Me-bg.png;
#LYRICSPATH:;
#CDTITLE:../cdtitle.png;
#MUSIC:Chase Me.ogg;
#OFFSET:1.166000;
#SAMPLESTART:48.032001;
#SAMPLELENGTH:15.000000;
#LASTBEATHINT:0.553333;
#SELECTABLE:YES;
#BPMS:0.000000=200.000000
;
#STOPS:359.500000=0.225000,
359.750000=0.225000,
360.000000=0.225000,
360.250000=0.225000
;
#BGCHANGES:3.375=Chase Me.avi=1.000=0=0=0=StretchNoLoop====,
99999=-nosongbg-=1.000=0=0=0 // don't automatically add -songbackground-
;
#KEYSOUNDS:;
#ATTACKS:;

//---------------dance-single - ----------------
#NOTES:
     dance-single:
     :
     Beginner:
     4:
     0.170186,0.332206,0.031981,0.215874,0.000000,149.000000,145.000000,4.000000,27.000000,0.000000,0.000000,0.170186,0.332206,0.031981,0.215874,0.000000,149.000000,145.000000,4.000000,27.000000,0.000000,0.000000:
0000
0000
0000
0000
,
0000
0000
0000
0000
,
0000
0000
0000
0000
,
0000
0000
0000
0000
,
0000
0000
0000
0000
,
0000
0000
0000
0000
,
0000
0000
0000
0000
,
0000
0000
0000
0000
,
0000
0000
0000
0000
,
2000
0000
0000
0000
,
0000
0000
3000
0000
,
0002
0000
0000
0000
,
0000
0000
0003
0000
,
0020
0000
0030
0000
,
0200
0000
0300
0000
,
2000
0000
0000
0000
,
3000
0000
0001
0000
,
2002
0000
0000
0000
,
0000
0000
3003
0000
,
2000
0000
0000
0000
,
0000
0000
3000
0000
,
0020
0000
0030
0000
,
0200
0000
0300
0000
,
0002
0000
0003
0000
,
2000
0000
3000
0000
,
0001
0000
0001
0000
,
0001
0000
0001
0000
,
1000
0000
1000
0000
,
1000
0000
1000
0000
,
0001
0000
0001
0000
,
0010
0000
0010
0000
,
0100
0000
1000
0000
,
0010
0000
0001
0000
,
2000
0000
3000
0000
,
0200
0000
0300
0000
,
0002
0000
0003
0000
,
0020
0000
0030
0000
,
1000
0000
1000
0000
,
0001
0000
0001
0000
,
2002
0000
0000
0000
,
3003
0000
0000
0000
,
0010
0010
0000
0000
,
1000
0000
0001
0000
,
0010
0010
0010
0000
,
0100
0100
0100
0000
,
0001
0000
1000
0000
,
0001
0000
0100
0000
,
1000
0000
1000
0000
,
0001
0000
0001
0000
,
0010
0010
0000
0000
,
0001
0000
1000
0000
,
0010
0010
0010
0000
,
0100
0100
0100
0000
,
1000
0000
0100
0000
,
0001
0000
0010
0000
,
1000
0000
0010
0000
,
0001
0000
0100
0000
,
1000
0000
0000
0000
,
1000
0000
0000
0000
,
0001
0000
0000
0000
,
0001
0000
0000
0000
,
0010
0000
0000
0000
,
0010
0000
0000
0000
,
1000
0000
0000
0000
,
1000
0000
0000
0000
,
0001
0001
0001
0000
,
0001
0001
0001
0000
,
1000
1000
1000
0000
,
1000
1000
1000
0000
,
0001
0000
0001
0000
,
0010
0000
0010
0000
,
1000
0000
0100
0000
,
0001
0000
0001
0000
,
2000
0000
3000
0000
,
0002
0000
0003
0000
,
0020
0000
0030
0000
,
0200
0000
0300
0000
,
1000
0000
1000
0000
,
0001
0000
0001
0000
,
0020
0000
0000
0000
,
0030
0000
0000
0000
,
0002
0000
0000
0000
,
0000
0000
0000
0000
,
0003
0000
0000
0000
,
0000
0000
0000
0000
,
2000
0000
0000
0000
,
0000
0000
0000
0000
,
3000
0000
0000
0000
,
0000
0000
0000
0000
,
1001
0000
0000
0000
,
0000
0010
0010
0010
,
0000
0100
0100
0100
,
0000
0001
0000
0100
,
0000
1000
0000
0010
,
0000
0001
0000
0010
,
0000
1000
0000
0100
,
0000
0001
0000
0001
,
0000
1000
0000
1000
,
0000
0010
0000
0010
,
0000
0001
0000
0001
,
0000
1000
1000
1000
,
0000
0010
0010
0010
,
0000
0001
0001
0001
,
0000
0000
2002
0000
0000
0000
0000
3003
;

//---------------dance-single - ----------------
#NOTES:
     dance-single:
     :
     Hard:
     15:
     0.679603,0.955092,0.599650,0.647622,0.015991,595.000000,520.000000,75.000000,81.000000,0.000000,0.000000,0.679603,0.955092,0.599650,0.647622,0.015991,595.000000,520.000000,75.000000,81.000000,0.000000,0.000000:
0000
0000
0000
0000
,
0000
0000
0000
0000
,
0000
0000
0000
0000
,
0000
0000
0000
0000
,
0000
0000
0000
0000
,
0000
0000
0000
0000
,
0000
0000
0000
0000
,
0000
0000
0000
0000
,
0000
0000
0000
0000
,
0000
0000
0100
0010
0001
0010
0100
1000
,
0010
0100
0020
0000
0000
0000
0000
0000
,
0030
0000
0100
0010
1000
0010
0100
0001
,
0010
0100
0020
0000
0030
0000
0100
1000
,
0002
0000
0103
0010
0001
0000
0010
0100
,
0001
0000
0010
0100
0020
0000
0031
0000
,
2000
0000
3010
0100
0010
1000
0100
0010
,
0002
0000
0010
0013
,
2001
0000
3010
0100
1000
0100
0010
0001
,
0020
0000
2000
0030
,
3002
0000
1003
0100
1000
0001
1000
0010
,
0200
0300
0001
0010
,
2200
3300
1000
0010
,
0202
0000
0303
0000
0220
0000
0330
2000
,
0200
3300
0220
0330
,
1001
0001
0000
0100
0020
0000
1030
0100
,
2100
0000
3100
0010
0100
0001
0100
1000
,
2100
0001
0001
3010
,
0102
0000
1003
0010
0002
0000
0013
0000
,
2010
0100
0100
3001
,
0102
0000
0103
0010
0100
1000
0100
0001
,
0102
1000
1000
0013
,
1100
0101
0011
1010
,
1001
0001
0000
0010
0100
1000
0002
0000
,
1003
0100
1000
0100
0001
0100
1000
0001
,
0010
0100
0010
0100
0001
0100
1000
0001
,
1000
0010
1000
0010
0001
0010
1000
0001
,
0100
0010
0100
0010
0001
0010
1000
0001
,
0102
0000
1003
0010
0001
1000
0100
0001
,
0101
0000
1000
0100
0001
1000
0010
0001
,
0022
0000
0000
0030
,
1003
0000
0100
0000
0100
0000
0001
0000
0100
0000
0100
1000
0001
0000
0000
0000
,
1001
0000
0011
0000
0100
1000
0010
0011
,
0000
1010
0000
1100
0000
0101
0000
0001
,
1000
0100
1000
0100
0001
0100
1000
0001
,
1000
0010
0100
0001
0010
0100
1000
0001
,
0010
0000
1100
0000
0001
1000
0010
0002
,
0000
0013
1000
0002
0000
0013
0100
1000
,
0002
0000
0013
0100
0010
0001
0100
0010
,
0001
0010
0100
0001
0010
0100
2000
3000
,
1001
0000
0101
0000
0010
1000
0100
0101
,
0000
1100
0000
1010
0000
0011
0000
0001
,
1000
0010
1000
0010
0001
0010
1000
0001
,
1000
0100
0010
0001
0100
0010
1000
0001
,
0010
0000
1100
0000
0001
0100
0100
1000
,
0010
0000
0101
0000
1000
0100
0100
0001
,
0010
0000
1100
0000
0001
0100
0100
1000
,
0010
0001
0010
0100
0010
1000
0100
0010
,
0022
0000
0033
0100
1000
0001
0010
0100
,
2000
0000
3000
0000
1001
0000
0001
0100
,
0020
0000
1030
0001
0020
0000
0130
1000
,
0002
0003
1001
0010
,
2200
0000
3300
0001
1000
0010
0100
0001
,
0020
0000
0030
0000
0110
0100
1000
0001
,
0020
0000
0130
0010
0001
0100
0010
2000
,
0002
0000
0000
0000
3003
0000
0010
0100
,
2100
0100
0100
0100
,
0010
0010
0010
3010
,
0102
0100
0100
0100
,
0010
0010
0010
0013
,
2100
3100
0102
0103
,
2010
3010
0012
0013
,
2001
0000
3001
0000
0120
0000
0130
0101
,
0000
1010
0000
1100
0000
0022
0000
0033
,
1000
0010
1000
0010
0001
0010
1000
0001
,
0100
0010
0100
0010
0001
0010
1000
0001
,
1000
0100
1000
0100
0001
0100
1000
0001
,
0010
0100
0010
0100
0001
0100
1000
0001
,
0012
0000
1003
0010
0100
0010
0001
0010
,
0100
1000
0100
0001
0010
0100
1000
1100
,
0000
1002
0000
0000
0203
0320
0000
2000
,
0030
0000
0000
0000
0200
0000
0000
3300
,
2002
0000
0000
0003
,
0020
0000
0000
3000
,
0002
0000
0000
0030
,
0200
0003
2300
3002
,
2000
0000
0000
0003
,
0020
0000
0000
3000
,
0200
0000
0000
0030
,
0301
0010
0000
0010
1000
1000
0010
0001
,
1001
0000
0000
0000
1100
0000
0000
0000
0010
0000
0001
0000
0100
0000
1100
0101
,
0011
1010
1000
0000
0001
0000
0010
0000
0001
0000
0010
0000
1000
0000
0010
0000
,
0001
1000
0001
0100
0010
1000
0100
0010
,
0001
1000
0010
0000
0101
0000
1000
0100
,
0100
0001
0010
0000
1100
0000
0001
0100
,
0100
1000
0010
0000
0101
0000
1000
0100
,
0100
0001
0010
1000
0010
0100
0010
0001
,
0100
0010
1020
0000
1030
0001
0101
0001
,
1000
0200
0000
0310
0100
1000
0001
0010
,
0100
1000
1200
0000
1300
0001
0011
0001
,
1000
0020
0000
0130
0010
1000
0001
0100
,
0010
0000
1000
0001
1000
0000
1000
0000
0100
0000
0100
0000
0010
0000
0010
0000
,
0011
0001
1001
0001
1000
1000
0010
0010
,
0001
0010
1010
1000
0001
0001
0101
0100
,
0010
1000
2200
0000
0000
0000
0000
3300
;

//---------------dance-single - ----------------
#NOTES:
     dance-single:
     :
     Easy:
     9:
     0.366643,0.581360,0.199883,0.447739,0.007995,321.000000,296.000000,25.000000,56.000000,0.000000,0.000000,0.366643,0.581360,0.199883,0.447739,0.007995,321.000000,296.000000,25.000000,56.000000,0.000000,0.000000:
0000
0000
0000
0000
,
0000
0000
0000
0000
,
0000
0000
0000
0000
,
0000
0000
0000
0000
,
0000
0000
0000
0000
,
0000
0000
0000
0000
,
0000
0000
0000
0000
,
0000
0000
0000
0000
,
0000
0000
0000
0000
,
2000
0000
0000
0000
,
0000
0000
3001
0000
,
0002
0000
0000
0000
,
0000
0000
1003
0000
,
2000
0000
3100
0000
,
0002
0000
0103
0000
,
2000
0000
0100
0000
0000
0001
0000
0000
,
3020
0000
0200
0330
,
2002
0000
0000
3000
,
0020
0000
0003
0000
,
0200
0000
0030
0000
,
1300
0000
1000
0000
,
0001
0000
2000
0000
,
3010
0000
0002
0000
,
0013
0000
1000
0000
,
0100
0000
0010
0010
,
2001
0010
0010
0010
,
3002
0100
0100
0100
,
2003
0100
0100
0100
,
3002
0010
0010
0010
,
2003
0100
3002
0010
,
0203
1000
0320
0001
,
1030
0100
0001
0010
,
1000
0000
0001
0010
,
2000
3000
0001
0100
,
2000
3000
0001
0010
,
2000
3000
0001
0100
,
1000
1000
0001
0001
,
1000
0010
0001
0010
,
1000
0100
0001
0100
,
2002
0000
0000
0000
,
3003
0000
0000
0000
,
0101
1010
1000
0100
,
0001
0001
0010
0010
,
1000
0100
0001
0100
,
1000
0010
0001
0001
,
0010
0100
0001
0010
,
0100
0010
0001
1000
,
0010
0010
0001
0001
,
0100
1000
0001
0010
,
1100
0011
0001
0100
,
1000
1000
0010
0010
,
0001
0100
1000
0100
,
0001
0010
1000
1000
,
0010
0011
0001
0100
,
0010
1010
1000
0100
,
0010
0011
0001
0100
,
0010
1000
0100
0010
,
1001
0000
0010
0010
,
0200
0300
0110
0001
,
1000
1000
0100
0010
,
0002
0003
0001
1000
,
1001
0000
0100
0100
,
0020
0030
0110
1000
,
0001
0001
0010
0100
,
2000
0000
3000
0001
,
2001
0010
0010
0010
,
3002
0100
0100
0100
,
2003
0100
0100
0100
,
3002
0010
0010
0010
,
2003
0100
3002
0100
,
0023
0100
0032
0100
,
2003
0000
0100
0000
3002
0000
0103
0010
,
0000
1000
0000
0100
0000
0020
0000
0000
,
0230
0300
1000
0010
,
0002
0003
1000
0100
,
0002
0003
1000
0010
,
0001
0001
0010
1000
,
0001
0001
0010
0010
,
1000
0001
0100
2000
,
0002
0000
0000
0000
,
3003
0000
0000
0000
,
2000
0000
0000
0000
,
3020
0000
0000
0000
,
0230
0000
0000
0000
,
0302
0000
0023
0000
,
0230
0000
0000
0000
,
2300
0000
0000
0000
,
3002
0000
0000
0000
,
0013
0100
1000
0001
,
0101
0000
0000
0000
1010
0000
0000
0000
1000
0000
0000
0000
0100
0000
0001
0001
,
0010
0010
0000
0000
1000
0000
0000
0000
0100
0000
0000
0000
0001
0000
0000
0000
,
0100
1000
0010
0001
,
0001
0010
1010
1000
,
0100
0010
0011
0001
,
0100
0010
1010
1000
,
0100
0010
0001
0100
,
0010
1001
0001
0101
,
0100
0010
1000
0100
,
0010
1001
1000
1010
,
0010
0100
0001
0010
,
0100
1000
1000
0010
,
0010
0001
0010
1000
,
0001
1000
0100
0001
,
0100
0000
2002
0000
0000
0000
0000
3003
;

//---------------dance-single - ----------------
#NOTES:
     dance-single:
     :
     Medium:
     13:
     0.548251,0.872041,0.279837,0.767552,0.007995,480.000000,445.000000,35.000000,96.000000,0.000000,0.000000,0.548251,0.872041,0.279837,0.767552,0.007995,480.000000,445.000000,35.000000,96.000000,0.000000,0.000000:
0000
0000
0000
0000
,
0000
0000
0000
0000
,
0000
0000
0000
0000
,
0000
0000
0000
0000
,
0000
0000
0000
0000
,
0000
0000
0000
0000
,
0000
0000
0000
0000
,
0000
0000
0000
0000
,
0000
0000
0000
0000
,
2000
0000
0000
0000
,
0000
0000
3010
0100
,
0002
0000
0000
0000
,
0000
0000
0013
0100
,
2000
0100
3002
0100
,
1003
0100
0001
0010
,
1000
0000
0100
0001
0000
0100
0000
2000
,
0002
3000
0010
0013
,
1001
0000
0001
0100
0010
0000
1000
0000
,
0002
0000
2000
0003
,
3001
0000
0010
0100
1000
0000
1000
0000
,
0001
0000
1000
0010
,
0002
0003
0001
0100
,
2000
0000
3000
0000
2001
0000
3000
0002
,
0020
0033
0210
0300
,
1000
0001
0000
1000
0020
0000
0130
0001
,
0102
0000
1003
0100
0010
1000
0010
0100
,
1000
1100
0001
0101
,
2000
0000
3100
0010
0002
0000
0010
0000
,
2003
0100
0001
3020
,
0230
0000
0301
0010
0100
0001
0100
0010
,
0001
0011
1000
1100
,
0002
0203
0320
2030
,
3100
0010
0000
0100
0020
0000
0031
0000
,
1000
0100
0000
1000
0002
0000
0203
0000
,
0310
1000
0000
0010
0200
0000
0302
0000
,
0013
0100
0000
0010
0200
0000
2300
0000
,
3002
0023
0230
1300
,
2001
0000
3010
0000
0100
0001
0010
0100
,
1000
0000
0100
0000
0010
0001
0100
0010
,
2000
0000
0000
0000
,
3010
0100
0010
1000
0100
1000
0001
0000
,
1001
0000
0110
0000
1000
0100
0010
0001
,
0000
0101
0000
0010
0000
1010
0000
0001
,
1000
0100
1000
0001
0100
0010
0100
0002
,
0000
1003
0100
0020
0000
0130
1000
0001
,
0010
0000
1001
0000
0001
0100
0010
2000
,
0000
3100
0000
0002
0000
0103
0000
1000
,
0200
0000
0310
0001
0010
0100
0000
2100
,
0000
3001
0000
0100
0000
0020
2000
3030
,
1001
0000
0110
0000
0001
0100
0010
1000
,
0000
1100
0000
0010
0000
0011
0000
1000
,
0001
0100
0001
1000
0100
0010
0100
2000
,
0000
3001
0100
0020
0000
0130
0001
0000
,
0010
0000
0110
0000
0001
1000
0010
0100
,
0001
0000
0110
0000
1000
0001
0010
0100
,
1000
0000
0110
0000
0001
1000
0010
0200
,
0000
0310
1000
0100
0010
0100
1000
0001
,
0010
0000
0000
0100
1000
0001
0010
0001
,
2000
3000
1010
0010
,
0200
0000
0310
1000
0002
0000
0013
0100
,
2000
3000
0001
0001
,
0101
0000
0000
0010
1000
0001
0010
0100
,
2000
0000
3000
0000
1100
0100
0010
0001
,
2000
0000
3010
0100
0000
0010
1000
0002
,
0000
0000
0000
0000
0003
0000
0010
0100
,
2000
0100
0100
0100
,
3002
0100
0100
0100
,
2003
0010
0010
0010
,
3002
0010
0010
0010
,
2003
0100
3002
0100
,
2003
0010
3002
0010
,
2003
0000
0100
0000
3002
0000
0103
0010
,
0000
1010
0000
1000
0000
2100
0000
0000
,
3001
0010
0000
0001
2000
0000
3020
0000
,
0130
0001
0000
0100
0020
0000
2030
0000
,
3100
0010
0000
0100
0010
0002
0000
2003
,
0000
0000
3200
0000
0310
0001
0000
1000
,
0002
0000
0103
0010
1000
0100
1000
0001
,
0100
0010
1000
0100
0010
0001
0010
0100
,
0000
2100
0000
0000
3001
1000
0000
0020
,
0000
0000
0200
0030
,
0002
0000
0000
0300
,
0020
0000
0000
0003
,
0200
0000
0000
0030
,
2000
0300
3020
0230
,
0002
0000
0000
0300
,
2000
0000
0000
0003
,
0002
0000
0000
3000
,
0013
0100
0000
0100
0010
0001
1000
0000
,
1001
0000
0000
0000
0110
0000
0000
0000
1000
0000
0100
0000
0010
0000
0001
0101
,
0010
1010
0001
0000
1000
0000
0100
0000
1000
0000
0001
0000
0100
0000
0010
0000
,
0100
0002
0000
1003
0100
0020
0000
0130
,
1000
0000
0010
0000
0110
0000
1000
0001
,
0010
0100
1000
0000
0110
0000
0001
1000
,
0010
0100
0001
0000
0110
0000
1000
0001
,
0010
0200
0000
0310
0001
0100
0010
0100
,
0001
1000
0020
0000
0130
0001
0020
0000
,
0130
0020
0000
0031
0100
0010
1000
0001
,
0010
0100
0020
0000
0130
1000
0020
0000
,
0130
0020
0000
1030
0100
0010
0001
1000
,
0010
0100
0010
0001
0010
1000
0001
0100
,
0010
0100
0001
0010
0100
0010
0001
1000
,
0100
1000
0010
0001
0010
1000
0001
0010
,
0100
1000
0002
0000
0000
0000
0000
0003
;

//---------------dance-double - ----------------
#NOTES:
     dance-double:
     :
     Hard:
     15:
     0.637342,0.872041,0.367785,0.527692,0.015991,558.000000,512.000000,46.000000,66.000000,0.000000,0.000000,0.637342,0.872041,0.367785,0.527692,0.015991,558.000000,512.000000,46.000000,66.000000,0.000000,0.000000:
00000000
00000000
00000000
00000000
,
00000000
00000000
00000000
00000000
,
00000000
00000000
00000000
00000000
,
00000000
00000000
00000000
00000000
,
00000000
00000000
00000000
00000000
,
00000000
00000000
00000000
00000000
,
00000000
00000000
00000000
00000000
,
00000000
00000000
00000000
00000000
,
00000000
00000000
00000000
00000000
,
00000000
00000000
00010000
00001000
00100000
00010000
10000000
00000000
,
00100000
20000000
00000000
30000000
,
00000000
00000000
00010000
00100000
00001000
00010000
00000010
00000000
,
00001000
00000000
00000002
00000000
00000003
00000000
00001000
00000100
,
00000020
00000000
00000130
00010000
00001000
00000000
00100000
00010000
,
00100000
00000000
00001000
00010000
00002000
00000000
01003000
00000000
,
00010000
00000000
00100000
01000000
00000000
10000000
00000000
10000000
,
00020000
00000000
00100000
00130000
,
20010000
00000000
31000000
10000000
00010000
01000000
00100000
00000000
,
00020000
00000000
00002000
00030000
,
00003200
00000000
00000301
00001000
00000100
00001000
00000001
00000000
,
00000020
00000030
00000100
00001000
,
00000020
00000030
00000001
00000010
,
00020000
00000000
00030000
00000000
00012000
00000000
00000000
00203000
,
00020000
00330000
20020000
30030000
,
00010000
01000000
00000000
01000000
00200000
00000000
10300000
00010000
,
10020000
00000000
10030000
01000000
00100000
00010000
00001000
00000100
,
00002000
00000100
00000001
00003010
,
00000120
00000000
00000130
00000001
00002000
00000000
00003100
00000000
,
00000020
00001000
00000100
00000031
,
00002001
00000000
00003001
00000100
00000010
00001000
00010000
01000000
,
00020000
01000000
10000000
00130000
,
01100000
01000000
00110000
01010000
,
00100000
00010000
00000000
00100000
01000000
00100000
20000000
00000000
,
30010000
00100000
00010000
00100000
01000000
10000000
01000000
00010000
,
00001000
00010000
00001000
00100000
00010000
01000000
00001000
00010000
,
00000100
00001000
00000100
00001000
00000001
00000100
00000010
00000100
,
00000001
00001000
00000001
00000010
00000100
00000010
00000001
00001000
,
00002001
00000000
00003001
00000100
00001000
00010000
00100000
10000000
,
10100000
00000000
10000000
01000000
00010000
00001000
00000010
00000001
,
00000022
00000000
00000000
00000030
,
00001003
00000000
00001000
00000000
00010000
00000000
00001000
00000000
00001000
00000000
00000010
00000100
00000010
00000000
00000000
00000000
,
00000101
00000000
00001001
00000000
00000001
00000010
00001000
00010000
,
00000000
00110000
00000000
10000000
00000000
10100000
00000000
00010000
,
00100000
01000000
10000000
00100000
10000000
01000000
00100000
00010000
,
01000000
00100000
01000000
00100000
10000000
01000000
00010000
00001000
,
00010000
00000000
00011000
00000000
00001000
00100000
00010000
20000000
,
00000000
30100000
01000000
00020000
00000000
10030000
01000000
00100000
,
00020000
00000000
10030000
00100000
01000000
00100000
00010000
00001000
,
00100000
00010000
01000000
00010000
10000000
01000000
00100000
00000000
,
11000000
00000000
10010000
00000000
10000000
00100000
00010000
00001000
,
00000000
00001010
00000000
00000001
00000000
00000011
00000000
00001000
,
00000010
00000100
00000001
00000010
00000001
00000100
00000010
00001000
,
00000100
00000010
00000100
00000010
00000001
00000100
00001000
00010000
,
00001000
00000000
00011000
00000000
00010000
01000000
10000000
01000000
,
00010000
00000000
00011000
00000000
00001000
00000010
00000001
00000010
,
00001000
00000000
00011000
00000000
00010000
00100000
10000000
00100000
,
00010000
00001000
00010000
00001000
01000000
00010000
00100000
01000000
,
02200000
00000000
03300000
01000000
10000000
01000000
00100000
00010000
,
20000000
00000000
30000000
00000000
10010000
00000000
00010000
01000000
,
00200000
00000000
00310000
00001000
00200000
00000000
01300000
00010000
,
00002000
00003000
00011000
00000010
,
00000110
00000000
00000000
00000010
00001000
00000001
00000100
00000010
,
00000200
00000000
00000300
00000000
00001001
00001000
00000001
00000010
,
00000200
00000000
00000310
00000001
00000100
00000010
00001000
00000002
,
00002000
00000000
00000000
00000000
00003003
00000000
00000100
00010000
,
00002000
00000010
00000010
00000010
,
00000001
00000001
00000010
00000010
,
00023000
00100000
00100000
00100000
,
10000000
10000000
00100000
00100000
,
00031000
00100000
00010000
00100000
00001000
00000000
00001000
00010000
,
00000010
00001000
00000010
00010000
00002000
00000000
00103000
00010000
,
20000000
00000000
31000000
00000000
01010000
00000000
00100000
00010000
,
00000000
00110000
00000000
01000000
00000000
20200000
00300000
00000000
,
30010000
00100000
00010000
00100000
01000000
10000000
01000000
00010000
,
00001000
00010000
00001000
00100000
00010000
01000000
00001000
00010000
,
00000100
00001000
00000100
00001000
00000001
00000100
00000010
00000100
,
00000001
00001000
00000001
00000010
00000100
00000010
00000001
00001000
,
00002001
00000000
00003001
00000100
00000010
00000100
00001000
00010000
,
01000000
10000000
01000000
00010000
00001000
00000100
00000001
00000000
,
00002002
00000000
00000000
00000000
,
00003003
00000000
00000000
00000000
,
00000002
00000000
00000000
00000000
,
00002000
00000000
00000000
00000003
,
00000020
00000000
00000000
00003000
,
00000200
00000030
00002300
00023000
,
00002000
00000000
00000000
00030000
,
00200000
00000000
00000000
00003000
,
02000000
00000000
00000000
00300000
,
13000000
00010000
00000000
00010000
01000000
00100000
10000000
00000000
,
11000000
00000000
00000000
00000000
10010000
00000000
00000000
00000000
10000000
00000000
00100000
00000000
00010000
00000000
00001000
00001010
,
00000001
00000011
00001000
00000000
00000010
00000000
00000100
00000000
00000001
00000000
00000010
00000000
00000001
00000000
00000100
00000000
,
00000010
00001000
00000100
00000010
00000100
00000010
00000001
00000100
,
00001000
00010000
00001000
00000000
00011000
00000000
00010000
01000000
,
10000000
01000000
00010000
00000000
00011000
00000000
00001000
00000010
,
00000001
00000010
00001000
00000000
00011000
00000000
00010000
00100000
,
10000000
00100000
00010000
00001000
00010000
00001000
01000000
00010000
,
00100000
01000000
01200000
00000000
00310000
10000000
10100000
10000000
,
01000000
00200000
00000000
00310000
10000000
01000000
00010000
00001000
,
00010000
00001000
00021000
00000000
00030100
00001000
00001010
00001000
,
00000001
00000200
00000000
00000310
00001000
00000001
00000100
00000010
,
00001000
00000000
00000100
00000010
00000100
00000000
00000100
00000000
00000010
00000000
00000010
00000000
00000001
00000000
00000100
00000000
,
00001000
00010000
00001000
00001000
00100000
00100000
00010000
01000000
,
00100000
10000000
01000000
00010000
00001000
00000100
00000001
00000010
,
00001000
00010000
00022000
00000000
00000000
00000000
00000000
00033000
;

//---------------dance-double - ----------------
#NOTES:
     dance-double:
     :
     Medium:
     12:
     0.500279,0.788989,0.255851,0.551678,0.007995,438.000000,406.000000,32.000000,69.000000,0.000000,0.000000,0.500279,0.788989,0.255851,0.551678,0.007995,438.000000,406.000000,32.000000,69.000000,0.000000,0.000000:
// measure 0
00000000
00000000
00000000
00000000
,  // measure 1
00000000
00000000
00000000
00000000
,  // measure 2
00000000
00000000
00000000
00000000
,  // measure 3
00000000
00000000
00000000
00000000
,  // measure 4
00000000
00000000
00000000
00000000
,  // measure 5
00000000
00000000
00000000
00000000
,  // measure 6
00000000
00000000
00000000
00000000
,  // measure 7
00000000
00000000
00000000
00000000
,  // measure 8
00000000
00000000
00000000
00000000
,  // measure 9
00200000
00000000
00000000
00000000
,  // measure 10
00000000
00000000
00301000
00010000
,  // measure 11
00000020
00000000
00000000
00000000
,  // measure 12
00000000
00000000
00010030
00001000
,  // measure 13
00200000
00000000
02300000
00000000
,  // measure 14
23000000
00000000
30020000
00000000
,  // measure 15
10030000
00000000
01000000
00100000
00000000
01000000
00000000
00010000
,  // measure 16
00002000
00000000
00013000
00000000
,  // measure 17
00011000
00000000
00000100
00001000
00000001
00000000
00000100
00000000
,  // measure 18
00000002
00000000
00002003
00000000
,  // measure 19
00003100
00000000
00000010
00000100
00001000
00000000
00000001
00000000
,  // measure 20
00001000
00000000
00000010
00000100
,  // measure 21
00002000
00003000
00010000
01000000
,  // measure 22
00200000
00300000
20010000
00000000
,  // measure 23
30200000
00300000
02100000
03000000
,  // measure 24
00020000
00000000
00000000
00000000
00230000
00000000
10300000
00100000
,  // measure 25
00020000
00000000
10000000
00000000
10030000
01000000
10000000
00000000
,  // measure 26
00010000
00010000
00100000
00010000
,  // measure 27
02000000
00000000
03100000
01000000
00100000
00000000
00100000
00000000
,  // measure 28
00010000
00001000
00010000
00000100
,  // measure 29
00002000
00000000
00000001
00000000
00003001
00000100
00000001
00000000
,  // measure 30
00001000
00001000
00000100
00000010
,  // measure 31
00000002
00000203
00002300
00023000
,  // measure 32
00031000
00010000
00000000
00010000
00001000
00000000
00011000
00000000
,  // measure 33
00100000
00010000
00000000
00010000
00100000
00000000
01000000
00000000
,  // measure 34
00100000
00010000
00000000
00010000
01000000
00000000
00100000
00000000
,  // measure 35
10000000
01000000
00000000
01000000
10000000
00000000
00010000
00000000
,  // measure 36
00100000
01000000
00010000
00001000
,  // measure 37
00011000
00000000
00010000
00000000
00000100
00001000
00000010
00010000
,  // measure 38
00001000
00000000
01000000
00000000
00010000
00100000
00001000
00010000
,  // measure 39
00000020
00000000
00000000
00000000
,  // measure 40
00000130
00001000
00000100
00000001
00000010
00000001
00000100
00000000
,  // measure 41
00001010
00000000
00001001
00000000
00000001
00000010
00000100
00001000
,  // measure 42
00000000
00011000
00000000
00000010
00000000
00001010
00000000
00010000
,  // measure 43
00001000
00100000
00010000
00100000
00001000
00010000
00001000
02000000
,  // measure 44
00000000
03100000
00000000
20000000
00000000
31000000
00100000
00000000
,  // measure 45
00010000
00000000
10010000
00000000
00010000
01000000
00100000
20000000
,  // measure 46
00000000
30100000
00000000
00200000
00000000
00310000
00000000
00010000
,  // measure 47
00002000
00000000
00003010
00001000
00000000
00010000
00000000
02000000
,  // measure 48
00000000
13000000
00000000
01000000
00000000
00200000
00000000
00300000
,  // measure 49
11000000
00000000
10010000
00000000
00010000
01000000
00100000
10000000
,  // measure 50
00000000
01100000
00000000
00010000
00000000
00011000
00000000
00001000
,  // measure 51
00010000
00000100
00001000
00000001
00000100
00000010
00001000
00000002
,  // measure 52
00000000
00000013
00000000
00000200
00000000
00001300
00000001
00000000
,  // measure 53
00001000
00000000
00001001
00000000
00000001
00000100
00001000
00000000
,  // measure 54
00010000
00000000
00011000
00000000
00010000
01000000
10000000
00000000
,  // measure 55
00010000
00000000
10010000
00000000
01000000
00010000
10000000
00200000
,  // measure 56
00000000
01300000
00001000
00100000
00010000
00000000
00100000
01000000
,  // measure 57
10000000
00000000
00000000
01000000
00100000
00000000
00001000
00000000
,  // measure 58
00020000
00030000
00011000
00001000
,  // measure 59
00000020
00000000
00000130
00001000
00000002
00000000
00000103
00000010
,  // measure 60
00002000
00003000
00001001
00000100
,  // measure 61
00000011
00000000
00000000
00000010
00000100
00000000
00010000
00000000
,  // measure 62
00002000
00000000
00003000
00000000
00011000
00010000
00001000
00000000
,  // measure 63
00020000
00000000
01030000
10000000
00000000
00100000
00000000
02000000
,  // measure 64
00000000
00000000
03000000
00000000
01100000
00000000
10000000
00010000
,  // measure 65
20000000
01000000
01000000
31000000
,  // measure 66
00200000
00010000
00010000
00310000
,  // measure 67
00002000
00000010
00000010
00003010
,  // measure 68
00000200
00000001
00000001
00000301
,  // measure 69
00002000
00003100
00002000
00003010
,  // measure 70
00000200
00001300
00000200
00000310
,  // measure 71
00020000
00000000
00031000
00000000
00200000
00000000
01300000
10000000
,  // measure 72
00000000
11000000
00000000
00100000
00000000
00120000
00000000
00000000
,  // measure 73
10030000
00010000
00000000
00010000
01000000
00000000
00001000
00000000
,  // measure 74
00010000
00001000
00000000
00001000
00010000
00000000
00000100
00000000
,  // measure 75
00001000
00000001
00000000
00000001
00000100
00000010
00000000
00001000
,  // measure 76
00000000
00001000
00000100
00000000
00000010
00000100
00000000
00000100
,  // measure 77
00002000
00000000
00003001
00000010
00000100
00001000
00000100
00001000
,  // measure 78
00000010
00000100
00001000
00010000
00100000
01000000
00100000
00000000
,  // measure 79
20020000
00000000
00000000
00000000
,  // measure 80
30030000
00000000
00000000
00000000
,  // measure 81
20000000
00000000
00000000
00000000
,  // measure 82
02000000
00000000
30000000
00000000
,  // measure 83
00020000
00000000
03000000
00000000
,  // measure 84
00002000
00030000
00003020
00000230
,  // measure 85
00000020
00000000
00000300
00000000
,  // measure 86
00000002
00000000
00000030
00000000
,  // measure 87
00002000
00000000
00000003
00000000
,  // measure 88
00003001
00000100
00000000
00000100
00000010
00001000
00000010
00000000
,  // measure 89
00000110
00000000
00000000
00000000
00001001
00000000
00000000
00000000
00001000
00000000
00000100
00000000
00000010
00000000
00000001
00000010
,  // measure 90
00001000
00010000
00010000
00000000
00001000
00000000
00100000
00000000
00010000
00000000
10000000
00000000
00100000
00000000
01000000
00000000
,  // measure 91
00010000
20000000
00000000
31000000
00000000
00200000
00000000
00310000
,  // measure 92
10000000
00000000
00010000
00000000
10010000
00000000
10000000
00100000
,  // measure 93
00010000
00000000
00001000
00000000
00011000
00000000
00001000
00000010
,  // measure 94
00000001
00000000
00001000
00000000
00001001
00000000
00000010
00001000
,  // measure 95
00000001
00000200
00000000
00000310
00010000
00000100
00001000
00000000
,  // measure 96
00000100
00000010
00000002
00000000
00001003
00000000
00001001
00000000
,  // measure 97
00000001
00000100
00000000
00000001
00000100
00000000
00000010
00001000
,  // measure 98
00000001
00000010
00000100
00000110
,  // measure 99
00010000
00001000
00000000
00010000
00001000
00000000
00100000
00010000
,  // measure 100
00100000
00000000
01000000
00100000
01000000
00100000
00010000
10000000
,  // measure 101
01000000
10000000
00010000
00100000
00001000
00100000
00010000
01000000
,  // measure 102
00001000
00010000
00000010
00001000
00000010
00000100
00000001
00000100
,  // measure 103
00000010
00001000
00000002
00000000
00000000
00000000
00000000
00000003
;

//---------------dance-double - ----------------
#NOTES:
     dance-double:
     :
     Easy:
     8:
     0.331235,0.581360,0.215874,0.367785,0.007995,290.000000,263.000000,27.000000,46.000000,0.000000,0.000000,0.331235,0.581360,0.215874,0.367785,0.007995,290.000000,263.000000,27.000000,46.000000,0.000000,0.000000:
00000000
00000000
00000000
00000000
,
00000000
00000000
00000000
00000000
,
00000000
00000000
00000000
00000000
,
00000000
00000000
00000000
00000000
,
00000000
00000000
00000000
00000000
,
00000000
00000000
00000000
00000000
,
00000000
00000000
00000000
00000000
,
00000000
00000000
00000000
00000000
,
00000000
00000000
00000000
00000000
,
00200000
00000000
00000000
00000000
,
00000000
00000000
00301000
00000000
,
00002000
00000000
00000000
00000000
,
00000000
00000000
00013000
00000000
,
00020000
00000000
00030010
00000000
,
00000020
00000000
00001030
00000000
,
00000200
00000000
00000001
00000000
00000000
00000010
00000000
00000000
,
00002300
00000000
00000002
00003003
,
00001002
00000000
00000100
00000000
,
00000203
00000000
00000300
00000000
,
00000020
00000000
00001000
00000000
,
00010030
00000000
00001000
00000000
,
00100000
00000000
00010000
00000000
,
01000000
00000000
00002000
00000000
,
00013000
00000000
00010000
00000000
,
01000000
00000000
10000000
00010000
,
20010000
00000000
00100000
30100000
,
10000000
01000000
10000000
00010000
,
02000000
00000000
00100000
03100000
,
01000000
00001000
00010000
00000100
,
00020000
00000000
00000100
00030100
,
00010000
00001000
00010000
00000010
,
00000100
00000010
00000001
00000010
,
00000110
00000000
00000010
00001000
,
00000002
00000000
00000103
00000000
,
00000200
00000000
00001300
00000000
,
00002000
00000000
00013000
00000000
,
00020000
00000000
01030000
00000000
,
10010000
00000000
00100000
10000000
,
00100000
00000000
00010000
00100000
,
20020000
00000000
00000000
00000000
,
30030000
00000000
00000000
00000000
,
01010000
00011000
00010000
00000100
,
00001000
00001000
00000010
00000010
,
00001000
00000100
00000001
00000100
,
00001000
00001000
00001000
00000000
,
00000010
00000100
00000001
00000100
,
00000010
00001000
00000100
00001000
,
00000001
00000001
00000010
00000010
,
00001000
00010000
00002000
00003000
,
00001010
00011000
00001000
00100000
,
00010000
00010000
10000000
10000000
,
01000000
00010000
01000000
10000000
,
00100000
01000000
00010000
10000000
,
01000000
01100000
01000000
10000000
,
00100000
01100000
01000000
00010000
,
00100000
01100000
01000000
00010000
,
00001000
00010000
00000100
00010000
,
00011000
00000000
00000100
00000010
,
00000100
00000000
00001001
00000000
,
00000002
00000103
00002000
00003100
,
00000020
00000030
00001000
00000000
,
00011000
00000000
00100000
01000000
,
00100000
00000000
01100000
00000000
,
00020000
00000000
02030000
00000000
,
23000000
00000000
30000000
00000000
,
00100000
10000000
00100000
10000000
,
00010000
10000000
01000000
00000000
,
00100000
00001000
00100000
00001000
,
00010000
00000010
00001000
00000000
,
00000002
00000010
00000013
00000000
,
00000200
00001000
00001300
00000000
,
00010000
00000000
00011000
00000000
,
00100000
00010000
00020000
00000000
,
20030000
00000000
31000000
00000000
,
02000000
00000000
03010000
00000000
,
00020000
00000000
00031000
00000000
,
00000200
00000000
00000310
00000000
,
00000100
00000001
00000010
00000001
,
00000100
00000010
00001000
00000100
,
00000020
00000000
00000000
00000000
,
00000030
00000000
00000000
00000000
,
00000002
00000000
00000000
00000000
,
00000023
00000000
00000000
00000000
,
00000230
00000000
00000000
00000000
,
00020300
00000000
00031000
01000000
,
00002000
00000000
00000000
00000000
,
00023000
00000000
00000000
00000000
,
02030000
00000000
00000000
00000000
,
23000000
00000000
00020000
30030000
,
00110000
00000000
00000000
00000000
00011000
00000000
00000000
00000000
00010000
00000000
00000010
00000000
00000000
00000000
00001000
00001000
,
00000001
00000001
00000000
00000000
00000010
00000000
00000000
00000000
00001000
00000000
00000000
00000000
00000010
00000000
00000000
00000000
,
00000001
00000100
00000010
00001000
,
00000001
00000010
00000110
00000010
,
00000001
00000100
00000110
00000010
,
00001000
00000100
00000110
00000010
,
00001000
00010000
00001000
00100000
,
00001000
00011000
00000000
10010000
,
00000000
01000000
10000000
00100000
,
01000000
01010000
00000000
00011000
,
00000000
00010000
01000000
00010000
,
00001000
00000010
00000010
00000001
,
00000001
00001000
00000010
00000100
,
00000010
00001000
00000100
00010000
,
00001000
00000000
00022000
00000000
00000000
00000000
00000000
00033000
;
