#VERSION:0.83;
#TITLE:Changing Keys;
#SUBTITLE:(1989 Remix);
#ARTIST:Merv Griffin;
#TITLETRANSLIT:;
#SUBTITLETRANSLIT:;
#ARTISTTRANSLIT:;
#GENRE:Popular Songs;
#ORIGIN:;
#CREDIT:;
#BANNER:Changing Keys (1989 Remix).png;
#BACKGROUND:Changing Keys (1989 Remix)-bg.png;
#PREVIEWVID:;
#JACKET:Changing Keys (1989 Remix)-jacket.png;
#CDIMAGE:;
#DISCIMAGE:;
#LYRICSPATH:;
#CDTITLE:../cdtitle.png;
#MUSIC:Changing Keys (1989 Remix).ogg;
#OFFSET:-0.620000;
#SAMPLESTART:13.300000;
#SAMPLELENGTH:15.000000;
#SELECTABLE:YES;
#BPMS:0.000=108.400,
8.000=115.800,
17.500=116.000,
21.500=116.200,
23.000=118.000,
24.000=116.300;
#STOPS:;
#DELAYS:;
#WARPS:;
#TIMESIGNATURES:0.000=4=4;
#TICKCOUNTS:0.000=4;
#COMBOS:0.000=1;
#SPEEDS:0.000=1.000=0.000=0;
#SCROLLS:0.000=1.000;
#FAKES:;
#LABELS:0.000=Song Start;
#BGCHANGES:-99.000=../bg.avi=1.000=0=0=1=====,
99999=-nosongbg-=1.000=0=0=0 // don't automatically add -songbackground-
;
#KEYSOUNDS:;
#ATTACKS:
;

//---------------dance-single - ----------------
#NOTEDATA:;
#CHARTNAME:;
#STEPSTYPE:dance-single;
#DESCRIPTION:;
#CHARTSTYLE:;
#DIFFICULTY:Easy;
#METER:5;
#RADARVALUES:0.246181,0.261341,0.070958,0.354790,0.000000,170.000000,163.000000,7.000000,35.000000,0.000000,0.000000,0.000000,0.000000,0.000000,0.246181,0.261341,0.070958,0.354790,0.000000,170.000000,163.000000,7.000000,35.000000,0.000000,0.000000,0.000000,0.000000,0.000000;
#CREDIT:led_light;
#NOTES:
0000
0000
0000
0000
,
0000
0000
0000
0000
,
2200
0000
0000
3300
,
0202
0000
0000
0303
,
0022
0000
0000
0033
,
2020
0000
0000
3030
,
1000
0100
0100
0001
,
1000
0010
0010
0001
,
1000
0100
0100
0001
,
2000
3020
0032
0203
,
1300
0010
0010
0001
,
1000
0100
0100
0001
,
1000
0010
0010
0001
,
2000
0000
0001
3001
,
0001
0100
0010
0010
,
1000
0001
2000
3000
,
0001
0010
0100
0100
,
2000
3200
0302
0023
,
1030
0100
0001
0100
,
1000
0010
0001
0010
,
1000
0100
0001
0100
,
2000
3020
0032
0203
,
1300
0010
0001
0010
,
1000
0100
0001
0100
,
1000
0010
0001
0010
,
2000
3200
0302
0023
,
1030
0100
0010
0010
,
0001
1000
0001
0001
,
1000
0010
0100
0100
,
0002
0100
0010
1003
,
0001
0010
0100
0100
,
1000
0001
1000
1000
,
0001
0100
0010
0010
,
2000
0010
0100
3001
,
0001
0100
1000
0100
,
0001
0010
1000
0010
,
0001
0100
1000
0100
,
0002
0023
2030
3200
,
0301
1000
0001
2100
,
0010
0001
0001
3100
,
1000
0001
1000
0012
,
0100
1000
1000
0013
,
0001
0100
0010
0001
,
1000
0100
0010
1000
,
1000
0100
0010
1000
,
0001
0100
0010
0002
,
0000
0000
0000
0000
0000
0000
0003
1001
;

//---------------dance-single - ----------------
#NOTEDATA:;
#CHARTNAME:;
#STEPSTYPE:dance-single;
#DESCRIPTION:;
#CHARTSTYLE:;
#DIFFICULTY:Medium;
#METER:7;
#RADARVALUES:0.311346,0.308857,0.081095,0.344653,0.010137,215.000000,207.000000,8.000000,34.000000,0.000000,0.000000,0.000000,0.000000,0.000000,0.311346,0.308857,0.081095,0.344653,0.010137,215.000000,207.000000,8.000000,34.000000,0.000000,0.000000,0.000000,0.000000,0.000000;
#CREDIT:led_light;
#NOTES:
0000
0000
0000
0000
,
0000
0000
0000
0000
,
2000
0000
0000
0200
0000
0000
3300
0000
,
0002
0000
0000
0200
0000
0000
0303
0000
,
2000
0000
0000
0020
0000
0000
3030
0000
,
0002
0000
0000
0020
0000
0000
0033
0000
,
0001
0000
0010
0000
0100
0000
1000
0001
,
1000
0000
0010
0000
0100
0000
0001
1000
,
0001
0000
0010
0000
0100
0000
1000
0001
,
2000
0000
3020
0000
0032
0000
0013
0010
,
1000
0000
0100
0000
0010
0000
0001
1000
,
0001
0000
0100
0000
0010
0000
1000
0001
,
1000
0000
0100
0000
0010
0000
0001
1000
,
0002
0000
0023
0000
0130
1000
0100
1000
,
0002
0000
0013
0000
2000
0000
3010
0001
,
1000
0100
0022
0033
,
2000
0000
3010
0000
0002
0000
0013
1000
,
0002
0000
0203
0000
0310
1000
0010
1000
,
0001
0000
0010
0000
1000
0000
1000
0010
,
0001
0000
0100
0000
1000
0000
1000
0100
,
0001
0000
0010
0000
1000
0000
1000
0010
,
0002
0000
0203
0000
0320
0000
1030
0001
,
1000
0000
0100
0000
0001
0000
0001
0100
,
1000
0000
0010
0000
0001
0000
0001
0010
,
1000
0000
0100
0000
0001
0000
0001
0100
,
2000
0000
3020
0000
0230
0000
0301
1000
,
0001
0000
0100
0000
0010
0000
0100
0001
,
1000
0000
0100
0000
0010
0000
0100
1000
,
0001
0000
0010
0000
0100
0000
0010
0001
,
2000
0000
3010
0000
0010
0100
0001
0000
,
1000
0000
0010
0000
0100
0000
0010
1000
,
0001
0000
0010
0000
0100
0000
0010
0001
,
1000
0000
0100
0000
0010
0000
0100
1000
,
0002
0000
0103
0000
0100
0010
1000
0000
,
0001
0000
0010
0000
1000
0000
1000
0100
,
0001
0000
0010
0000
1000
0000
1000
0100
,
0001
0000
0100
0000
1000
0000
1000
0010
,
0002
0000
0203
0000
0310
1000
0100
0000
,
1000
0000
0000
0001
0000
0000
1000
0000
0000
0000
0002
0000
0000
0000
0003
0000
,
0101
0000
0000
1100
0000
0000
0110
0000
,
0001
0000
0000
1000
0000
0000
0001
0000
0000
0000
2000
0000
0000
0000
3000
0000
,
1010
0000
0000
0011
0000
0000
0110
0000
,
1000
0000
0100
0000
0001
0000
0010
1000
,
0100
0000
0001
0000
0010
0000
1000
0100
,
0001
0000
0100
0000
1000
0000
0010
0001
,
0100
0000
1000
0000
0010
0000
0001
0200
,
1000
0000
0010
0000
0001
0000
0310
1001
;

//---------------dance-single - ----------------
#NOTEDATA:;
#CHARTNAME:;
#STEPSTYPE:dance-single;
#DESCRIPTION:;
#CHARTSTYLE:;
#DIFFICULTY:Hard;
#METER:10;
#RADARVALUES:0.418507,0.427648,0.182463,0.669032,0.314242,289.000000,271.000000,18.000000,66.000000,0.000000,0.000000,0.000000,0.000000,0.000000,0.418507,0.427648,0.182463,0.669032,0.314242,289.000000,271.000000,18.000000,66.000000,0.000000,0.000000,0.000000,0.000000,0.000000;
#CREDIT:led_light;
#NOTES:
0000
0000
0000
0000
,
0000
0000
0000
0000
,
2200
0000
3300
0022
0000
0000
0033
0000
,
0202
0000
0303
2020
0000
0000
3030
0000
,
0220
0000
0330
2002
0000
0000
3003
0000
,
0022
0000
0033
2200
0000
0000
3300
0000
,
1000
0000
0000
1000
0000
0000
2000
0000
0000
3001
0010
0000
0100
0000
1000
0000
,
0001
0000
0000
0001
0000
0000
0002
0000
0000
1003
0010
0000
0100
0000
0001
0000
,
0010
0000
0000
0010
0000
0000
0020
0000
0000
0130
0010
0000
0001
0000
1000
0000
,
0002
0023
2030
3200
,
0301
0000
0000
0001
0000
0000
0002
0000
0000
1003
0010
0000
0100
0000
0001
0000
,
1000
0000
0000
1000
0000
0000
2000
0000
0000
3001
0010
0000
0100
0000
1000
0000
,
0010
0000
0000
0010
0000
0000
0020
0000
0000
0130
0010
0000
1000
0000
0001
0000
,
2000
0000
3020
0000
0031
0010
0001
0010
,
1000
0000
0000
0001
0000
0000
2010
0000
0000
0000
3001
0000
0010
0000
0100
0000
,
0001
0000
0000
0100
0000
0000
2100
0000
0000
0000
0000
0000
3001
0000
0000
0000
,
0001
0000
0000
1000
0000
0000
0012
0000
0000
0000
1003
0000
0010
0000
0100
0000
,
0002
0000
0023
0000
1030
0010
1000
0010
,
0001
0000
0000
0001
0000
0000
0002
0000
0000
1003
0100
0000
0010
0000
0001
0000
,
1000
0000
0000
1000
0000
0000
2000
0000
0000
3001
0100
0000
0010
0000
1000
0000
,
0100
0000
0000
0100
0000
0000
0200
0000
0000
0310
0100
0000
1000
0000
0001
0000
,
2000
3020
0032
0203
,
1300
0000
0000
1000
0000
0000
1000
0000
0000
0001
0000
0000
0010
0000
0100
0000
,
1000
0000
0000
1000
0000
0000
1000
0000
0000
0100
0000
0000
0010
0000
0001
0000
,
1000
0000
0000
1000
0000
0000
1000
0000
0000
0010
0000
0000
0100
0000
0001
0000
,
0020
0000
2030
0000
3200
0000
0301
1000
,
0001
0000
0000
0010
0000
0000
0200
0000
0000
0000
1300
0000
0100
0000
0010
0000
,
0001
0000
0000
1000
0000
0000
0020
0000
0000
0000
0130
0000
0001
0000
0100
0000
,
0010
0000
0000
1000
0000
0000
0200
0000
0000
0000
1300
0000
0010
0000
0100
0000
,
0001
0000
1000
0200
0000
0000
0000
0000
1300
0000
1000
0000
0001
0000
1000
0000
,
0001
0000
0000
0010
0000
0000
0200
0000
0000
1300
0100
0000
0010
0000
0001
0000
,
1000
0000
0000
0010
0000
0000
0200
0000
0000
0301
0100
0000
0010
0000
1000
0000
,
0001
0000
0000
0010
0000
0000
2000
0000
0000
3010
0001
0000
1000
0000
0100
0000
,
2000
0000
3002
0000
1003
0010
0001
0010
,
1000
0000
0000
1000
0000
0000
2000
0000
0000
3001
0010
0000
0100
0000
0010
0000
,
0001
0000
0000
0001
0000
0000
0002
0000
0000
1003
0010
0000
0100
0000
0010
0000
,
1000
0000
0000
1000
0000
0000
2000
0000
0000
3001
1000
0000
0100
0000
0010
0000
,
0002
0000
0000
0000
0023
0000
0000
0000
2030
0000
0000
3010
0001
0000
1000
0000
,
1001
0000
0000
0100
0000
0000
1001
0000
0000
0000
0220
0000
0000
0000
0330
0000
,
0001
0010
0100
1000
0000
0000
1000
0010
0100
0001
0000
0000
1000
0000
0000
0000
,
1001
0000
0000
0010
0000
0000
1001
0000
0000
0000
0220
0000
0000
0000
0330
0000
,
1000
0100
0010
0001
0000
0000
0001
0100
0010
1000
0000
0000
0001
0000
0000
0000
,
1000
0000
0000
0100
0000
0000
0002
0000
0000
0103
0010
0000
0100
0000
1000
0000
,
0001
0000
0000
0010
0000
0000
2000
0000
0000
3010
0100
0000
0010
0000
0001
0000
,
1000
0000
0000
0010
0000
0000
0002
0000
0000
0013
0100
0000
0010
0000
1000
0000
,
0001
0000
0000
0010
0000
0000
2000
0000
0000
3010
0001
0000
1000
0000
0100
0000
,
0010
0100
1000
0010
0001
0010
0100
1001
;

//---------------dance-single - ----------------
#NOTEDATA:;
#CHARTNAME:;
#STEPSTYPE:dance-single;
#DESCRIPTION:;
#CHARTSTYLE:;
#DIFFICULTY:Beginner;
#METER:2;
#RADARVALUES:0.068062,0.095033,0.020274,0.131779,0.000000,47.000000,45.000000,2.000000,13.000000,0.000000,0.000000,0.000000,0.000000,0.000000,0.068062,0.095033,0.020274,0.131779,0.000000,47.000000,45.000000,2.000000,13.000000,0.000000,0.000000,0.000000,0.000000,0.000000;
#CREDIT:led_light;
#NOTES:
0000
0000
0000
0000
,
0000
0000
0000
0000
,
2000
0000
3000
0000
,
0200
0000
0300
0000
,
0002
0000
0003
0000
,
0020
0000
0030
0000
,
1000
0000
0000
0000
,
1000
0000
0000
0000
,
0001
0000
0000
0000
,
0200
0000
0300
0000
,
0001
0000
0000
0000
,
0001
0000
0000
0000
,
1000
0000
0000
0000
,
0002
0000
0003
0000
,
0010
0000
0010
0000
,
0010
0000
0000
0000
,
0100
0000
0100
0000
,
0200
0000
0300
0000
,
1000
0000
0000
0000
,
1000
0000
0000
0000
,
0001
0000
0000
0000
,
0020
0000
0030
0000
,
0001
0000
0000
0000
,
0001
0000
0000
0000
,
1000
0000
0000
0000
,
0020
0000
0030
0000
,
0100
0000
0000
0000
,
0001
0000
0000
0000
,
0100
0000
0000
0000
,
0020
0000
0030
0000
,
1000
0000
0000
0000
,
0100
0000
0000
0000
,
0010
0000
0000
0000
,
0200
0000
0300
0000
,
1000
0000
0000
0000
,
0010
0000
0000
0000
,
0001
0000
0000
0000
,
0200
0000
0300
0000
,
1001
0000
0000
0000
,
0000
0000
0000
0000
,
0110
0000
0000
0000
,
0000
0000
0000
0000
,
1000
0000
0000
0000
,
0100
0000
0000
0000
,
0001
0000
0000
0000
,
0010
0000
0000
0000
,
2000
0000
0000
0000
0000
0000
0000
3000
;

//---------------dance-single - ----------------
#NOTEDATA:;
#CHARTNAME:;
#STEPSTYPE:dance-single;
#DESCRIPTION:;
#CHARTSTYLE:;
#DIFFICULTY:Challenge;
#METER:13;
#RADARVALUES:0.608211,0.617714,0.121642,0.577800,0.628485,420.000000,408.000000,12.000000,57.000000,0.000000,0.000000,0.000000,0.000000,0.000000,0.608211,0.617714,0.121642,0.577800,0.628485,420.000000,408.000000,12.000000,57.000000,0.000000,0.000000,0.000000,0.000000,0.000000;
#CREDIT:led_light;
#NOTES:
// measure 0
0000
0000
0000
0000
,  // measure 1
0000
0000
0000
0000
,  // measure 2
2001
0000
0000
0000
3010
0000
0102
0000
0000
0000
1003
0000
0100
0010
0100
0000
,  // measure 3
2100
0000
0000
0001
3010
0001
0012
0000
0000
0000
1003
0000
0010
0000
0100
0001
,  // measure 4
1002
0000
0013
2100
0000
3001
0100
0010
,  // measure 5
0102
0000
0000
0000
1003
0000
2010
0000
3010
0000
0100
0000
0001
0000
0010
0100
,  // measure 6
1000
0000
0100
0010
0000
0100
2000
0000
3001
1000
0010
0000
0100
0000
0001
0000
,  // measure 7
1000
0000
0010
0100
0000
0010
2000
0000
3001
1000
0100
0000
0010
0000
0001
0000
,  // measure 8
1000
0000
0100
0001
0000
0100
2000
0000
3001
0010
0100
0000
1000
0000
0001
0000
,  // measure 9
2000
0000
0000
0000
3002
0000
0000
0000
0203
0000
0000
0000
0310
0000
0010
1000
,  // measure 10
0001
0000
0010
0100
0000
0010
0002
0000
1003
0001
0100
0000
0010
0000
1000
0000
,  // measure 11
0001
0000
0100
0010
0000
0100
0002
0000
1003
0001
0010
0000
0100
0000
1000
0000
,  // measure 12
0001
0000
0010
1000
0000
0010
0002
0000
1003
0100
0010
0000
0001
0000
1000
0000
,  // measure 13
0002
0000
0000
0000
2003
0000
0000
0000
3010
0000
0100
0000
0010
0000
0100
0001
,  // measure 14
2000
0000
0000
3010
0000
0000
0012
0000
0000
0000
1003
0000
0001
0010
0100
0000
,  // measure 15
2000
0000
0000
3100
0000
0000
0102
0000
0000
0000
0000
0000
0013
0000
0000
0000
,  // measure 16
0002
0000
0000
0103
0000
0000
2100
0000
0000
0000
3001
0000
1000
0100
0010
0000
,  // measure 17
0001
0000
0001
0000
0100
0000
0100
0000
1000
0000
1000
0000
0010
0000
0010
0001
,  // measure 18
1000
0000
1000
0100
0000
0100
0002
0000
0103
0010
0100
0000
1000
0000
1000
0001
,  // measure 19
0100
0000
0100
0010
0000
0010
2000
0000
3001
0010
0001
0000
0100
0000
0001
1000
,  // measure 20
0100
0000
0100
0010
0000
0010
0002
0000
1003
0100
0010
0000
0100
0000
1000
0000
,  // measure 21
0002
0000
0000
0000
0023
0000
0000
0000
2030
0000
0000
0000
3100
0000
0100
0001
,  // measure 22
1000
0000
1000
0010
0000
0010
0002
0000
0003
0001
0010
0000
1000
0000
0001
0000
,  // measure 23
0010
0000
0010
0100
0000
0100
2000
0000
3000
0001
0010
0000
0001
0000
1000
0000
,  // measure 24
0010
0000
0010
0100
0000
0100
0002
0000
0003
0001
1000
0000
0100
0000
1000
0000
,  // measure 25
0002
0000
0000
0000
0203
0000
0000
0000
2300
0000
0000
0000
3010
0000
0010
0001
,  // measure 26
0100
0000
1000
0100
0000
0001
0200
0000
0300
0010
1000
0000
0100
0000
0010
0000
,  // measure 27
0100
0000
0001
0100
0000
1000
0200
0000
0300
0010
0001
0000
0100
0000
0010
0000
,  // measure 28
1000
0000
0001
0010
0000
0100
0020
0000
0000
0000
0031
0000
1000
0000
0100
0000
,  // measure 29
0010
0000
0001
1000
0000
0000
0100
1000
0001
0010
0001
0000
1000
0001
1000
0100
,  // measure 30
0010
0000
1000
0010
0000
0001
0020
0000
0030
0100
1000
0000
0010
0000
0100
0000
,  // measure 31
0010
0000
0001
0010
0000
1000
0020
0000
0030
0100
0001
0000
0010
0000
0100
0000
,  // measure 32
1000
0000
0001
0100
0000
0010
0200
0000
0000
0000
0301
0000
1000
0000
0010
0000
,  // measure 33
0200
0000
0000
0000
0301
0000
1000
0010
1000
0001
0010
0000
0001
1000
0100
1000
,  // measure 34
0010
0000
0100
0001
0000
0010
2000
0000
0000
3010
0001
0000
1000
0000
0010
0000
,  // measure 35
0100
0000
0010
1000
0000
0100
0002
0000
0000
0103
1000
0000
0001
0000
0100
0000
,  // measure 36
0010
0000
1000
0001
0000
0001
0020
0000
0000
0130
1000
0000
0100
0000
0010
0000
,  // measure 37
0002
0000
0000
0000
0203
0000
0000
0000
2300
0000
0000
3100
0010
1000
0100
0010
,  // measure 38
0001
0000
1000
0100
0000
1000
0010
0000
0100
0000
0002
0000
0010
0000
0000
0000
,  // measure 39
1003
0010
0100
0001
1000
0000
0001
0010
0100
1000
0001
0000
1000
0000
0000
0001
,  // measure 40
1000
0000
0001
0100
0000
0001
0010
0000
0100
0000
2000
0000
0010
0000
0000
0000
,  // measure 41
3001
0010
0100
1000
0001
0000
1000
0010
0100
0001
1000
0000
0001
0000
1000
0001
,  // measure 42
1000
0000
1000
0100
0000
0100
0002
0000
1003
0010
1000
0000
0010
0000
0100
1000
,  // measure 43
0001
0000
0001
0100
0000
0100
2000
0000
3001
0010
0001
0000
0010
0000
0100
0001
,  // measure 44
1000
0000
1000
0010
0000
0010
0002
0000
1003
0100
1000
0000
0100
0000
0010
1000
,  // measure 45
0001
0000
0001
0010
0000
0010
2000
0000
3001
0100
0001
0000
0100
0000
0020
0000
,  // measure 46
0031
0010
0001
1000
0100
0000
1000
0010
0100
0001
0100
0010
1000
0000
1001
0000
;
