#TITLE:Chair, Your Favorite Streamer!;
#SUBTITLE:;
#ARTIST:Tanuki Dan;
#TITLETRANSLIT:;
#SUBTITLETRANSLIT:;
#ARTISTTRANSLIT:;
#GENRE:Variety;
#CREDIT:;
#BANNER:Chair Your Favorite Streamer!.png;
#BACKGROUND:Chair Your Favorite Streamer!-bg.png;
#LYRICSPATH:;
#CDTITLE:../cdtitle.png;
#MUSIC:Chair Your Favorite Streamer!.ogg;
#OFFSET:2.087000;
#SAMPLESTART:3.639000;
#SAMPLELENGTH:15.000000;
#LASTBEATHINT:1.992833;
#SELECTABLE:YES;
#BPMS:0.000000=110.000000
;
#STOPS:
;
#BGCHANGES:3.875=Chair Your Favorite Streamer!.avi=1.000=0=0=0=StretchNoLoop====,
99999=-nosongbg-=1.000=0=0=0 // don't automatically add -songbackground-
;
#KEYSOUNDS:;
#ATTACKS:;

//---------------dance-single - ----------------
#NOTES:
     dance-single:
     :
     Beginner:
     1:
     0.044104,0.091384,0.000000,0.024698,0.000000,25.000000,25.000000,0.000000,2.000000,0.000000,0.000000,0.044104,0.091384,0.000000,0.024698,0.000000,25.000000,25.000000,0.000000,2.000000,0.000000,0.000000:
0000
0000
0000
0000
,
0000
0000
0000
0000
,
0000
0000
0000
0000
,
0010
0000
0000
0000
,
0000
0000
0000
0000
,
0010
0000
0000
0000
,
0000
0000
0000
0000
,
0100
0000
0000
0000
,
0000
0000
0000
0000
,
0100
0000
0000
0000
,
0001
0000
0001
0000
,
1000
0000
0000
0000
,
0000
0000
0000
0000
,
0001
0000
0000
0000
,
0000
0000
0000
0000
,
0010
0000
0000
0000
,
0000
0000
0000
0000
,
1000
0000
0000
0000
,
0010
0000
0020
0000
,
0030
0000
0000
0000
,
0100
0000
0000
0000
,
0000
0000
0000
0000
,
0100
0000
0000
0000
,
0000
0000
0000
0000
,
0010
0000
0000
0000
,
0000
0000
0000
0000
,
0010
0000
0000
0000
,
0001
0000
0001
0000
,
1000
0000
0000
0000
,
0000
0000
0000
0000
,
0001
0000
0000
0000
,
0000
0000
0000
0000
,
0100
0000
0000
0000
,
0000
0000
0000
0000
,
1000
0000
0000
0000
,
0100
0000
0200
0000
,
0300
0000
0000
0000
,
0010
0000
0000
0000
;

//---------------dance-single - ----------------
#NOTES:
     dance-single:
     :
     Easy:
     4:
     0.165832,0.205614,0.024698,0.246984,0.000000,94.000000,92.000000,2.000000,20.000000,0.000000,0.000000,0.165832,0.205614,0.024698,0.246984,0.000000,94.000000,92.000000,2.000000,20.000000,0.000000,0.000000:
0000
0000
0000
0000
,
0000
0000
0000
0000
,
0000
0000
0000
0000
,
0100
0020
0000
0030
,
0000
0100
0100
0000
,
0000
2000
0000
3000
,
0001
0001
1000
0002
,
0003
0200
0000
0300
,
0010
0000
1000
0100
,
0000
0020
0000
0130
,
0000
0100
0000
0100
,
2000
0001
0000
3001
,
1000
0100
0001
0100
,
0020
0100
0000
0130
,
1000
0001
1000
1000
,
0002
0100
0003
0100
,
0001
0010
0100
0110
,
2000
0001
3000
0001
,
0100
0100
0010
0200
,
0300
0000
0000
0000
,
0010
0200
0000
0300
,
0000
0010
0010
0000
,
0000
2000
0000
3000
,
0001
0001
1000
0002
,
0003
0020
0000
0030
,
0100
0000
1000
0010
,
0000
0200
0000
0310
,
0000
0010
0000
0010
,
2000
0001
0000
3001
,
1000
0010
0001
0010
,
0200
0010
0000
0310
,
1000
0001
1000
1000
,
0002
0010
0003
0010
,
0001
0100
0010
0110
,
2000
0001
3000
0001
,
0010
0010
0100
0020
,
0030
0000
0000
1000
,
0001
0000
0000
0000
;

//---------------dance-single - ----------------
#NOTES:
     dance-single:
     :
     Medium:
     7:
     0.273446,0.319844,0.172889,0.271682,0.000000,155.000000,141.000000,14.000000,22.000000,0.000000,0.000000,0.273446,0.319844,0.172889,0.271682,0.000000,155.000000,141.000000,14.000000,22.000000,0.000000,0.000000:
0000
0000
0000
0000
,
0000
0000
0000
0000
,
0000
0000
0000
0000
,
0001
2100
0000
3001
,
1000
1000
0100
1000
,
0010
0102
0000
1003
,
0100
0100
0010
0002
,
0003
1020
0000
0031
,
0010
0010
1000
0001
,
0000
1200
0000
0301
,
0000
0000
0001
0000
0000
0000
0100
1000
,
0002
0010
1000
0103
,
0010
0000
1000
0000
0100
0000
0010
0100
,
2000
0100
0001
3010
,
0100
0000
0100
0000
0001
0010
0100
0010
,
0002
0000
2000
0000
0003
3000
0010
1000
,
0200
0000
0010
0000
1300
0001
1001
0000
,
1000
1010
0001
0011
,
0001
0100
0001
0000
0001
0010
0100
1000
,
0020
0000
0130
0000
0100
0010
0100
0001
,
1000
0012
0000
1003
,
0001
0001
0010
0001
,
0100
2010
0000
3001
,
0010
0010
0100
2000
,
3000
0201
0000
1300
,
0100
0100
0001
1000
,
0000
0021
0000
1030
,
0000
0000
1000
0000
0000
0000
0010
0001
,
2000
0100
0001
3010
,
0100
0000
0001
0000
0010
0000
0100
0010
,
0002
0010
1000
0103
,
0010
0000
0010
0000
1000
0100
0010
0100
,
2000
0000
0002
0000
3000
0003
0100
0001
,
0020
0000
0100
0000
0031
1000
1001
0000
,
0001
0101
1000
1100
,
1000
0010
1000
0000
1000
0100
0010
0001
,
0200
0000
0310
0000
0010
0100
0010
1000
,
0001
0000
0000
0000
;

//---------------dance-single - ----------------
#NOTES:
     dance-single:
     :
     Hard:
     9:
     0.368711,0.342690,0.172889,0.259333,0.000000,209.000000,195.000000,14.000000,21.000000,0.000000,0.000000,0.368711,0.342690,0.172889,0.259333,0.000000,209.000000,195.000000,14.000000,21.000000,0.000000,0.000000:
0000
0000
0000
0000
,
0000
0000
0000
0000
,
0000
0000
0000
0000
0000
0010
0100
0001
,
1000
0012
1000
0103
,
0001
0100
0001
1000
0100
0010
0100
1000
,
0001
2100
0001
3010
,
0100
0001
0100
0001
0010
0100
0010
0010
,
0001
0102
1000
0013
,
0001
0010
0001
1000
0010
0100
0010
1000
,
0001
0000
2010
0000
0001
0000
3100
1000
,
0001
0000
0100
1000
0001
0100
0010
1000
,
0002
0010
1000
0103
,
0001
1000
0100
0000
1000
0001
0100
0010
,
2000
0100
0001
3100
,
1000
1000
0010
0000
0001
0001
0010
1000
,
0002
0000
0200
0000
0300
0000
0013
1000
,
0020
0000
0031
0000
1000
0001
0110
0000
,
0001
0101
1000
1100
,
0010
0100
0010
0100
1000
0010
0100
0001
,
2000
0000
3010
0000
0010
0100
0010
1000
,
0001
2100
0001
3010
,
1000
0010
1000
0001
0010
0100
0010
0001
,
1000
0012
1000
0103
,
0010
1000
0010
1000
0100
0010
0100
0100
,
1000
2010
0001
3100
,
1000
0100
1000
0000
0001
0100
0020
0000
,
1030
0102
1000
0013
,
0001
0100
0010
0000
1000
0100
0010
0001
,
2000
0100
0001
3100
,
1000
0100
0010
0000
0001
1000
0010
0100
,
0002
0010
1000
0103
,
0001
1000
0100
0000
1000
0010
0100
0001
,
2000
0000
0020
0000
0030
0000
3100
0001
,
0200
0000
1300
0000
0001
1000
0110
0000
,
1000
1010
0001
0011
,
0100
0010
0100
0010
0001
0100
0010
1000
,
0002
0000
0103
0000
0100
0010
0100
0001
,
1000
0000
0000
0000
;

//---------------dance-single - ----------------
#NOTES:
     dance-single:
     :
     Challenge:
     12:
     0.539836,0.525458,0.222285,0.209936,0.382825,306.000000,288.000000,18.000000,17.000000,0.000000,0.000000,0.539836,0.525458,0.222285,0.209936,0.382825,306.000000,288.000000,18.000000,17.000000,0.000000,0.000000:
// measure 0
0000
0000
0000
0000
,  // measure 1
0000
0000
0000
0000
,  // measure 2
0000
0000
0000
0000
0000
0000
0000
0000
0000
0000
0010
0000
1000
0001
1000
0001
,  // measure 3
0010
0000
2100
0000
0001
0000
3100
1000
,  // measure 4
0001
0000
0100
0010
0100
0010
0000
1000
0000
0001
0100
0000
0010
0000
1000
0000
,  // measure 5
0100
0000
0021
0000
1000
0000
0031
1000
,  // measure 6
0100
0010
0100
0010
0100
0000
1000
0001
0000
0100
0000
0010
1000
0100
1000
0100
,  // measure 7
0010
0000
2001
0000
0100
0000
3001
0100
,  // measure 8
0001
0010
0000
0100
0000
1000
0000
0001
0000
0200
0000
0000
0310
0000
1000
0000
,  // measure 9
0001
0000
0000
0000
0102
0000
0000
0000
0013
0000
0100
0000
1000
0100
1000
0100
,  // measure 10
0000
0000
0010
0000
0001
0100
0001
0100
0000
0010
0100
0001
1000
0000
0001
0000
,  // measure 11
2001
0000
3100
1000
0001
0010
0100
1000
,  // measure 12
0001
0000
0010
0000
0100
1000
0000
1000
0010
0000
0100
0001
1000
0000
0001
0000
,  // measure 13
0100
0000
0100
0000
0001
0100
0000
1000
0100
0000
0100
0000
0001
0000
1000
0000
,  // measure 14
0100
0000
1000
0001
1000
0001
0100
0000
0001
0100
0010
0000
1000
0100
1000
0100
,  // measure 15
0010
0000
2100
0000
3001
1000
0010
0001
,  // measure 16
0020
0000
0000
0000
1030
0000
1000
0000
0010
0100
0010
0000
0110
0000
0000
0000
,  // measure 17
1000
0001
0101
0000
0001
1000
1100
0000
,  // measure 18
0010
0000
0010
0000
0001
0000
0001
0000
1000
0100
1000
0000
0001
0100
0010
1000
,  // measure 19
0020
0000
0000
0000
0130
0000
0000
0000
0100
0010
0100
0000
0001
1000
0001
1000
,  // measure 20
0100
0000
0012
0000
1000
0000
0013
0001
,  // measure 21
1000
0000
0010
0100
0010
0000
0100
0000
0001
1000
0010
0000
0100
0000
0001
0000
,  // measure 22
0010
0000
1200
0000
0001
0000
1300
0001
,  // measure 23
0010
0000
0100
0010
0100
0000
0010
0000
0001
0000
1000
0000
0001
0100
0001
1000
,  // measure 24
0010
0000
1002
0000
0013
0001
1000
0010
,  // measure 25
1000
0000
0100
0000
0010
0001
0000
1000
0100
0000
0010
0001
1000
0000
0001
0000
,  // measure 26
0100
0000
2001
0000
3100
1000
0001
0100
,  // measure 27
0001
0000
0010
0000
0100
0000
1000
0000
0010
0100
0010
0000
1000
0001
1000
0000
,  // measure 28
1002
0000
0013
0001
1000
0100
0010
0001
,  // measure 29
1000
0000
0100
0000
0010
0000
0001
0000
0100
0000
0010
1000
0001
0000
1000
0000
,  // measure 30
0010
0010
1000
0010
0001
0010
1000
0001
,  // measure 31
0010
0000
0001
0000
1000
0000
0100
0000
1000
0010
0100
0000
0001
0010
0001
0010
,  // measure 32
0100
0000
0012
0000
1003
0001
0100
1000
,  // measure 33
0200
0000
0000
0000
0301
0000
0001
0000
0100
0010
0100
0000
0110
0000
0100
0000
,  // measure 34
0001
1000
1010
0010
1000
0001
0011
0010
,  // measure 35
0100
0000
0100
0000
1000
0000
1000
0000
0001
0010
0001
0000
1000
0010
0100
0001
,  // measure 36
2000
0000
0000
0000
3010
0000
0000
0000
0010
0100
0010
0000
1000
0001
1000
0001
,  // measure 37
0010
0000
0000
0000
;

//---------------dance-double - ----------------
#NOTES:
     dance-double:
     :
     Easy:
     4:
     0.158775,0.205614,0.024698,0.271682,0.000000,90.000000,88.000000,2.000000,22.000000,0.000000,0.000000,0.158775,0.205614,0.024698,0.271682,0.000000,90.000000,88.000000,2.000000,22.000000,0.000000,0.000000:
00000000
00000000
00000000
00000000
,
00000000
00000000
00000000
00000000
,
00000000
00000000
00000000
00000000
,
01000000
00002000
00000000
00003000
,
00000000
00010000
00010000
00000000
,
00000000
00000200
00000000
00000300
,
00001000
00000010
00000100
00000002
,
00000003
00002000
00000000
00003000
,
00000100
00000000
00010000
00001000
,
00000000
00020000
00000000
01030000
,
00000000
01000000
00000000
10000000
,
00020000
00100000
00000000
00130000
,
00001000
00001000
00010000
00000200
,
00000300
00001000
00000000
00001000
,
00000001
00000100
00000010
00000010
,
00001000
00000200
00000000
00010300
,
00002000
00003000
00100000
01100000
,
20000000
00010000
30000000
00010000
,
01000000
01000000
00001000
00020000
,
00030000
00000000
00000000
00000000
,
00000010
00020000
00000000
00030000
,
00000000
00001000
00001000
00000000
,
00000000
00200000
00000000
00300000
,
00010000
01000000
00100000
20000000
,
30000000
00020000
00000000
00030000
,
00100000
00000000
00001000
00010000
,
00000000
00002000
00000000
00003010
,
00000000
00000010
00000000
00000001
,
00002000
00000100
00000000
00003100
,
00010000
00010000
00001000
00200000
,
00300000
00010000
00000000
00010000
,
10000000
00100000
01000000
01000000
,
00010000
00200000
00000000
00301000
,
00020000
00030000
00000100
00000110
,
00000002
00001000
00000003
00001000
,
00000010
00000010
00010000
00002000
,
00000000
00000000
00003000
01000000
,
00001000
00000000
00000000
00000000
;

//---------------dance-double - ----------------
#NOTES:
     dance-double:
     :
     Medium:
     7:
     0.266390,0.319844,0.172889,0.246984,0.000000,151.000000,137.000000,14.000000,20.000000,0.000000,0.000000,0.266390,0.319844,0.172889,0.246984,0.000000,151.000000,137.000000,14.000000,20.000000,0.000000,0.000000:
00000000
00000000
00000000
00000000
,
00000000
00000000
00000000
00000000
,
00000000
00000000
00000000
00000000
,
01000000
20010000
00000000
31000000
,
00000000
10000000
00010000
01000000
,
00001000
00012000
00000000
00013000
,
00000100
00000100
00001000
00000020
,
00000030
00001002
00000000
00000103
,
00000001
00000001
00001000
00000100
,
00000000
00000120
00000000
00000130
,
00000000
00000000
00000100
00000000
00000000
00000000
00010000
00001000
,
00020000
00001000
00001000
00031000
,
00100000
00000000
00100000
00000000
00010000
01000000
00100000
00000000
,
20000000
00010000
01000000
30010000
,
00100000
00000000
00100000
00000000
01000000
00100000
01000000
00000000
,
10000000
00000000
00020000
00000000
00030000
00000000
00010000
10000000
,
00200000
00000000
01300000
00000000
01000000
00001000
00011000
00000000
,
00100000
00110000
00001000
00011000
,
00010000
00000100
00010000
00000000
00000010
00001000
00000010
00000100
,
00000002
00000000
00000103
00000000
00000100
00000100
00001000
00000100
,
00000010
00001002
00000000
00000013
,
00000000
00000001
00001000
00000010
,
00010000
00021000
00000000
00031000
,
00100000
00100000
00010000
02000000
,
03000000
20010000
00000000
30100000
,
10000000
10000000
00010000
00100000
,
00000000
02100000
00000000
03100000
,
00000000
00000000
00100000
00000000
00000000
00000000
00001000
00010000
,
00002000
00010000
00010000
00013000
,
00000100
00000000
00000100
00000000
00001000
00000010
00000100
00000000
,
00000002
00001000
00000010
00001003
,
00000100
00000000
00000100
00000000
00000010
00000100
00000010
00000000
,
00000001
00000000
00002000
00000000
00003000
00000000
00001000
00000001
,
00000200
00000000
00000310
00000000
00000010
00010000
00011000
00000000
,
00000100
00001100
00010000
00011000
,
00001000
00100000
00001000
00000000
01000000
00010000
01000000
00100000
,
20000000
00000000
30100000
00000000
00100000
00100000
00010000
00001000
,
00010000
00000000
00000000
00000000
;

//---------------dance-double - ----------------
#NOTES:
     dance-double:
     :
     Hard:
     10:
     0.375768,0.342690,0.172889,0.259333,0.000000,213.000000,199.000000,14.000000,21.000000,0.000000,0.000000,0.375768,0.342690,0.172889,0.259333,0.000000,213.000000,199.000000,14.000000,21.000000,0.000000,0.000000:
00000000
00000000
00000000
00000000
,
00000000
00000000
00000000
00000000
,
00000000
00000000
00000000
00000000
00000000
10000000
01000000
00010000
,
00001000
00002010
00000001
00003100
,
00010000
00001000
00010000
00000100
00000010
00000001
00000100
00001000
,
00010000
00120000
10000000
01030000
,
00001000
00010000
00001000
00010000
00100000
10000000
01000000
00010000
,
00001000
00002100
00000001
00003010
,
00010000
00001000
00010000
00000100
00010000
00001000
01000000
00100000
,
10000000
00000000
20010000
00000000
30100000
00000000
10000000
01000000
,
00100000
00000000
01000000
00100000
00010000
00010000
01000000
00001000
,
00020000
00000100
01000000
00031000
,
00100000
00010000
10000000
00000000
00100000
01000000
00010000
00100000
,
00002000
00100000
00000010
00013000
,
00000100
00001000
00000001
00000001
00000100
00000010
00001000
00000100
,
00020000
00000000
02000000
00000000
03000000
00000000
00031000
00100000
,
00002000
00000000
00013000
00000000
01000000
00100000
10010000
00000000
,
01000000
10100000
01000000
00110000
,
00001000
00010000
00000010
00010000
00001000
00001000
01000000
00001000
,
00020000
00000000
00031000
00000000
00001000
00001000
00000010
00001000
,
00010000
01020000
10000000
00130000
,
00001000
00010000
00001000
00100000
01000000
10000000
00100000
00010000
,
00001000
00002100
00000001
00003010
,
00010000
00010000
00001000
00001000
00000100
00000001
00000010
00001000
,
00010000
00120000
10000000
01030000
,
00001000
00010000
00001000
00000000
00010000
00000010
00000200
00000000
,
00000301
00000000
00001002
00000000
00000103
00000001
00000010
00000000
,
00000100
00000100
00000010
00000100
00001000
00001000
00000010
00010000
,
00002000
00100000
00000010
00013000
,
00000100
00001000
00000001
00000000
00000100
00000010
00001000
00000100
,
00020000
00000100
01000000
00031000
,
00100000
00010000
10000000
10000000
00100000
01000000
00010000
00100000
,
00002000
00000000
00000020
00000000
00000030
00000000
00013000
00000100
,
00020000
00000000
00031000
00000000
00000010
00000100
00001001
00000000
,
00000010
00000101
00000010
00001100
,
00010000
00001000
01000000
00001000
00010000
00010000
00000010
00010000
,
00002000
00000000
00013000
00000000
00010000
00010000
01000000
00010000
,
00001000
00000000
00000000
00000000
;

//---------------dance-double - ----------------
#NOTES:
     dance-double:
     :
     Challenge:
     12:
     0.539836,0.525458,0.222285,0.209936,0.382825,306.000000,288.000000,18.000000,17.000000,0.000000,0.000000,0.539836,0.525458,0.222285,0.209936,0.382825,306.000000,288.000000,18.000000,17.000000,0.000000,0.000000:
00000000
00000000
00000000
00000000
,
00000000
00000000
00000000
00000000
,
00000000
00000000
00000000
00000000
00000000
00000000
00000000
00000000
00000000
00000000
01000000
00000000
00010000
00001000
00010000
00001000
,
00010000
00000000
00002100
00000000
00000010
00000000
00013000
01000000
,
00100000
00000000
10000000
01000000
10000000
01000000
00000000
00100000
00000000
01000000
10000000
00000000
00100000
00000000
00010000
00000000
,
00001000
00000000
00120000
00000000
01000000
00000000
00031000
00000010
,
00010000
00001000
00010000
00001000
00010000
00000000
00000100
00010000
00000000
00001000
00000000
00000010
00000100
00000010
00000100
00001000
,
00000001
00000000
00000012
00000000
00001000
00000000
00000103
00000001
,
00001000
00000100
00000000
00001000
00000000
00000010
00000000
00010000
00000000
00002000
00000000
00000000
00103000
00000000
00010000
00000000
,
01000000
00000000
00000000
00000000
20010000
00000000
00000000
00000000
31000000
00000000
00100000
00000000
00010000
01000000
00010000
01000000
,
00000000
00000000
00100000
00000000
10000000
01000000
10000000
01000000
00000000
00100000
00001000
00010000
00001000
00000000
00010000
00000000
,
00021000
00000000
00030100
00000001
00000100
00001000
00000001
00000010
,
00001000
00000000
00010000
00000000
00100000
10000000
00000000
10000000
00010000
00000000
01000000
00100000
10000000
00000000
00010000
00000000
,
00100000
00000000
00100000
00000000
01000000
10000000
00000000
10000000
01000000
00000000
00010000
00000000
00001000
00000000
00010000
00000000
,
00001000
00000000
00000100
00000001
00000100
00000010
00001000
00000000
00000001
00000100
00000001
00000000
00000010
00000100
00000010
00000100
,
00000010
00000000
00002100
00000000
00003010
00000001
00000010
00010000
,
00002000
00000000
00000000
00000000
01003000
00000000
01000000
00000000
00001000
00010000
00001000
00000000
00110000
00000000
00000000
00000000
,
10000000
01000000
01010000
00000000
00001000
00010000
00110000
00000000
,
01000000
00000000
01000000
00000000
00001000
00000000
00001000
00000000
00010000
00001000
00010000
00000000
00000010
00001000
00000010
00000100
,
00000002
00000000
00000000
00000000
00000103
00000000
00000000
00000000
00000100
00000010
00000100
00000000
00001000
00010000
00001000
00010000
,
00001000
00000000
01020000
00000000
00100000
00000000
00031000
00000100
,
00000010
00000000
00000001
00000010
00000001
00000000
00001000
00000000
00000010
00000100
00000010
00000000
00000001
00000000
00000010
00000000
,
00001000
00000000
00020100
00000000
00001000
00000000
00130000
00010000
,
00001000
00000000
01000000
00010000
01000000
00000000
01000000
00000000
00001000
00000000
00001000
00000000
00100000
00010000
00100000
01000000
,
10000000
00000000
10020000
00000000
00130000
10000000
00100000
00010000
,
10000000
00000000
00100000
00000000
00010000
00001000
00000000
00001000
00010000
00000000
00000010
00001000
00000100
00000000
00000010
00000000
,
00000001
00000000
00002001
00000000
00003100
00001000
00000010
00000100
,
00000010
00000000
00010000
00000000
00001000
00000000
00010000
00000000
01000000
00100000
01000000
00000000
10000000
00010000
10000000
00000000
,
10020000
00000000
00130000
00010000
10000000
01000000
00100000
00010000
,
01000000
00000000
00100000
00000000
00010000
00000000
00001000
00000000
00000100
00000000
00000010
00001000
00000100
00000000
00000010
00000000
,
00000001
00001000
00000100
00000010
00000100
00010000
00001000
00100000
,
00001000
00000000
00010000
00000000
01000000
00000000
00010000
00000000
00001000
00010000
00001000
00000000
00100000
01000000
00100000
01000000
,
00100000
00000000
10020000
00000000
01030000
10000000
01000000
00001000
,
00020000
00000000
00000000
00000000
00030010
00000000
00000010
00000000
00010000
00001000
00010000
00000000
00001100
00000000
00001000
00000000
,
00000001
00000010
00001010
00001000
00010000
00001000
00001100
00000100
,
00000010
00000000
00000010
00000000
00010000
00000000
00010000
00000000
00001000
00010000
00001000
00000000
01000000
00010000
01000000
00100000
,
20000000
00000000
00000000
00000000
30100000
00000000
00000000
00000000
00100000
01000000
00100000
00000000
00010000
00001000
00010000
00001000
,
00010000
00000000
00000000
00000000
;
