#VERSION:0.83;
#TITLE:CH4NGE;
#SUBTITLE:(feat. 可不);
#ARTIST:Giga;
#TITLETRANSLIT:;
#SUBTITLETRANSLIT:(feat. KAFU);
#ARTISTTRANSLIT:;
#GENRE:J-Music;
#ORIGIN:;
#CREDIT:;
#BANNER:CH4NGE (feat. KAFU).png;
#BACKGROUND:CH4NGE (feat. KAFU)-bg.png;
#PREVIEWVID:;
#JACKET:CH4NGE (feat. KAFU)-jacket.png;
#CDIMAGE:;
#DISCIMAGE:;
#LYRICSPATH:;
#CDTITLE:../cdtitle.png;
#MUSIC:CH4NGE (feat. KAFU).ogg;
#OFFSET:-0.055000;
#SAMPLESTART:26.663000;
#SAMPLELENGTH:15.000000;
#SELECTABLE:YES;
#BPMS:0.000=115.000;
#STOPS:;
#DELAYS:;
#WARPS:;
#TIMESIGNATURES:0.000=4=4;
#TICKCOUNTS:0.000=4;
#COMBOS:0.000=1;
#SPEEDS:0.000=1.000=0.000=0;
#SCROLLS:0.000=1.000;
#FAKES:;
#LABELS:0.000=Song Start;
#BGCHANGES:-0.125=CH4NGE (feat. KAFU).avi=1.000=0=0=0=StretchNoLoop====,
99999=-nosongbg-=1.000=0=0=0 // don't automatically add -songbackground-
;
#KEYSOUNDS:;
#ATTACKS:
;

//---------------dance-single - ----------------
#NOTEDATA:;
#CHARTNAME:;
#STEPSTYPE:dance-single;
#DESCRIPTION:;
#CHARTSTYLE:;
#DIFFICULTY:Beginner;
#METER:2;
#RADARVALUES:0.080368,0.139348,0.000000,0.074023,0.000000,76.000000,76.000000,0.000000,10.000000,0.000000,0.000000,0.000000,0.000000,0.000000,0.080368,0.139348,0.000000,0.074023,0.000000,76.000000,76.000000,0.000000,10.000000,0.000000,0.000000,0.000000,0.000000,0.000000;
#CREDIT:led_light;
#NOTES:
0000
0000
0000
0000
,
0000
0000
0000
0000
,
0000
0000
0000
0000
,
0000
0000
0000
0000
,
0000
0000
0000
0000
,
0010
0000
0000
0000
,
0010
0000
0000
0000
,
1000
0000
0000
0000
,
0001
0000
0000
0000
,
0100
0000
0100
0000
,
0001
0000
0000
0000
,
0010
0000
0010
0000
,
0100
0000
0000
0000
,
1000
0000
0001
0000
,
1000
0000
0000
0000
,
0010
0000
0100
0000
,
0010
0000
0000
0000
,
0200
0000
0300
0000
,
0020
0000
0030
0000
,
0010
0000
1000
0000
,
0002
0000
0003
0000
,
1000
0000
1000
0000
,
1000
0000
0000
0000
,
0001
0000
0001
0000
,
0001
0000
0000
0000
,
0100
0000
0000
0000
,
0100
0000
0000
0000
,
0010
0000
0000
0000
,
0010
0010
0010
0000
,
1000
0000
0100
0000
,
1000
0000
1000
0000
,
0001
0000
0010
0000
,
0001
0000
0001
0000
,
2000
0000
0000
0000
,
3000
0000
0000
0000
,
0002
0000
0000
0000
,
0003
0000
0000
0000
,
0100
0000
0000
0000
,
0000
0000
0000
0000
,
0100
0000
0000
0000
,
0000
0000
0000
0000
,
0020
0000
0000
0000
,
0030
0000
0000
0000
,
0100
0000
0100
0000
,
0001
0000
0000
0000
,
0010
0000
0010
0000
,
0100
0000
0000
0000
,
1000
0000
0001
0000
,
1000
0000
0000
0000
,
0010
0000
0100
0000
,
0010
0000
0000
0000
,
0200
0000
0300
0000
,
0020
0000
0030
0000
,
0010
0000
1000
0000
,
0002
0000
0003
0000
,
1000
0000
1000
0000
,
1000
0000
0000
0000
,
0001
0000
0001
0000
,
0001
0000
0000
0000
,
0100
0000
0100
0000
,
0100
0000
0000
0000
,
0010
0000
0010
0000
,
0010
0000
0200
0300
;

//---------------dance-single - ----------------
#NOTEDATA:;
#CHARTNAME:;
#STEPSTYPE:dance-single;
#DESCRIPTION:;
#CHARTSTYLE:;
#DIFFICULTY:Easy;
#METER:5;
#RADARVALUES:0.198805,0.256490,0.044414,0.170253,0.000000,188.000000,182.000000,6.000000,23.000000,0.000000,0.000000,0.000000,0.000000,0.000000,0.198805,0.256490,0.044414,0.170253,0.000000,188.000000,182.000000,6.000000,23.000000,0.000000,0.000000,0.000000,0.000000,0.000000;
#CREDIT:led_light;
#NOTES:
0000
0000
0000
0000
,
0000
0000
0000
0000
,
0000
0000
0000
0000
,
0000
0000
0000
0000
,
0000
0000
0000
0000
,
0000
0001
0000
0001
,
0000
0100
0000
0100
,
0000
0010
0000
0010
,
0000
1000
0000
1000
,
0001
0001
1000
1000
,
0100
0010
0100
0100
,
1000
1000
0001
0001
,
0100
0100
0100
0000
,
0001
0010
0001
0001
,
1000
0010
0001
0000
,
0010
1000
0010
0010
,
0100
0001
1000
0000
,
0200
0000
0301
0000
,
0200
0000
1300
0000
,
0010
0000
0010
0100
,
0010
0010
0020
0030
,
1000
1000
0001
0001
,
0010
0200
0300
0110
,
0001
0001
1000
1000
,
0010
0200
0300
0110
,
1000
0001
0100
0100
,
0001
1000
0100
0110
,
0010
0100
1000
1000
,
0001
0001
1000
1001
,
0001
0100
1000
0100
,
0001
0100
2000
3000
,
0001
0010
1000
0010
,
0001
0010
2000
3000
,
0002
0000
0103
0000
,
2000
0000
3100
0000
,
0020
0000
0031
0000
,
0020
0000
1030
0000
,
0002
0000
1003
0000
,
0200
0010
0020
0330
,
0002
0000
0103
0000
,
0020
0000
1030
0000
,
0002
0000
0010
0000
,
0100
0100
0100
0003
,
0001
0001
1000
1000
,
0100
0010
0100
0100
,
1000
1000
0001
0001
,
0100
0100
0100
0000
,
0001
0010
0001
0001
,
1000
0010
0001
0000
,
0010
1000
0010
0010
,
0100
0001
1000
0000
,
0200
0000
0301
0000
,
0200
0000
1300
0000
,
0010
0000
0010
0100
,
0010
0010
0020
0030
,
1000
1000
0001
0001
,
0010
0200
0300
0110
,
0001
0001
1000
1000
,
0010
0200
0300
0110
,
1000
0001
1000
0100
,
1000
0010
0100
0100
,
0001
1000
0001
0100
,
0001
0010
0100
0200
,
0300
0000
0000
0000
;

//---------------dance-single - ----------------
#NOTEDATA:;
#CHARTNAME:;
#STEPSTYPE:dance-single;
#DESCRIPTION:;
#CHARTSTYLE:;
#DIFFICULTY:Medium;
#METER:7;
#RADARVALUES:0.277058,0.326442,0.229472,0.155448,0.000000,262.000000,231.000000,31.000000,21.000000,0.000000,0.000000,0.000000,0.000000,0.000000,0.277058,0.326442,0.229472,0.155448,0.000000,262.000000,231.000000,31.000000,21.000000,0.000000,0.000000,0.000000,0.000000,0.000000;
#CREDIT:led_light;
#NOTES:
0000
0000
0000
0000
,
0000
0000
0000
0000
,
0000
0000
0000
0000
,
0000
0000
0000
0000
,
0000
0000
0000
0000
,
0000
1000
0000
1000
,
0000
0001
0000
0001
,
0100
0100
0020
0030
,
0100
0100
0020
0030
,
1000
1100
1000
0101
,
0001
0011
0100
0100
,
1000
0110
0001
0110
,
0100
0100
0001
0000
,
1000
0100
0001
0000
0100
0000
1000
0000
,
0001
0010
0001
0010
0001
0000
1000
0000
,
0001
0101
1000
0100
,
2000
3000
0001
0011
,
1000
0020
0030
0010
,
0100
0002
0003
0001
,
1000
0000
1000
0000
0100
0010
0100
0000
,
1000
1000
0002
0003
,
1000
1000
0010
0010
,
0001
0001
0100
0110
,
0001
0001
0010
0010
,
1000
1000
0100
0110
,
0001
0000
1000
0000
0001
0010
1000
0000
,
0001
0000
1000
0000
0001
0100
1000
0000
,
0010
0000
0100
0000
0010
1000
0100
0000
,
0010
0000
0110
0000
0010
0001
0100
0000
,
0010
1100
0001
1100
,
0010
1100
0002
0003
,
0100
0011
1000
0011
,
0100
0011
2000
3000
,
0002
0000
0103
0000
,
0010
0000
1000
0100
0010
0000
0001
0000
,
2000
0000
3010
0000
,
0100
0000
0001
0010
0100
0000
1000
0001
,
2000
0000
3100
0000
,
2000
3002
0203
0300
,
0010
0100
0010
0000
0200
0000
0300
0000
,
0010
1000
0001
0000
1000
0000
0001
0000
,
0020
0100
0100
0130
,
0010
0001
0010
0000
0010
0000
0110
0000
,
1000
1100
1000
0101
,
0001
0011
0100
0100
,
1000
0110
0001
0110
,
0100
0100
0001
0000
,
1000
0100
0001
0000
0100
0000
1000
0000
,
0001
0010
0001
0010
0001
0000
1000
0000
,
0001
0101
1000
0100
,
2000
3000
0001
0011
,
1000
0020
0030
0010
,
0100
0002
0003
0001
,
1000
0000
1000
0000
0100
0010
0100
0000
,
1000
1000
0002
0003
,
1000
0100
1000
0000
0010
0100
0010
0000
,
0001
0010
0001
0000
0100
0000
0110
0000
,
0001
0100
0001
0000
0010
0100
0010
0000
,
1000
0100
1000
0000
0100
0100
0010
0000
,
1000
1010
0010
0011
,
0001
0101
0010
0100
,
0001
0011
0010
1010
,
1000
1100
0010
0200
,
0300
0000
0000
0000
;

//---------------dance-double - ----------------
#NOTEDATA:;
#CHARTNAME:;
#STEPSTYPE:dance-double;
#DESCRIPTION:;
#CHARTSTYLE:;
#DIFFICULTY:Easy;
#METER:4;
#RADARVALUES:0.158621,0.233173,0.029609,0.177655,0.000000,150.000000,146.000000,4.000000,24.000000,0.000000,0.000000,0.000000,0.000000,0.000000,0.158621,0.233173,0.029609,0.177655,0.000000,150.000000,146.000000,4.000000,24.000000,0.000000,0.000000,0.000000,0.000000,0.000000;
#CREDIT:led_light;
#NOTES:
// measure 0
00000000
00000000
00000000
00000000
,  // measure 1
00000000
00000000
00000000
00000000
,  // measure 2
00000000
00000000
00000000
00000000
,  // measure 3
00000000
00000000
00000000
00000000
,  // measure 4
00000000
00000000
00000000
00000000
,  // measure 5
00010000
00000000
00000000
00000000
,  // measure 6
00001000
00000000
00000000
00000000
,  // measure 7
00020000
00000000
00030000
00000000
,  // measure 8
00002000
00000000
00003000
00000000
,  // measure 9
00010000
00010000
00001000
00001000
,  // measure 10
00010000
00000100
00001000
00000000
,  // measure 11
00001000
00001000
00000010
00000010
,  // measure 12
00000100
00000000
00000110
00000000
,  // measure 13
00000001
00000100
00000001
00001000
,  // measure 14
00000010
00000010
00000010
00000000
,  // measure 15
00010000
00001000
00100000
00001000
,  // measure 16
00010000
00000000
00010000
00000000
,  // measure 17
00002000
00000000
00013000
00000000
,  // measure 18
00200000
00000000
10300000
00000000
,  // measure 19
00010000
00000000
10000000
00000000
,  // measure 20
02000000
00000000
03000000
00000000
,  // measure 21
10000000
10000000
00010000
00010000
,  // measure 22
10000000
00010000
02000000
03000000
,  // measure 23
00001000
00001000
00010000
00010000
,  // measure 24
00001000
00020000
00030000
00010000
,  // measure 25
00001000
00001000
00000010
00000000
,  // measure 26
00000001
00000001
00000010
00000000
,  // measure 27
00000100
00000100
00000010
00000000
,  // measure 28
00000001
00001000
00000001
00001001
,  // measure 29
00000100
00000000
00001000
00000000
,  // measure 30
00010000
00000000
02000000
03000000
,  // measure 31
00100000
00000000
00010000
00000000
,  // measure 32
00001000
00000000
00000020
00000030
,  // measure 33
00000002
00000000
00000003
00000000
,  // measure 34
00002000
00000000
00003100
00000000
,  // measure 35
00020000
00000000
00030000
00000000
,  // measure 36
00002000
00000000
00013000
00000000
,  // measure 37
02000000
00000000
03000000
00000000
,  // measure 38
20000000
00000000
30000000
00000000
,  // measure 39
00200000
00000000
00300000
00000000
,  // measure 40
00020000
00000000
00030000
00000000
,  // measure 41
00002000
00000000
00000000
00000000
,  // measure 42
00003000
00000000
00000000
00000000
,  // measure 43
00010000
00010000
00001000
00001000
,  // measure 44
00010000
00000100
00001000
00000000
,  // measure 45
00001000
00001000
00000010
00000010
,  // measure 46
00000100
00000000
00000110
00000000
,  // measure 47
00000001
00000100
00000001
00001000
,  // measure 48
00000010
00000010
00000010
00000000
,  // measure 49
00010000
00001000
00100000
00001000
,  // measure 50
00010000
00000000
00010000
00000000
,  // measure 51
00002000
00000000
00013000
00000000
,  // measure 52
00200000
00000000
10300000
00000000
,  // measure 53
00010000
00000000
10000000
00000000
,  // measure 54
02000000
00000000
03000000
00000000
,  // measure 55
10000000
10000000
00010000
00010000
,  // measure 56
10000000
00010000
02000000
03000000
,  // measure 57
00001000
00001000
00010000
00010000
,  // measure 58
00001000
00010000
00000100
00000110
,  // measure 59
00000001
00000001
00001000
00001000
,  // measure 60
00000001
00001000
00000200
00000300
,  // measure 61
00010000
00010000
00001000
00001000
,  // measure 62
00010000
00001000
01000000
02000000
,  // measure 63
03000000
00000000
00000000
00000000
;

//---------------dance-double - ----------------
#NOTEDATA:;
#CHARTNAME:;
#STEPSTYPE:dance-double;
#DESCRIPTION:;
#CHARTSTYLE:;
#DIFFICULTY:Medium;
#METER:7;
#RADARVALUES:0.262253,0.326442,0.111035,0.155448,0.000000,248.000000,233.000000,15.000000,21.000000,0.000000,0.000000,0.000000,0.000000,0.000000,0.262253,0.326442,0.111035,0.155448,0.000000,248.000000,233.000000,15.000000,21.000000,0.000000,0.000000,0.000000,0.000000,0.000000;
#CREDIT:led_light;
#NOTES:
00000000
00000000
00000000
00000000
,
00000000
00000000
00000000
00000000
,
00000000
00000000
00000000
00000000
,
00000000
00000000
00000000
00000000
,
00000000
00000000
00000000
00000000
,
00000000
10000000
00000000
10000000
,
00000000
01000000
00000000
01000000
,
00010000
00010000
00002000
00003000
,
00000100
00000100
00000002
00000003
,
00001000
00001000
00000001
00000001
,
00000100
00000010
00001000
00011000
,
00010000
00010000
10000000
10000000
,
01000000
00100000
01000000
00000000
,
10000000
00100000
10000000
00000000
01000000
00000000
00100000
00000000
,
00001000
00010000
00001000
00010000
00001000
00000000
00010000
00000000
,
00000100
00001100
00010000
00000010
,
00002000
00003000
00000001
00001001
,
00000001
00000020
00000030
00000010
,
00000100
00020000
00030000
00010000
,
00001000
00000000
01000000
00000000
00001000
00010000
00001000
00000000
,
00100000
00100000
00020000
00030000
,
10000000
10000000
00100000
00100000
,
00010000
00010000
00000100
00000110
,
00000001
00000001
00000010
00000010
,
00001000
00001000
00010000
00011000
,
00010000
00000000
00001000
00000000
00000010
00001000
00000010
00000000
,
00001000
00010000
00100000
01100000
,
00100000
00000000
10000000
00000000
00010000
00100000
01000000
00000000
,
10000000
11000000
00100000
00110000
,
00001000
00001000
00010000
00010000
,
00001000
00010000
00000200
00000300
,
00001000
00001000
00000001
00000001
,
00001000
00000001
00000200
00000300
,
00002000
00000000
01003000
00000000
,
00001000
00000000
00010000
00001000
00010000
00000000
00000000
00000000
,
00020000
00000000
00031000
00000000
,
00000100
00000000
00001000
00010000
00001000
00000000
00001000
01000000
,
00020000
00000000
00130000
00000000
,
02000000
23000000
30020000
00030000
,
10000000
01000000
10000000
00000000
00200000
00000000
00300000
00000000
,
00010000
00001000
00010000
00000000
00000010
00000000
00001000
00000000
,
00000002
00000100
00000100
00000103
,
00000100
00000010
00000100
00000000
00000100
00000000
00000110
00000000
,
00001000
00001000
00000001
00000001
,
00000100
00000010
00001000
00011000
,
00010000
00010000
10000000
10000000
,
01000000
00100000
01000000
00000000
,
10000000
00100000
10000000
00000000
01000000
00000000
00100000
00000000
,
00001000
00010000
00001000
00010000
00001000
00000000
00010000
00000000
,
00000100
00001100
00010000
00000010
,
00002000
00003000
00000001
00001001
,
00000001
00000020
00000030
00000010
,
00000100
00020000
00030000
00010000
,
00001000
00000000
01000000
00000000
00001000
00010000
00001000
00000000
,
00100000
00100000
00020000
00030000
,
10000000
01000000
10000000
00000000
00100000
01000000
00100000
00000000
,
00010000
00001000
00010000
00000000
00000100
00000000
00000110
00000000
,
00000001
00000010
00000001
00000000
00000100
00000010
00000100
00000000
,
00001000
00010000
00001000
00000000
00010000
00000000
01100000
00000000
,
10000000
01000000
00100000
00000000
00010000
01000000
00100000
00000000
,
01000000
00001000
00010000
00000000
00000100
00000000
00000110
00000000
,
00000001
00000100
00000010
00000000
00001000
00000100
00000010
00000000
,
00000100
00010000
00001000
00000000
01000000
00000000
00000200
00000000
,
00000300
00000000
00000000
00000000
;

//---------------dance-single - ----------------
#NOTEDATA:;
#CHARTNAME:;
#STEPSTYPE:dance-single;
#DESCRIPTION:;
#CHARTSTYLE:;
#DIFFICULTY:Challenge;
#METER:13;
#RADARVALUES:0.490667,0.582932,0.384920,0.207265,0.251678,464.000000,412.000000,52.000000,28.000000,0.000000,0.000000,0.000000,0.000000,0.000000,0.490667,0.582932,0.384920,0.207265,0.251678,464.000000,412.000000,52.000000,28.000000,0.000000,0.000000,0.000000,0.000000,0.000000;
#CREDIT:led_light;
#NOTES:
0000
0000
0000
0000
,
0000
0000
0000
0000
,
0000
0000
0000
0000
,
0000
0000
0000
0000
,
0000
0000
0000
0000
,
0000
0001
0000
0001
,
0000
0100
0000
0100
,
0010
0000
0000
0000
0000
0010
0000
0000
0000
1000
0000
0000
0002
0000
0000
0000
0000
0000
0003
0000
0000
0100
0000
0000
,
0001
0010
0100
0010
0002
0000
1003
0000
,
1000
0000
0100
0000
0010
0001
0000
0000
0001
0000
0100
0000
0010
1000
0000
0000
,
1000
0000
0100
0000
0010
0001
0000
0000
1000
0100
0000
0000
1000
0100
0000
0000
,
1000
0000
0010
0000
0100
0001
0000
0000
0001
0000
0010
0000
0100
1000
0000
0000
,
0100
0010
0000
0000
0100
1000
0000
0000
0001
0000
0000
0000
0000
0000
0000
0000
,
0001
0000
0000
1000
0000
0000
0100
0000
0000
1000
0000
0000
0001
0000
0000
0100
0000
0000
0110
0000
0000
0010
0000
1000
,
0100
0110
0110
0110
1001
1000
0100
1000
,
1100
0001
0100
0010
0110
0001
0100
0001
,
0010
0000
0000
0200
0000
0000
0301
0000
0000
0100
0000
0000
0010
0000
0000
0100
0000
0000
1000
0000
0100
1000
0000
0000
,
0001
0000
0000
0000
0000
0011
0000
0000
0000
0110
0000
0000
0100
0000
0000
0010
0000
0000
0001
0000
0100
0010
0000
0000
,
1000
0000
0000
0000
0000
1010
0000
0000
0000
0110
0000
0000
0010
0000
0000
1000
0000
0000
0100
0000
0010
0001
0000
0000
,
1000
0100
0101
0100
1000
0001
0101
0100
,
0010
0000
0000
0000
0000
0110
0000
0000
0000
0001
0000
0000
1000
0000
0000
2200
0000
0000
0000
0000
0000
3300
0000
0000
,
1000
0100
1100
1000
0001
0100
0101
0001
,
0010
0000
0001
0000
0011
0000
0001
0000
1000
0200
0000
0300
1000
0200
0000
0300
,
0010
0001
0011
0001
1000
0010
1010
0010
,
0100
0001
0101
0001
1000
0200
0300
0100
,
0001
0000
0000
0100
0000
0000
1000
0000
0000
0100
0000
0000
0010
0000
0000
0001
0000
0100
0000
0000
0010
0100
0000
0010
,
0100
0000
0000
0001
0000
0000
1000
0000
0100
1000
0000
0100
1000
0000
0000
0010
0000
1000
0000
0000
0010
0000
0000
0100
,
0001
0000
0000
1000
0000
0000
0100
0000
0010
0100
0000
0010
0100
0000
0000
1000
0000
0001
0100
0000
0000
0001
0000
0000
,
0101
0000
0000
0100
0000
0000
0110
0000
1000
0100
0000
0000
0101
0000
0000
0100
0000
0010
0100
0000
0000
0010
0000
0000
,
1000
0000
0000
0000
0000
0100
0010
0000
0000
0000
0000
0100
1000
0000
0000
0000
0000
0001
0100
0000
0000
0000
0000
0010
,
0001
0000
0000
0000
0000
0010
1000
0000
0000
0000
0000
0001
0020
0000
0000
0000
0000
0000
0130
0000
0000
0000
0000
0000
,
0001
0000
0000
0000
0000
0100
0010
0000
0000
0000
0000
0100
0001
0000
0000
0000
0000
0100
1000
0000
0000
0000
0000
0001
,
0100
0000
0000
0000
0000
0010
0100
0000
0000
0000
0000
0001
2000
0000
0000
0000
0000
0000
3100
0000
0000
1000
0000
0000
,
0002
0003
1000
0000
,
1000
0010
0001
0010
2000
0000
3001
0000
,
0200
0300
0001
0000
,
1000
0100
0001
0100
1000
0000
0001
1000
,
0002
0000
0103
0100
,
0020
2030
3002
0103
,
0001
0010
0100
0010
0002
0000
0003
1000
,
0100
0010
0100
1000
0001
0000
1000
0000
,
0002
0100
0100
0100
,
0103
0010
0100
0000
0100
0000
0110
0000
,
1000
0000
0100
0000
0010
0001
0000
0000
0001
0000
0100
0000
0010
1000
0000
0000
,
1000
0000
0100
0000
0010
0001
0000
0000
1000
0100
0000
0000
1000
0100
0000
0000
,
1000
0000
0010
0000
0100
0001
0000
0000
0001
0000
0010
0000
0100
1000
0000
0000
,
0100
0010
0000
0000
0100
1000
0000
0000
0001
0000
0000
0000
0000
0000
0000
0000
,
0001
0000
0000
1000
0000
0000
0100
0000
0000
1000
0000
0000
0001
0000
0000
0100
0000
0000
0110
0000
0000
0010
0000
1000
,
0100
0110
0110
0110
1001
1000
0100
1000
,
1100
0001
0100
0010
0110
0001
0100
0001
,
0010
0000
0000
0200
0000
0000
0301
0000
0000
0100
0000
0000
0010
0000
0000
0100
0000
0000
1000
0000
0100
1000
0000
0000
,
0001
0000
0000
0000
0000
0011
0000
0000
0000
0110
0000
0000
0100
0000
0000
0010
0000
0000
0001
0000
0100
0010
0000
0000
,
1000
0000
0000
0000
0000
1010
0000
0000
0000
0110
0000
0000
0010
0000
0000
1000
0000
0000
0100
0000
0010
0001
0000
0000
,
1000
0100
0101
0100
1000
0001
0101
0100
,
0010
0000
0000
0000
0000
0110
0000
0000
0000
0001
0000
0000
1000
0000
0000
2200
0000
0000
0000
0000
0000
3300
0000
0000
,
1000
0001
0011
0001
1000
0010
0110
0010
,
1000
0000
0001
0000
0101
0000
0001
0000
0010
0200
0000
0300
0001
0200
0000
0300
,
1000
0001
0011
0001
1000
0010
0110
0010
,
1000
0000
0001
0000
0101
0000
0001
0000
1000
0100
1000
0100
1000
0000
0001
0000
,
1000
0100
1100
1000
0001
0100
0101
0001
,
0010
0000
0001
0000
0011
0000
0001
0000
1000
0200
0000
0300
1000
0200
0000
0300
,
0010
0001
0011
0001
1000
0010
1010
0010
,
0100
0000
0001
0000
0101
0000
0001
0000
0010
0200
0000
0300
0001
0200
0000
0000
,
0300
0000
0000
0000
;

//---------------dance-single - ----------------
#NOTEDATA:;
#CHARTNAME:;
#STEPSTYPE:dance-single;
#DESCRIPTION:;
#CHARTSTYLE:;
#DIFFICULTY:Hard;
#METER:9;
#RADARVALUES:0.336276,0.373076,0.103632,0.148046,0.022207,318.000000,304.000000,14.000000,20.000000,0.000000,0.000000,0.000000,0.000000,0.000000,0.336276,0.373076,0.103632,0.148046,0.022207,318.000000,304.000000,14.000000,20.000000,0.000000,0.000000,0.000000,0.000000,0.000000;
#CREDIT:led_light;
#NOTES:
0000
0000
0000
0000
,
0000
0000
0000
0000
,
0000
0000
0000
0000
,
0000
0000
0000
0000
,
0000
0000
0000
0000
,
0000
0001
0000
0001
,
0000
0010
0000
0010
,
0100
0000
1000
0001
2000
0000
3000
0000
,
0100
1000
0001
0000
0200
0000
0300
0000
,
0001
0100
0010
0000
1000
0100
0010
0000
,
0001
1000
0010
0000
0100
0000
0110
0000
,
0001
0100
0010
0000
1000
0100
0001
0000
,
0100
0010
0100
0000
,
1000
0010
0001
0010
1000
0000
0001
0010
,
0100
1000
0100
1000
0001
0000
1000
0100
,
0010
0000
0100
1000
0001
0000
1000
0010
,
0100
0010
0001
0010
0100
0010
1000
0000
,
0002
0000
0013
0001
0100
0000
0110
0000
,
2000
0000
3010
1000
0100
0000
0110
0000
,
1000
0000
0001
0100
1000
0100
0001
0000
,
0010
0000
0100
1000
0002
0000
0003
0000
,
1000
0100
0010
0000
0001
0100
0010
0000
,
1000
0100
0001
0000
0100
0000
0110
0000
,
0001
0100
0010
0000
1000
0100
0010
0000
,
0001
0100
1000
0000
0100
0000
0110
0000
,
0001
0100
0001
0010
0100
0100
1000
0000
,
0001
0010
0001
0100
0010
0010
1000
0000
,
0001
0010
1000
0010
0001
0001
1000
0000
,
0001
0001
0011
0000
1000
0000
1100
0000
,
0001
0000
0000
0000
0000
0100
0001
0000
0000
0000
0000
0000
1000
0000
0000
0000
0000
0100
1000
0000
0000
0000
0000
0000
,
0010
0000
0000
0000
0000
1000
0010
0000
0000
0000
0000
0000
0200
0000
0000
0000
0000
0000
0300
0000
0000
0000
0000
0000
,
0001
0000
0000
0000
0000
0010
0001
0000
0000
0000
0000
0000
1000
0000
0000
0000
0000
0010
1000
0000
0000
0000
0000
0000
,
0100
0000
0000
0000
0000
1000
0100
0000
0000
0000
0000
0000
0020
0000
0000
0000
0000
0000
0030
0000
0000
0001
0000
0000
,
2000
0000
3100
0000
,
1000
0001
0100
0000
0020
0000
0030
1000
,
0002
0000
0103
0000
,
0001
0010
1000
0010
0001
0000
1000
0001
,
2000
0000
3100
0100
,
0020
0000
0032
0000
2003
0000
3000
0001
,
0100
1000
0100
0001
2000
0000
3000
0010
,
0100
0010
1000
0100
0010
0000
0001
0000
,
2000
0100
0100
3100
,
1000
0010
0100
0000
0001
0000
1001
0000
,
1000
0100
0010
0000
0001
0100
0010
0000
,
1000
0001
0010
0000
0100
0000
0110
0000
,
1000
0100
0010
0000
0001
0100
1000
0000
,
0100
0010
0100
0000
,
0001
0010
1000
0010
0001
0000
1000
0010
,
0100
0001
0100
0001
1000
0000
0001
0100
,
0010
0000
0100
0001
1000
0000
0001
0010
,
0100
0010
1000
0010
0100
0010
0001
0000
,
2000
0000
3010
1000
0100
0000
0110
0000
,
0002
0000
0013
0001
0100
0000
0110
0000
,
0001
0000
1000
0100
0001
0100
1000
0000
,
0010
0000
0100
0001
2000
0000
3000
0000
,
0001
0100
0001
0000
1000
0100
1000
0000
,
0010
0100
0010
0000
0100
0000
0110
0000
,
1000
0100
1000
0000
0001
0100
0001
0000
,
0010
0100
0010
0000
0100
0100
1000
0000
,
0001
0100
0010
0000
1000
0100
0010
0000
,
0001
0100
1000
0000
0100
0000
0110
0000
,
1000
0100
0010
0000
0001
0100
0010
0000
,
1000
0100
0001
0000
0100
0000
1200
0000
,
0300
0000
0000
0000
;

//---------------dance-double - ----------------
#NOTEDATA:;
#CHARTNAME:;
#STEPSTYPE:dance-double;
#DESCRIPTION:;
#CHARTSTYLE:;
#DIFFICULTY:Challenge;
#METER:13;
#RADARVALUES:0.485380,0.582932,0.370115,0.207265,0.244276,459.000000,409.000000,50.000000,28.000000,0.000000,0.000000,0.000000,0.000000,0.000000,0.485380,0.582932,0.370115,0.207265,0.244276,459.000000,409.000000,50.000000,28.000000,0.000000,0.000000,0.000000,0.000000,0.000000;
#CREDIT:led_light;
#NOTES:
00000000
00000000
00000000
00000000
,
00000000
00000000
00000000
00000000
,
00000000
00000000
00000000
00000000
,
00000000
00000000
00000000
00000000
,
00000000
00000000
00000000
00000000
,
00000000
00100000
00000000
00100000
,
00000000
00000010
00000000
00000010
,
00010000
00000000
00000000
00000000
00000000
00010000
00000000
00000000
00000000
00000100
00000000
00000000
00002000
00000000
00000000
00000000
00000000
00000000
00003000
00000000
00000000
00000001
00000000
00000000
,
00000100
00000001
00000010
00000100
00002000
00000000
00003001
00000000
,
00001000
00000000
00000100
00000000
00000010
00000001
00000000
00000000
00000001
00000000
00000100
00000000
00000010
00001000
00000000
00000000
,
00001000
00000000
00000100
00000000
00010000
00001000
00000000
00000000
00100000
00010000
00000000
00000000
10000000
00010000
00000000
00000000
,
10000000
00000000
01000000
00000000
00100000
00010000
00000000
00000000
00010000
00000000
00100000
00000000
01000000
10000000
00000000
00000000
,
00100000
01000000
00000000
00000000
00010000
01000000
00000000
00000000
00001000
00000000
00000000
00000000
00000000
00000000
00000000
00000000
,
00010000
00000000
00000000
00000100
00000000
00000000
00000010
00000000
00000000
00000100
00000000
00000000
00010000
00000000
00000000
00001000
00000000
00000000
00011000
00000000
00000000
00000010
00000000
00001000
,
00000001
00000100
00000110
00000010
00001010
00010000
00001000
00100000
,
00110000
00001000
00010000
00000010
00001010
00010000
00001000
00100000
,
00010000
20000000
31000000
10000000
00100000
10000000
01000000
00100000
,
00010000
00000000
00000000
00000000
00000000
00011000
00000000
00000000
00000000
00001100
00000000
00000000
00000100
00000000
00000000
00000010
00000000
00000000
00000001
00000000
00000100
00000010
00000000
00000000
,
00001000
00000000
00000000
00000000
00000000
00011000
00000000
00000000
00000000
01010000
00000000
00000000
01000000
00000000
00000000
00100000
00000000
00000000
10000000
00000000
01000000
00100000
00000000
00000000
,
00010000
10000000
11000000
10000000
00100000
01000000
01100000
00010000
,
00001000
00000000
00000000
00000000
00000000
00001100
00000000
00000000
00000000
00000110
00000000
00000000
00000001
00000000
00000000
00000202
00000000
00000000
00000000
00000000
00000000
00000303
00000000
00000000
,
00001000
00000010
00001010
00010000
00001000
00100000
00110000
00001000
,
00010000
00000000
00000010
00000000
00001010
00000000
00000001
00000000
00000010
00000200
00000000
00000300
00010000
00000200
00000000
00000300
,
00001000
00000010
00001010
00010000
00001000
00100000
00110000
00001000
,
00010000
00000010
00001010
00010000
00001000
00200000
00300000
00100000
,
00010000
00000000
00000000
00001000
00000000
00000000
00010000
00000000
00000000
00100000
00000000
00000000
00001000
00000000
00000000
00010000
00000000
00000100
00000000
00000000
00001000
00000010
00000000
00001000
,
00000010
00000000
00000000
00000100
00000000
00000000
00000001
00000000
00001000
00000001
00000000
00001000
00000001
00000000
00000000
00000100
00000000
00000010
00000000
00000000
00000100
00000000
00000000
00000001
,
00000010
00000000
00000000
00000100
00000000
00000000
00001000
00000000
00000100
00001000
00000000
00000100
00001000
00000000
00000000
00000001
00000000
00000100
00001000
00000000
00000000
00010000
00000000
00000000
,
00011000
00000000
00000000
00100000
00000000
00000000
00110000
00000000
00001000
00010000
00000000
00000000
00001100
00000000
00000000
00010000
00000000
00001000
00010000
00000000
00000000
00001000
00000000
00000000
,
01000000
00000000
00000000
00000000
00000000
00010000
00100000
00000000
00000000
00000000
00000000
01000000
10000000
00000000
00000000
00000000
00000000
00010000
01000000
00000000
00000000
00000000
00000000
00100000
,
00010000
00000000
00000000
00000000
00000000
00001000
00010000
00000000
00000000
00000000
00000000
00000100
00002000
00000000
00000000
00000000
00000000
00000000
00003001
00000000
00000000
00000100
00000000
00000000
,
00000010
00000000
00000000
00000000
00000000
00001000
00000100
00000000
00000000
00000000
00000000
00000010
00000001
00000000
00000000
00000000
00000000
00001000
00000010
00000000
00000000
00000000
00000000
00000100
,
00001000
00000000
00000000
00000000
00000000
00010000
00001000
00000000
00000000
00000000
00000000
00100000
00020000
00000000
00000000
00000000
00000000
00000000
10030000
00000000
00000000
00100000
00000000
00000000
,
00020000
00030000
00001000
00000000
,
01000000
00001000
00010000
00001000
00000020
00000000
00000030
00000000
,
00002000
00003000
00010000
00000000
,
00000100
00010000
00001000
00010000
00100000
00000000
10000000
00010000
,
20000000
00000000
31000000
01000000
,
00200000
00302000
00023000
00030000
,
00001000
00010000
00100000
00010000
00002000
00000000
00003000
00010000
,
00001000
00000010
00001000
00010000
00001000
00000000
00000100
00000000
,
00000002
00000100
00000100
00000100
,
00000013
00000100
00001000
00000000
00001000
00000000
00001001
00000000
,
00001000
00000000
00000100
00000000
00000010
00000001
00000000
00000000
00000001
00000000
00000100
00000000
00000010
00001000
00000000
00000000
,
00001000
00000000
00000100
00000000
00010000
00001000
00000000
00000000
00100000
00010000
00000000
00000000
10000000
00010000
00000000
00000000
,
10000000
00000000
01000000
00000000
00100000
00010000
00000000
00000000
00010000
00000000
00100000
00000000
01000000
10000000
00000000
00000000
,
00100000
01000000
00000000
00000000
00010000
01000000
00000000
00000000
00001000
00000000
00000000
00000000
00000000
00000000
00000000
00000000
,
00010000
00000000
00000000
00000100
00000000
00000000
00000010
00000000
00000000
00000100
00000000
00000000
00010000
00000000
00000000
00001000
00000000
00000000
00011000
00000000
00000000
00000010
00000000
00001000
,
00000001
00000100
00000110
00000010
00001010
00010000
00001000
00100000
,
00110000
00001000
00010000
00000010
00001010
00010000
00001000
00100000
,
00010000
20000000
31000000
10000000
00100000
10000000
01000000
00100000
,
00010000
00000000
00000000
00000000
00000000
00011000
00000000
00000000
00000000
00001100
00000000
00000000
00000100
00000000
00000000
00000010
00000000
00000000
00000001
00000000
00000100
00000010
00000000
00000000
,
00001000
00000000
00000000
00000000
00000000
00011000
00000000
00000000
00000000
01010000
00000000
00000000
01000000
00000000
00000000
00100000
00000000
00000000
10000000
00000000
01000000
00100000
00000000
00000000
,
00010000
10000000
11000000
10000000
00100000
01000000
01100000
00010000
,
00001000
00000000
00000000
00000000
00000000
00001100
00000000
00000000
00000000
00000110
00000000
00000000
00000001
00000000
00000000
00000202
00000000
00000000
00000000
00000000
00000000
00000303
00000000
00000000
,
00001000
00000100
00011000
01000000
00010000
10000000
11000000
00010000
,
01000000
00000000
00001000
00000000
00011000
00000000
00000010
00000000
00001000
00000200
00000000
00000300
00000001
00000200
00000000
00000300
,
00001000
00000010
00011000
00100000
00010000
10000000
10100000
00010000
,
00100000
00000000
00001000
00000000
00011000
00000000
00000100
00000000
00000010
00000100
00000010
00000100
00000010
00000000
00000001
00000000
,
00001000
00000010
00001010
00010000
00001000
00100000
00110000
00001000
,
00010000
00000000
00000010
00000000
00001010
00000000
00000001
00000000
00000010
00000200
00000000
00000300
00010000
00000200
00000000
00000300
,
00001000
00000010
00001010
00010000
00001000
00100000
00110000
00001000
,
00010000
00000000
00000010
00000000
00001010
00000000
00000001
00000000
00010000
00000200
00000000
00000300
00001000
02000000
00000000
00000000
,
03000000
00000000
00000000
00000000
;

//---------------dance-double - ----------------
#NOTEDATA:;
#CHARTNAME:;
#STEPSTYPE:dance-double;
#DESCRIPTION:;
#CHARTSTYLE:;
#DIFFICULTY:Hard;
#METER:9;
#RADARVALUES:0.324644,0.373076,0.103632,0.118437,0.000000,307.000000,293.000000,14.000000,16.000000,0.000000,0.000000,0.000000,0.000000,0.000000,0.324644,0.373076,0.103632,0.118437,0.000000,307.000000,293.000000,14.000000,16.000000,0.000000,0.000000,0.000000,0.000000,0.000000;
#CREDIT:led_light;
#NOTES:
00000000
00000000
00000000
00000000
,
00000000
00000000
00000000
00000000
,
00000000
00000000
00000000
00000000
,
00000000
00000000
00000000
00000000
,
00000000
00000000
00000000
00000000
,
00000000
10000000
00000000
10000000
,
00000000
00010000
00000000
00010000
,
00001000
00000000
00001000
00000001
00002000
00000000
00003000
00000000
,
00000001
00000100
00000010
00000000
00002000
00000000
00003000
00000000
,
00000100
00010000
00001000
00000000
01000000
00001000
00010000
00000000
,
00001000
00100000
00010000
00000000
10000000
00000000
11000000
00000000
,
00100000
00010000
01000000
00000000
00010000
10000000
00100000
00000000
,
01000000
00001000
00010000
00000000
,
00001000
00010000
01000000
00010000
00001000
00000000
00010000
00001000
,
00000100
00000010
00000100
00000010
00000100
00000000
00000001
00001000
,
00000100
00000000
00001000
00000010
00010000
00000000
00001000
00100000
,
00010000
00100000
01000000
00100000
10000000
00100000
00010000
00000000
,
10000000
00000000
01000000
00010000
00001000
00000000
00011000
00000000
,
00010000
00000000
00001000
00000100
00000001
00000000
00001001
00000000
,
00000001
00000000
00001000
00000000
00000100
00001000
00000010
00000000
,
00010000
00000000
00001000
00010000
00002000
00000000
00003000
00000000
,
00010000
01000000
00100000
00000000
01000000
10000000
00010000
00000000
,
01000000
00001000
00010000
00000000
00000100
00000000
00000110
00000000
,
00001000
00000010
00000100
00000000
00000010
00000001
00001000
00000000
,
00000010
00010000
00001000
00000000
01000000
00000000
01100000
00000000
,
10000000
01000000
00010000
01000000
10000000
01000000
00010000
00000000
,
00001000
00000100
00000001
00000100
00001000
00000100
00000001
00000000
,
00000010
00001000
00010000
00001000
00000010
00001000
00010000
00000000
,
00100000
00010000
00001000
00000000
00010000
00000000
01100000
00000000
,
10000000
00010000
00001000
00010000
,
10000000
00010000
00002000
00003000
,
00010000
00001000
00000001
00001000
,
00010000
00001000
00000002
00000003
,
00002000
00000000
00003100
00000000
,
00010000
00001000
00010000
00000000
00002000
00000000
00003000
00100000
,
00020000
00000000
01030000
00000000
,
00001000
00010000
00001000
00000000
00010000
00000000
00000100
00001000
,
00000002
00000000
00000103
00000100
,
00000020
00000000
00020030
00000000
00032000
00000000
00003000
01000000
,
00001000
00010000
01000000
00010000
00002000
00000000
00003000
00100000
,
00001000
00010000
00100000
00010000
00001000
00000000
00010000
00000000
,
00000020
00000100
00000100
00000100
,
00000130
00001000
00010000
00000000
00010000
00000000
00011000
00000000
,
00000100
00010000
00001000
00000000
01000000
00001000
00010000
00000000
,
00001000
00100000
00010000
00000000
10000000
00000000
11000000
00000000
,
00100000
00010000
01000000
00000000
00010000
10000000
00100000
00000000
,
01000000
00001000
00010000
00000000
,
00001000
00010000
01000000
00010000
00001000
00000000
00010000
00001000
,
00000100
00000010
00000100
00000010
00000100
00000000
00000001
00001000
,
00000100
00000000
00001000
00000010
00010000
00000000
00001000
00100000
,
00010000
00100000
01000000
00100000
10000000
00100000
00010000
00000000
,
10000000
00000000
01000000
00010000
00001000
00000000
00011000
00000000
,
00010000
00000000
00001000
00000100
00000001
00000000
00001001
00000000
,
00000001
00000000
00001000
00000000
00000100
00001000
00000010
00000000
,
00010000
00000000
00001000
00010000
00002000
00000000
00003000
00000000
,
00010000
01000000
00010000
00000000
01000000
10000000
01000000
00000000
,
10000000
00100000
10000000
00000000
01000000
00000000
01010000
00000000
,
00001000
00000100
00001000
00000000
00000100
00000001
00000100
00000000
,
00000001
00000010
00000001
00000000
00000100
00000000
00011000
00000000
,
00010000
01000000
00100000
00000000
01000000
10000000
00010000
00000000
,
01000000
00001000
00010000
00000000
00000100
00000000
00000110
00000000
,
00001000
00000010
00000100
00000000
00000010
00000001
00001000
00000000
,
00000010
00010000
00001000
00000000
01000000
00000000
02100000
00000000
,
03000000
00000000
00000000
00000000
;
