#TITLE:C△NDY;
#SUBTITLE:;
#ARTIST:Maria Marionette;
#TITLETRANSLIT:CANDY;
#SUBTITLETRANSLIT:;
#ARTISTTRANSLIT:;
#GENRE:にじさんじ;
#CREDIT:;
#BANNER:CANDY.png;
#BACKGROUND:CANDY-bg.png;
#LYRICSPATH:;
#CDTITLE:../cdtitle.png;
#MUSIC:CANDY.ogg;
#OFFSET:0.881000;
#SAMPLESTART:60.993000;
#SAMPLELENGTH:15.000000;
#SELECTABLE:YES;
#BPMS:0.000000=128.000000
;
#STOPS:
;
#BGCHANGES:2.000=CANDY.avi=1.000=0=0=0=StretchNoLoop====,
99999=-nosongbg-=1.000=0=0=0 // don't automatically add -songbackground-
;
#KEYSOUNDS:;
#ATTACKS:;

//---------------dance-single - ----------------
#NOTES:
     dance-single:
     :
     Beginner:
     2:
     0.074428,0.130248,0.000000,0.074428,0.000000,49.000000,49.000000,0.000000,7.000000,0.000000,0.000000,0.074428,0.130248,0.000000,0.074428,0.000000,49.000000,49.000000,0.000000,7.000000,0.000000,0.000000:
0000
0000
0000
0000
,
0000
0000
0000
0000
,
0000
0000
0000
0000
,
0000
0000
0000
0000
,
0000
0000
0000
0000
,
0000
0000
0000
0000
,
0000
0000
0000
0000
,
0000
0000
0000
0000
,
0000
0000
0000
0000
,
0001
0000
0000
0000
,
0001
0000
0000
0000
,
1000
0000
0000
0000
,
0000
0000
0000
0000
,
1000
0000
0000
0000
,
1000
0000
0000
0000
,
0001
0000
0000
0000
,
0000
0000
0000
0000
,
0020
0000
0030
0000
,
0010
0000
0000
0000
,
0100
0000
0100
0000
,
0100
0000
0000
0000
,
0200
0000
0300
0000
,
0100
0000
0000
0000
,
0010
0000
0010
0000
,
0020
0000
0000
0030
,
0010
0000
0000
0000
,
0010
0000
0000
0000
,
0001
0000
0000
0000
,
0001
0000
0000
0000
,
1000
0000
0000
0000
,
1000
0000
0000
0000
,
0020
0000
0000
0000
,
0030
0000
0000
0000
,
1000
0000
0001
0000
,
1000
0000
0000
0000
,
0100
0000
0000
0000
,
0010
0000
0000
0000
,
0001
0000
1000
0000
,
0001
0000
0000
0000
,
0010
0000
0200
0000
,
0300
0000
0100
0000
,
1000
0000
1000
0000
,
0001
0001
0000
0000
,
0100
0000
0100
0000
,
0020
0000
0030
0000
,
0001
0000
0001
0000
,
1000
1000
0000
0000
,
0100
0000
0100
0000
,
0020
0000
0030
0000
,
0100
0000
0000
0000
;

//---------------dance-single - ----------------
#NOTES:
     dance-single:
     :
     Easy:
     5:
     0.221764,0.291664,0.106325,0.127590,0.000000,146.000000,136.000000,10.000000,12.000000,0.000000,0.000000,0.221764,0.291664,0.106325,0.127590,0.000000,146.000000,136.000000,10.000000,12.000000,0.000000,0.000000:
0000
0000
0000
0000
,
0000
0000
0000
0000
,
0000
0000
0000
0000
,
0000
0000
0000
0000
,
0000
0000
0000
0000
,
1001
0000
0001
0100
,
0100
0000
0001
1000
,
0100
0000
0010
0100
,
0100
0000
1000
0001
,
1100
0100
0100
1000
,
0001
0100
0010
0220
,
0330
1000
0001
0010
,
0100
0100
1000
0002
,
0003
0010
0010
0001
,
1000
0010
0100
0110
,
0000
0001
1000
0100
,
0010
0010
0002
0003
,
2000
0000
3001
0000
,
1000
0100
0001
0000
,
0100
0000
0100
0000
,
1000
0001
1000
0000
,
0002
0000
1003
0000
,
0001
0010
1000
0000
,
0010
0000
0100
0000
,
0020
0000
0000
0030
,
0110
0000
0100
0000
,
1000
1000
0100
1000
,
0010
0000
0010
0000
,
0100
0100
0010
0100
,
0001
0000
0001
0000
,
0010
0010
0001
0010
,
0200
0000
0010
0000
,
0310
0000
0000
0000
,
1001
0100
0001
0100
,
1000
0100
0010
0001
,
1000
0100
0001
0010
,
2000
3000
0002
0003
,
1000
0100
0001
0100
,
1000
0100
0010
0001
,
1000
0001
2000
0000
,
3000
0000
1000
0001
,
1000
1000
0100
1000
,
0001
0011
0000
0001
,
1000
1000
0100
1000
,
0010
0110
0000
0100
,
0001
0001
0010
0001
,
1000
1100
0000
1000
,
0001
0001
0010
0001
,
0100
0110
0000
0010
,
1000
0000
0000
0000
0200
0000
0000
0300
;

//---------------dance-single - ----------------
#NOTES:
     dance-single:
     :
     Medium:
     7:
     0.291635,0.318178,0.106325,0.095693,0.010633,192.000000,182.000000,10.000000,9.000000,0.000000,0.000000,0.291635,0.318178,0.106325,0.095693,0.010633,192.000000,182.000000,10.000000,9.000000,0.000000,0.000000:
0000
0000
0000
0000
,
0000
0000
0000
0000
,
0000
0000
0000
0000
,
0000
0000
0000
0000
,
0000
0000
0000
0000
,
0110
0000
0000
0000
0000
0000
0000
0000
1000
0000
0000
1000
0000
0000
0001
0000
,
0000
0001
1000
0001
,
0100
0000
0000
0000
0000
0000
0000
0000
0010
0000
0000
0010
0000
0000
1000
0000
,
0000
0001
0010
0001
,
1000
0100
0001
0100
,
1000
0001
0100
0000
0010
0000
1010
0000
,
0000
0001
1000
1000
,
0200
0000
0310
0000
0001
1000
0001
0000
,
0000
1000
0100
0100
,
1000
0000
0010
0000
0100
0001
0100
0001
,
0000
0001
1000
0001
,
0010
0100
1000
0000
0002
0000
0003
0000
,
2000
0100
0000
3100
,
1000
0001
0100
0000
0001
0000
0000
0000
,
1000
1000
0001
0001
,
1000
0100
0010
0000
0001
0000
1000
0000
,
0002
0100
0000
0103
,
0001
1000
0100
0000
1000
0000
0000
0000
,
0010
0000
0010
0000
0100
0000
0001
2000
,
0000
0100
0010
3001
,
1000
0000
1000
0000
0001
0010
0001
0000
,
0100
0010
1000
1001
,
0001
0000
0001
0000
1000
0100
1000
0000
,
0010
0100
0001
1001
,
0100
0000
0100
0000
0010
1000
0010
0000
,
0001
0010
1000
0110
,
0002
1000
0010
0100
,
2003
0000
0000
3001
,
1001
0100
1000
1000
,
0001
0000
0010
0000
1000
0010
0001
0000
,
1000
0000
1000
0000
0010
0100
0010
0000
,
0100
0100
0001
1001
,
0001
0010
0001
0001
,
1000
0000
0100
0000
0001
0100
1000
0000
,
0010
0000
0010
0000
1000
0001
0200
0000
,
0300
0000
0100
0000
0010
0100
0010
0000
,
1000
0100
0001
0100
,
1000
0100
0001
0000
0000
0000
0001
0000
,
1000
0010
0001
0010
,
1000
0010
0001
0000
0000
0000
0110
0000
,
1000
1000
0001
0001
,
1000
0100
0010
0000
0000
0000
0110
0000
,
0001
0001
1000
1000
,
0001
0100
0010
0000
0000
0000
0110
0000
,
0001
0000
0000
0000
2000
0000
0000
3100
;

//---------------dance-single - ----------------
#NOTES:
     dance-single:
     :
     Hard:
     13:
     0.545297,0.689387,0.212651,0.329608,0.377455,359.000000,339.000000,20.000000,31.000000,0.000000,0.000000,0.545297,0.689387,0.212651,0.329608,0.377455,359.000000,339.000000,20.000000,31.000000,0.000000,0.000000:
0000
0000
0000
0000
,
0000
0000
0000
0000
,
0000
0000
0000
0000
,
0000
0000
0000
0000
,
0000
0000
0000
0000
,
0011
0000
0000
0000
1000
0000
0001
0000
0100
0000
0000
0100
0000
0000
0010
0000
,
1000
0100
0010
0100
1000
0001
0010
0001
,
1000
0000
0000
0000
0001
0000
0100
0000
0010
0000
0000
0010
0000
0000
1000
0000
,
0002
0000
0003
0001
0100
0000
0001
0000
1000
0000
0100
0000
0010
0000
0001
0000
,
1001
0000
0001
0000
0010
0000
0100
2000
0000
0000
3001
0000
0100
0000
1000
0000
,
0100
0001
0100
0001
1000
0010
0120
0000
,
1030
0001
0010
0200
0000
0301
0100
0020
,
0031
1000
0010
0001
0010
0100
0020
0030
,
1001
1000
0100
0020
0000
0031
0100
0001
,
1000
0100
0010
1000
0010
0010
0001
1000
,
0001
0000
1000
0000
0100
0000
0010
0000
0100
0000
1000
0002
0000
0003
0001
0000
,
0010
0000
0100
2000
0000
0000
3001
0000
1002
0000
0000
0000
0013
0000
0000
0000
,
1200
0000
0001
0000
1300
0001
0010
0001
,
0100
0010
0001
0010
1000
0001
0020
0000
,
0130
1100
0100
0101
,
1000
0001
0100
0010
1000
0001
1000
0100
,
0020
0000
1000
0000
0031
1000
0100
1000
,
0010
0100
1000
0100
0001
0010
0100
0010
,
0001
0000
0101
0000
1000
0000
1100
2000
,
0001
0100
0010
3001
,
1000
0000
0010
0000
0200
0000
0000
0301
0000
1000
0010
0000
0100
0000
0001
0000
,
1000
0100
0000
0100
0000
0010
0000
0100
0000
1000
0001
0000
0010
0000
0100
0000
,
0010
0000
0001
0000
0200
0000
0000
0301
0000
1000
0001
0000
0100
0000
0001
1000
,
0001
0010
0000
0100
0000
1000
0001
0000
1000
0100
0010
0000
0001
0100
0010
0000
,
1000
0000
0100
0000
0020
0000
0000
0031
0000
1000
0100
0000
0010
0000
0001
0000
,
1000
0010
0000
0010
0000
0100
0000
0010
0000
1000
0001
0000
0100
0000
0010
0000
,
1000
0100
1000
0100
0010
0001
0010
0001
1000
0100
0010
0001
1000
0010
0100
0001
,
2000
0000
3200
0000
0310
0100
1001
0000
,
0021
0000
0000
0000
1030
0000
0010
0000
0001
0000
1000
0010
0000
0000
0100
0000
,
1000
0000
0100
0000
0010
0000
0100
0000
1000
0000
0100
0010
0000
0010
0100
0000
,
0002
0000
0103
0001
1000
0100
0020
0100
,
0130
1000
0001
1000
0100
1000
0010
0000
,
1020
0000
0000
0000
0031
0000
0010
0000
1000
0000
0001
0010
0000
0000
0100
0000
,
0001
0000
0100
0000
0010
0000
0100
0000
0001
0000
0100
0010
0000
0010
0100
0000
,
2000
0000
0000
0000
3100
0000
1000
0000
0001
0000
0000
0220
0000
0000
0000
0000
,
0330
0000
0000
0000
1000
0000
0001
0000
0100
0000
0010
2000
0000
3000
1000
0000
,
0001
0000
0010
0000
1000
0000
0001
0100
0000
0100
0000
0100
1000
0000
0001
0000
,
0100
0010
0000
0110
0000
0100
0001
0000
1000
0100
1000
0100
1000
0000
0001
0000
,
0100
0000
0010
0000
1000
0000
0001
0010
0000
0010
0000
0100
0010
0000
0001
0000
,
1000
0010
0000
0100
0000
0000
0110
0000
0000
0000
2002
0000
0000
0000
3003
0000
,
1000
0000
0100
0000
0001
0000
1000
0010
0000
0010
0000
0010
0001
0000
1000
0000
,
0010
0100
0000
0110
0000
0010
1000
0000
0001
0010
0001
0010
0001
0000
1000
0000
,
0010
0000
0100
0000
0001
0000
1000
0100
0000
0100
0000
0010
0100
0000
1000
0000
,
0001
0100
0000
0010
0000
0000
0110
0000
0000
0000
2002
0000
0000
0000
3003
0000
,
0100
0000
0000
0000
0000
0000
0010
0000
0100
0000
0000
1000
0000
0000
0001
0000
;

//---------------dance-single - ----------------
#NOTES:
     dance-single:
     :
     Challenge:
     10:
     0.411631,0.424238,0.244548,0.116958,0.069111,271.000000,248.000000,23.000000,11.000000,52.000000,0.000000,0.411631,0.424238,0.244548,0.116958,0.069111,271.000000,248.000000,23.000000,11.000000,52.000000,0.000000:
0000
0000
0000
0000
,
0000
0000
0000
0000
,
0000
0000
0000
0000
,
0000
0000
0000
0000
,
0000
0000
0000
0000
,
1100
0000
0000
0000
0000
0000
1000
0000
0010
0000
0000
0010
0000
0000
0100
0000
,
0001
0000
1000
0000
0001
0100
1000
0000
,
0101
0000
0000
0000
0000
0000
0001
0000
0010
0000
0000
0010
0000
0000
0100
0000
,
1000
0000
1000
0001
0010
0100
0010
0000
,
1001
0000
0001
0000
1000
0100
1000
0000
,
0010
0100
0010
0100
0001
1000
MMMM
0000
,
1000
0000
0100
0000
0001
0100
1000
0000
,
0001
0100
1000
0100
0001
0100
0010
0000
,
MMMM
0000
0001
0000
0100
0010
0100
0000
,
0001
0010
1000
0010
0001
0010
0100
1000
,
MMMM
0000
1000
0000
0010
0000
0100
0000
0001
0000
0000
0001
0000
0000
1000
0000
,
0100
0000
0000
0100
0000
0000
0010
0000
0002
0000
0003
0000
MMMM
0000
0000
0000
,
1020
0000
0100
0000
1030
0001
0010
0100
,
1000
0100
0010
0001
MMMM
0001
0100
0010
,
1000
1100
0001
0101
,
1000
0100
1000
0010
1000
0000
MMMM
0000
,
0021
0000
0100
0000
0031
1000
0010
0100
,
0001
0100
0010
1000
MMMM
1000
0100
0010
,
0001
0000
0101
0000
1000
0000
1100
0020
,
1000
0001
0130
MMMM
,
1000
0100
0010
0000
0001
0010
0001
0000
,
1000
0010
0100
0010
1000
0010
0100
0000
,
0001
0010
0100
0000
1000
0100
1000
0000
,
0001
0100
0010
0100
0001
0100
0010
0000
,
1000
1000
0100
0000
0001
0001
0100
0000
,
1000
0010
0100
0010
0001
0010
1000
0000
,
1000
0100
0010
0001
1000
0010
0100
0001
,
0020
1000
0031
MMMM
,
1100
0000
0101
0000
1000
0100
0001
0000
,
1000
0010
0001
0010
1000
0000
0110
0000
,
1000
0000
0001
0000
1000
0100
0010
0002
,
0000
0013
0100
1000
0001
0000
MMMM
0000
,
1010
0000
0011
0000
1000
0010
0001
0000
,
1000
0100
0001
0100
1000
0000
0110
0000
,
1000
0000
0000
0000
0001
0000
0100
0000
0010
0000
0000
0200
0000
0000
0000
0000
,
0300
0000
0000
0000
0001
0000
1000
0000
0100
0000
0000
0010
0000
0000
0001
0000
,
1000
0000
0010
0000
0100
0000
0000
0001
0000
0000
0001
0000
1000
0000
0010
0000
,
1000
0100
0010
0000
MMMM
0000
1100
0000
,
0001
0000
0010
0000
0100
0000
0000
1000
0000
0000
1000
0000
0001
0000
0100
0000
,
0010
0000
0000
0101
0000
0000
1100
0000
0000
0000
0220
0000
0000
0000
0330
0000
,
0001
0000
0100
0000
0010
0000
0000
1000
0000
0000
1000
0000
0001
0000
0100
0000
,
0001
0010
0100
0000
MMMM
0000
0011
0000
,
1000
0000
0100
0000
0010
0000
0000
0001
0000
0000
0001
0000
1000
0000
0010
0000
,
0100
0000
0000
1010
0000
0000
0011
0000
0000
0000
0220
0000
0000
0000
0330
0000
,
0010
0000
0000
0000
0000
0000
0000
0000
MMMM
0000
0000
1000
0000
0000
0001
0000
;

//---------------dance-double - ----------------
#NOTES:
     dance-double:
     :
     Easy:
     5:
     0.218726,0.291664,0.085060,0.106325,0.000000,144.000000,136.000000,8.000000,10.000000,0.000000,0.000000,0.218726,0.291664,0.085060,0.106325,0.000000,144.000000,136.000000,8.000000,10.000000,0.000000,0.000000:
00000000
00000000
00000000
00000000
,
00000000
00000000
00000000
00000000
,
00000000
00000000
00000000
00000000
,
00000000
00000000
00000000
00000000
,
00000000
00000000
00000000
00000000
,
10000000
00000000
01000000
01000000
,
00100000
00000000
00010000
00010000
,
00001000
00000000
00000100
00000100
,
00000010
00000000
00000001
00000001
,
00001001
00000010
00000100
00000010
,
00000100
00001000
00010000
00011000
,
00000000
00100000
00010000
01000000
,
00100000
00100000
10000000
00010000
,
00000000
00100000
01000000
00100000
,
01000000
00010000
00001000
00011000
,
00000000
00000010
00001000
00000100
,
00000010
00000010
00000002
00000003
,
00002000
00000000
00003001
00000000
,
00001000
00001000
00000010
00000000
,
00010000
00000000
00010000
00000000
,
00001000
00010000
01000000
00000000
,
20000000
00000000
30010000
00000000
,
10000000
10000000
00100000
00000000
,
01000000
00000000
01000000
00000000
,
00002000
00000000
00000000
00003000
,
00010000
00000000
00010000
00000000
,
00001000
00001000
00010000
00001000
,
00000010
00000000
00000010
00000000
,
00000100
00000100
00000010
00000100
,
00001000
00000000
00001000
00000000
,
00010000
00010000
00001000
00010000
,
00200000
00000000
01000000
00000000
,
02300000
00000000
00000000
03000000
,
10010000
01000000
00100000
10000000
,
00010000
00100000
00010000
00010000
,
01000000
00001000
00010000
00000100
,
00020000
00030000
00002000
00003000
,
00010000
00000010
00000100
00000001
,
00001000
00000100
00001000
00001000
,
00000010
00010000
00002000
00000000
,
00003000
00000000
00100000
00010000
,
10000000
01000000
00010000
01000000
,
10000000
11000000
00000000
00010000
,
01000000
00010000
00001000
00010000
,
01000000
00011000
00000000
00000100
,
00000001
00000010
00001000
00000010
,
00000001
00000011
00000000
00001000
,
00000010
00001000
00010000
00001000
,
00000010
00011000
00000000
00100000
,
10000000
00000000
00000000
00000000
02000000
00000000
00000000
03000000
;

//---------------dance-double - ----------------
#NOTES:
     dance-double:
     :
     Medium:
     7:
     0.294673,0.318178,0.127590,0.106325,0.010633,194.000000,182.000000,12.000000,10.000000,0.000000,0.000000,0.294673,0.318178,0.127590,0.106325,0.010633,194.000000,182.000000,12.000000,10.000000,0.000000,0.000000:
00000000
00000000
00000000
00000000
,
00000000
00000000
00000000
00000000
,
00000000
00000000
00000000
00000000
,
00000000
00000000
00000000
00000000
,
00000000
00000000
00000000
00000000
,
00110000
00000000
00000000
00000000
00000000
00000000
00000000
00000000
01000000
00000000
00000000
01000000
00000000
00000000
00001000
00000000
,
00000000
00010000
00001000
00010000
,
00000100
00000000
00000000
00000000
00000000
00000000
00000000
00000000
00000010
00000000
00000000
00000010
00000000
00000000
00000001
00000000
,
00000000
00001000
00000001
00001000
,
00001001
00000001
00000100
00000001
,
00000100
00000000
00001000
00010000
00001000
00000000
00011000
00000000
,
00000000
00010000
01000000
10000000
,
00200000
00000000
10300000
00000000
01000000
00100000
00010000
00000000
,
00000000
10000000
01000000
10000000
,
01000000
00000000
00010000
00000000
00001000
00010000
00001000
00010000
,
00000000
00001000
00000100
00000001
,
00000010
00000100
00000010
00000000
00000200
00000000
00000300
00000000
,
00020000
00001000
00000000
00031000
,
01000000
00001000
00100000
00000000
00010000
00000000
00000000
00000000
,
10000000
10000000
00010000
00010000
,
10000000
00010000
01000000
00000000
00100000
00000000
00010000
00000000
,
00002000
00010000
00000000
00013000
,
00000010
00010000
00000100
00000000
00001000
00000000
00000000
00000000
,
00000001
00000000
00000001
00000000
00001000
00000000
00001000
00000020
,
00000000
00000100
00001000
00010030
,
00001000
00000000
00001000
00000000
00010000
00001000
00010000
00000000
,
00001000
00000010
00000001
00001001
,
00000001
00000000
00000001
00000000
00001000
00000100
00001000
00000000
,
00000001
00000100
00001000
00011000
,
00010000
00000000
00010000
00000000
00001000
00010000
00001000
00000000
,
00010000
01000000
10000000
10010000
,
00020000
00100000
10000000
01030000
,
00002000
00000000
00000000
00013000
,
00011000
00001000
00010000
00010000
,
00001000
00000000
00000010
00000000
00000001
00000010
00000001
00000000
,
00001000
00000000
00001000
00000000
00000010
00000100
00000010
00002000
,
00003000
00000100
00010000
00001000
,
00011000
00010000
00001000
00001000
,
00010000
00000000
00100000
00000000
10000000
00100000
10000000
00000000
,
00010000
00000000
00010000
00000000
00100000
01000000
00200000
00000000
,
00300000
00000000
00010000
00000000
00100000
00001000
00010000
00000000
,
00001000
00001000
00010000
00010000
,
00001000
01000000
00100000
00000000
00000000
00000000
01100000
00000000
,
10000000
10000000
00010000
00010000
,
00100000
00001000
00000010
00000000
00000000
00000000
00001100
00000000
,
00010000
00010000
00001000
00001000
,
00010000
00000010
00000100
00000000
00000000
00000000
00000110
00000000
,
00000001
00000001
00001000
00001000
,
00000100
00010000
01000000
00000000
00000000
00000000
00110000
00000000
,
10000000
00000000
00000000
00000000
00020000
00000000
00000000
01030000
;

//---------------dance-double - ----------------
#NOTES:
     dance-double:
     :
     Hard:
     13:
     0.534664,0.583327,0.287078,0.297711,0.334925,352.000000,325.000000,27.000000,28.000000,0.000000,0.000000,0.534664,0.583327,0.287078,0.297711,0.334925,352.000000,325.000000,27.000000,28.000000,0.000000,0.000000:
// measure 0
00000000
00000000
00000000
00000000
,  // measure 1
00000000
00000000
00000000
00000000
,  // measure 2
00000000
00000000
00000000
00000000
,  // measure 3
00000000
00000000
00000000
00000000
,  // measure 4
00000000
00000000
00000000
00000000
,  // measure 5
00000011
00000000
00000000
00000000
00001000
00000000
00000100
00000000
00010000
00000000
00000000
00010000
00000000
00000000
00001000
00000000
,  // measure 6
00010000
00000010
00010000
00001000
00100000
00010000
10000000
00100000
,  // measure 7
10000000
00000000
00000000
00000000
00010000
00000000
01000000
00000000
00100000
00000000
00000000
00100000
00000000
00000000
10000000
00000000
,  // measure 8
00020000
00000000
00030000
00010000
00100000
00000000
00001000
00000000
01000000
00000000
00010000
00000000
00100000
01000000
00000000
00000000
,  // measure 9
11000000
00000000
01000000
00000000
00010000
00000000
00010000
00002000
00000000
00003000
00001000
00000000
00010000
00000000
00000100
00000000
,  // measure 10
00000010
00000001
00000010
00000001
00001000
00000010
00000120
00000000
,  // measure 11
00001030
00000100
00010000
00002000
00000000
00013000
00000100
00000020
,  // measure 12
00001030
00000010
00000001
00000010
00001000
00010000
00002000
00003000
,  // measure 13
00011000
00010000
00001000
00002000
00000000
00013000
00001000
00010000
,  // measure 14
00100000
10000000
01000000
00010000
01000000
01000000
10000000
00010000
,  // measure 15
10000000
00000000
01000000
00000000
10000000
00000000
00010000
00000000
01000000
00000000
00100000
02000000
00000000
00000000
03010000
00000000
,  // measure 16
00100000
00000000
00100000
00002000
00000000
00000000
00013000
00000000
00000200
00000000
00000000
00000000
00010300
00000000
00000000
00000000
,  // measure 17
00001020
00000000
00000100
00000000
00001030
00000001
00000010
00000001
,  // measure 18
00001000
00000100
00000010
00000100
00010000
00001000
00010000
00100000
,  // measure 19
10000000
10100000
00010000
00110000
,  // measure 20
10000000
01000000
10000000
00010000
01000000
00100000
10000000
00010000
,  // measure 21
02000000
00000000
00100000
00000000
03010000
10000000
01000000
10000000
,  // measure 22
00010000
00100000
01000000
00100000
00001000
00010000
00001000
00000100
,  // measure 23
00000001
00000000
00000101
00000000
00001000
00000000
00001100
00020000
,  // measure 24
00000010
00001000
01000000
00031000
,  // measure 25
00010000
00000000
00100000
00000000
02000000
00000000
00000000
03001000
00000000
00010000
00001000
00000000
00010000
00000000
01000000
00000000
,  // measure 26
00100000
01000000
00000000
01000000
00000000
10000000
00000000
00010000
00000000
10000000
01000000
00000000
00100000
00000000
00010000
00000000
,  // measure 27
10000000
00000000
00100000
00000000
00020000
00000000
00000000
00130000
00000000
10000000
00100000
00000000
01000000
00000000
00010000
01000000
,  // measure 28
00001000
00010000
00000000
00001000
00000000
00010000
00001000
00000000
00010000
00000100
00000010
00000000
00000001
00000000
00000100
00000000
,  // measure 29
00001000
00000000
00000100
00000000
00000020
00000000
00000000
00010030
00000000
00001000
00010000
00000000
00001000
00000000
00000010
00000000
,  // measure 30
00000100
00000010
00000000
00000010
00000000
00000001
00000000
00001000
00000000
00000001
00000010
00000000
00000100
00000000
00001000
00000000
,  // measure 31
00000001
00000100
00000010
00000000
00000100
00000010
00001000
00000000
00000100
00010000
00001000
00000000
00010000
00001000
00100000
00000000
,  // measure 32
02000000
03200000
01300000
10010000
,  // measure 33
00110000
00000000
00000000
00000000
10100000
00000000
10000000
00000000
00010000
00000000
00100000
01000000
00000000
00000000
10000000
00000000
,  // measure 34
01000000
00000000
00010000
00000000
01000000
00000000
00010000
00000000
00001000
00000000
00000100
00000010
00000000
00000010
00000100
00000000
,  // measure 35
00000002
00000000
00001003
00000100
00010000
00000010
00001000
00000002
,  // measure 36
00000000
00000013
00001000
00000010
00000001
00001000
00000001
00000000
,  // measure 37
00001100
00000000
00000000
00000000
00000101
00000000
00000001
00000000
00001000
00000000
00000100
00000010
00000000
00000000
00000001
00000000
,  // measure 38
00000010
00000000
00001000
00000000
00000010
00000000
00001000
00000000
00010000
00000000
00100000
01000000
00000000
01000000
00100000
00000000
,  // measure 39
20000000
00000000
00000000
00000000
30010000
00000000
00100000
00000000
00001000
00000000
00000000
00022000
00000000
00000000
00000000
00000000
,  // measure 40
00033000
00000000
00000000
00000000
00001000
00000000
00010000
00000000
00000100
00000000
00010000
00002000
00000000
00000000
00003010
00000000
,  // measure 41
00000001
00000000
00000001
00000000
00001000
00000000
00000001
00000010
00000000
00000001
00000000
00001010
00000000
00000000
00010000
00000000
,  // measure 42
00001000
00010000
00000000
00110000
00000000
00000000
00001000
00000000
00100000
00010000
10000000
00000000
00100000
00000000
10000000
00000000
,  // measure 43
01000000
00000000
00010000
00000000
01000000
00000000
10000000
01000000
00000000
10000000
00000000
01100000
00000000
00000000
00010000
00000000
,  // measure 44
10000000
00100000
00000000
01100000
00000000
00000000
00110000
00000000
00000000
00000000
20200000
00000000
00000000
00000000
30300000
00000000
,  // measure 45
10000000
00000000
10000000
00000000
00010000
00000000
10000000
01000000
00000000
10000000
00000000
01010000
00000000
00000000
00001000
00000000
,  // measure 46
00010000
00001000
00000000
00001100
00000000
00000000
00010000
00000000
00000100
00001000
00000001
00000000
00000100
00000000
00000001
00000000
,  // measure 47
00000010
00000000
00001000
00000000
00000010
00000000
00000001
00000010
00000000
00000001
00000000
00000110
00000000
00000000
00001000
00000000
,  // measure 48
00000001
00000100
00000000
00000110
00000000
00000000
00001100
00000000
00000000
00000000
00000202
00000000
00000000
00000000
00000303
00000000
,  // measure 49
00001000
00000000
00000000
00000000
00000000
00000000
00000100
00000000
00010000
00000000
00000000
01000000
00000000
00000000
10000000
00000000
;

//---------------dance-double - ----------------
#NOTES:
     dance-double:
     :
     Challenge:
     11:
     0.434415,0.424238,0.276446,0.116958,0.111642,286.000000,260.000000,26.000000,11.000000,80.000000,0.000000,0.434415,0.424238,0.276446,0.116958,0.111642,286.000000,260.000000,26.000000,11.000000,80.000000,0.000000:
00000000
00000000
00000000
00000000
,
00000000
00000000
00000000
00000000
,
00000000
00000000
00000000
00000000
,
00000000
00000000
00000000
00000000
,
00000000
00000000
00000000
00000000
,
00110000
00000000
00000000
00000000
00000000
00000000
10000000
00000000
00010000
00000000
00000000
00010000
00000000
00000000
01000000
00000000
,
00001000
00000000
00001000
00000000
00010000
00010000
00000100
00000000
,
00000110
00000000
00000000
00000000
00000000
00000000
00000001
00000000
00001000
00000000
00000000
00001000
00000000
00000000
00000100
00000000
,
00010000
00000000
00010000
00001000
00000100
00000000
00000001
00000000
,
00001001
00000000
00000001
00000000
00001000
00000100
00001000
00000000
,
00000010
00001000
00000010
00010000
00100000
00010000
MMMM1000
00000000
,
01000000
00000000
01000000
00000000
00010000
10000000
01000000
00000000
,
00010000
00001000
00010000
00001000
00000010
00001000
0001MMMM
00000000
,
10010000
00000000
00010000
00000000
10000000
01000000
10000000
00000000
,
00010000
00100000
00010000
10000000
00100000
10000000
01000000
00010000
,
MMMM1000
00000000
00000010
00000000
00001000
00000000
00000010
00000000
00000100
00000000
00000000
00001000
00000000
00000000
00001000
00000000
,
00000001
00000000
00000000
00000100
00000000
00000000
00000100
00000000
00002000
00000000
00000000
00000000
00013000
00000000
MMMMMMMM
00000000
,
10200000
00000000
01000000
00000000
10300000
00010000
00100000
01000000
,
10000000
01000000
00100000
00010000
MMMM1000
00000100
00000010
00000001
,
00001000
00001100
00010000
00011000
,
00000010
00001000
00000100
00010000
00001000
00000000
MMMMMMMM
00000000
,
00000021
00000000
00000100
00000000
00000031
00001000
00000010
00000100
,
00000001
00000100
00000010
00001000
0001MMMM
01000000
00100000
10000000
,
00010000
00000000
01010000
00000000
00001000
00000000
00011000
00200000
,
01000000
00010000
00001000
0031MMMM
,
10000000
01000000
00010000
00000000
00001000
00010000
00001000
00000000
,
01000000
00001000
00010000
00001000
00100000
00001000
0001MMMM
00000000
,
00001000
00000100
00000001
00000000
00001000
00000100
00001000
00000000
,
00000010
00010000
00001000
00010000
00000100
00010000
MMMM1000
00000000
,
00010000
01000000
10000000
00000000
00010000
01000000
00010000
00000000
,
00100000
00001000
00010000
00001000
01000000
00001000
0001MMMM
00000000
,
00000100
00000010
00001000
00010000
00000010
00000100
00001000
00010000
,
00200000
00010000
10300000
0110MMMM
,
00011000
00000000
MMMM1001
00000000
00001000
00000100
00000010
00000000
,
00000001
00000100
00000010
00001000
00000001
00000000
00000011
00000000
,
00000100
00000000
00000100
00000000
00010000
00001000
00010000
00000020
,
00000030
00000010
00001000
00000001
00000010
00000000
MMMM0110
00000000
,
00011000
00000000
1001MMMM
00000000
00010000
00100000
01000000
00000000
,
10000000
00100000
01000000
00010000
10000000
00000000
11000000
00000000
,
00100000
00000000
00000000
00000000
00100000
00000000
01000000
00000000
10000000
00000000
00000000
00020000
00000000
00000000
00000000
00000000
,
00030000
00000000
00000000
00000000
01000000
00000000
00001000
00000000
00010000
00000000
00000000
00000010
00000000
00000000
00001000
00000000
,
00000001
00000000
00000010
00000000
00000100
00000000
00000000
00001000
00000000
00001000
00000000
00000001
00000000
00000000
00000010
00000000
,
00000001
00000100
00001000
00000000
0001MMMM
00000000
01100000
00000000
,
00010000
00000000
10000000
00000000
01000000
00000000
00000000
00100000
00000000
00100000
00000000
00010000
00000000
00000000
10000000
00000000
,
00010000
00000000
00000000
00110000
00000000
00000000
00011000
00000000
00000000
00000000
02002000
00000000
00000000
00000000
03003000
00000000
,
10000000
00000000
01000000
00000000
00100000
00000000
00000000
00010000
00000000
00010000
00000000
10000000
00000000
00000000
01000000
00000000
,
10000000
00100000
00010000
00000000
MMMM1000
00000000
00000110
00000000
,
00001000
00000000
00000001
00000000
00000010
00000000
00000000
00000100
00000000
00000100
00000000
00001000
00000000
00000000
00000001
00000000
,
00001000
00000000
00000000
00001100
00000000
00000000
00011000
00000000
00000000
00000000
00020020
00000000
00000000
00000000
00030030
00000000
,
00001000
00000000
00000000
00000000
00000000
00000000
00000100
00000000
00010000
00000000
00000000
0001MMMM
00000000
00000000
00001000
00000000
;
