#VERSION:0.83;
#TITLE:Burn My Dread;
#SUBTITLE:(Novoiski REMIX);
#ARTIST:Novoiski;
#TITLETRANSLIT:;
#SUBTITLETRANSLIT:;
#ARTISTTRANSLIT:;
#GENRE:Anime/Game;
#ORIGIN:;
#CREDIT:;
#BANNER:Burn My Dread (Novoiski REMIX).png;
#BACKGROUND:Burn My Dread (Novoiski REMIX)-bg.png;
#PREVIEWVID:;
#JACKET:Burn My Dread (Novoiski REMIX)-jacket.png;
#CDIMAGE:;
#DISCIMAGE:;
#LYRICSPATH:;
#CDTITLE:../cdtitle.png;
#MUSIC:Burn My Dread (Novoiski REMIX).ogg;
#OFFSET:-1.525000;
#SAMPLESTART:84.419998;
#SAMPLELENGTH:15.000000;
#SELECTABLE:YES;
#BPMS:0.000=110.000,
68.021=55.000,
77.000=110.000;
#STOPS:77.000=0.545,
106.000=1.091;
#DELAYS:;
#WARPS:;
#TIMESIGNATURES:0.000=4=4;
#TICKCOUNTS:0.000=4;
#COMBOS:0.000=1;
#SPEEDS:0.000=1.000=0.000=0;
#SCROLLS:0.000=1.000;
#FAKES:;
#LABELS:0.000=Song Start;
#BGCHANGES:-99.000=../bg.avi=1.000=0=0=1=====,
99999=-nosongbg-=1.000=0=0=0 // don't automatically add -songbackground-
;
#KEYSOUNDS:;
#ATTACKS:
;

//---------------dance-single - ----------------
#NOTEDATA:;
#CHARTNAME:;
#STEPSTYPE:dance-single;
#DESCRIPTION:;
#CHARTSTYLE:;
#DIFFICULTY:Beginner;
#METER:2;
#RADARVALUES:0.082209,0.104829,0.000000,0.028071,0.000000,82.000000,82.000000,0.000000,4.000000,0.000000,0.000000,0.000000,0.000000,0.000000,0.082209,0.104829,0.000000,0.028071,0.000000,82.000000,82.000000,0.000000,4.000000,0.000000,0.000000,0.000000,0.000000,0.000000;
#CREDIT:led_light;
#NOTES:
// measure 0
0000
0000
0000
0000
,  // measure 1
0000
0000
0000
0000
,  // measure 2
0000
0000
0000
0000
,  // measure 3
0000
0000
0000
0000
,  // measure 4
0000
0000
0000
0000
,  // measure 5
2000
0000
0000
0000
,  // measure 6
3000
0000
0000
0000
,  // measure 7
0002
0000
0000
0000
,  // measure 8
0003
0000
0000
0000
,  // measure 9
1000
0000
0000
0000
,  // measure 10
0001
0000
0000
0000
,  // measure 11
1000
0000
0000
0000
,  // measure 12
0100
0000
0000
0000
,  // measure 13
0001
0000
0000
0000
,  // measure 14
1000
0000
0000
0000
,  // measure 15
0001
0000
0000
0000
,  // measure 16
0010
0000
0000
0000
,  // measure 17
2000
0000
0000
0000
,  // measure 18
0000
0000
0000
0000
,  // measure 19
0000
3000
0001
0000
,  // measure 20
0001
0000
1000
0000
,  // measure 21
0001
0000
0010
0000
,  // measure 22
0010
0000
0100
0000
,  // measure 23
0100
0000
1000
0000
,  // measure 24
1000
0000
0001
0000
,  // measure 25
1000
0000
0010
0000
,  // measure 26
0010
0000
0100
0000
,  // measure 27
0001
0000
1000
0000
,  // measure 28
0001
0000
0010
0000
,  // measure 29
1000
0000
0100
0000
,  // measure 30
0100
0000
0001
0000
,  // measure 31
1000
0000
0001
0000
,  // measure 32
1000
0000
0100
0000
,  // measure 33
0001
0000
0010
0000
,  // measure 34
1000
0000
0000
0000
,  // measure 35
0001
0000
1000
0000
,  // measure 36
0001
0000
0000
0000
,  // measure 37
1000
0000
0100
0000
,  // measure 38
0001
0000
0000
0000
,  // measure 39
1000
0000
0001
0000
,  // measure 40
1000
0000
0000
0000
,  // measure 41
0001
0000
0010
0000
,  // measure 42
1000
0000
0000
0000
,  // measure 43
1000
0000
0001
0000
,  // measure 44
1000
0000
0000
0000
,  // measure 45
0001
0000
0010
0000
,  // measure 46
1000
0000
0000
0000
,  // measure 47
0001
0000
1000
0000
,  // measure 48
0001
0000
0000
0000
,  // measure 49
1000
0000
0100
0000
,  // measure 50
0001
0000
0000
0000
,  // measure 51
0001
0000
1000
0000
,  // measure 52
0001
0000
0010
0000
,  // measure 53
1000
0000
0100
0000
,  // measure 54
0100
0000
0001
0000
,  // measure 55
1000
0000
0001
0000
,  // measure 56
1000
0000
0100
0000
,  // measure 57
0001
0000
0010
0000
,  // measure 58
1000
0000
0100
0000
,  // measure 59
0002
0000
0000
0003
;

//---------------dance-single - ----------------
#NOTEDATA:;
#CHARTNAME:;
#STEPSTYPE:dance-single;
#DESCRIPTION:;
#CHARTSTYLE:;
#DIFFICULTY:Hard;
#METER:13;
#RADARVALUES:0.508292,0.566076,0.210535,0.764944,0.603534,507.000000,477.000000,30.000000,109.000000,0.000000,0.000000,0.000000,0.000000,0.000000,0.508292,0.566076,0.210535,0.764944,0.603534,507.000000,477.000000,30.000000,109.000000,0.000000,0.000000,0.000000,0.000000,0.000000;
#CREDIT:led_light;
#NOTES:
// measure 0
0000
0000
0000
0000
,  // measure 1
0000
0000
0000
0000
,  // measure 2
0000
0000
0000
0000
,  // measure 3
0000
0000
0000
0000
,  // measure 4
0000
0000
0000
0000
,  // measure 5
2000
0000
3200
0000
0320
0000
0031
0200
,  // measure 6
0010
1000
0010
0001
,  // measure 7
0320
0000
0000
0000
2030
0000
0000
0000
3002
0000
0003
0010
0200
0000
0000
0000
,  // measure 8
0320
1000
0100
0032
,  // measure 9
2003
0000
0000
0000
3020
0000
0000
0000
0230
0000
0300
0001
0010
0000
0200
0000
,  // measure 10
0010
0001
0010
1000
,  // measure 11
0320
0000
0000
0000
0032
0000
0000
0000
2003
0000
3000
0010
0200
0000
0000
0000
,  // measure 12
0320
0000
0000
0000
0001
0000
0000
0000
0100
0000
0000
0000
2030
0000
3000
1000
,  // measure 13
0001
0000
1000
0000
0100
0000
1000
0000
0001
0000
1000
0100
0010
0000
0100
0000
,  // measure 14
1000
0010
0100
0010
1000
0010
0100
0010
,  // measure 15
1000
0000
0000
0001
0000
0000
0100
0000
0000
0001
0000
0000
1000
0000
0100
0000
0010
0000
0001
0000
0100
0000
0010
0000
,  // measure 16
1000
0000
0100
0000
0001
0000
0100
0000
1000
0000
0010
0000
0001
0000
0000
0010
0000
0000
1000
0000
0000
0100
0000
0000
,  // measure 17
0020
0000
0000
0000
0002
0000
0030
2003
0020
0000
3000
0000
0002
0000
0003
0000
,  // measure 18
2000
0030
0002
0000
,  // measure 19
0000
0000
0000
0000
0000
0000
0000
0000
0000
0000
0000
0000
0000
0000
0000
0000
0000
3003
0000
0000
0000
0000
0000
0000
0100
0000
0000
0000
0000
0000
0000
0000
0021
0000
0000
0000
0000
0000
0000
0000
0000
0000
0000
0000
0000
0000
0000
0000
0230
0000
0000
0000
0000
0000
0000
0000
2300
0000
0000
0000
0000
0000
0000
0000
,  // measure 20
3020
0000
0030
0010
0001
0000
0010
0000
1000
0000
0100
0000
0001
0000
0100
0010
,  // measure 21
0001
0000
0000
0001
0100
0000
0010
0000
2010
0000
0000
0000
3002
0000
0013
0100
,  // measure 22
0001
0000
0000
0001
0100
0000
1000
0000
0010
0000
0001
0000
0010
0000
0100
0000
,  // measure 23
0001
0000
0000
0001
1000
0000
0010
0000
1020
0000
0000
0000
0230
0000
0302
0000
,  // measure 24
0023
0000
0030
0010
1000
0000
0010
0000
0001
0000
0100
0000
1000
0000
0100
0010
,  // measure 25
1000
0000
1000
0100
0000
0010
0001
0000
0012
0000
0000
0000
2003
0000
3010
0100
,  // measure 26
1000
0000
0000
1000
0100
0000
0001
0000
0010
0010
0100
0000
0110
0000
0100
0000
,  // measure 27
2002
0000
3000
0000
1003
0100
0010
0001
0000
0100
0010
0000
2010
0000
3002
0000
,  // measure 28
0013
0000
0100
0000
0100
1000
0010
0100
0000
0010
1000
0001
0010
2000
0000
3000
,  // measure 29
0220
0000
0330
0000
0220
0000
0330
1100
0000
0001
0100
0001
1000
0100
0000
0010
,  // measure 30
0001
0000
1000
0100
1000
0000
0020
0000
0130
0000
0000
0000
0000
0000
0000
0000
,  // measure 31
2002
0000
0003
0000
3001
0010
0100
1000
0000
0010
0100
0000
0102
0000
0003
1000
,  // measure 32
0100
0000
0010
0000
0010
0001
0100
0010
0000
0100
0001
1000
0100
0002
0000
0003
,  // measure 33
0220
0000
0300
0000
0130
1000
0010
0100
0000
0010
1000
0100
0010
0001
0020
0000
,  // measure 34
0130
0000
1000
0010
0000
0100
0010
1000
0100
1000
0002
0000
0103
0001
0100
0001
,  // measure 35
2001
0000
0100
0000
3001
0000
0100
0000
2001
0000
3100
1000
0001
0100
0010
1000
,  // measure 36
0000
0100
0010
1000
0000
0001
0100
0010
0000
0001
0100
0010
0000
1000
0010
0100
,  // measure 37
0002
0000
0013
0100
0000
1000
0100
0010
0002
0000
0103
0010
0000
1000
0010
0100
,  // measure 38
0002
0000
0000
0000
0000
0000
0023
0000
0000
0000
0000
0000
2030
0000
0000
0000
0000
0000
3010
0000
0000
0001
0000
0000
0000
0000
0000
0000
0001
0000
0000
0000
0100
0000
0000
0000
0010
0000
0000
0000
1000
0000
0000
0000
0100
0000
0000
0000
,  // measure 39
0120
0000
0100
0000
0031
0000
0100
0000
1020
0000
0130
0001
1000
0100
0010
0001
,  // measure 40
0000
0100
0010
0001
0000
1000
0100
0010
0000
1000
0100
0010
0000
0001
0010
0100
,  // measure 41
1000
0010
0000
0100
0000
0100
2000
0000
3100
0001
0010
0000
2000
0000
3020
0000
,  // measure 42
0032
0000
0203
0000
0320
0000
1030
0000
0000
0100
0010
0000
0110
0000
0010
0000
,  // measure 43
1002
0000
0100
0000
1003
0000
0100
0000
1002
0000
0103
0001
1000
0100
0010
0001
,  // measure 44
0000
0100
0010
0001
0000
1000
0100
0010
0000
1000
0100
0010
0000
0001
0010
0100
,  // measure 45
2000
0000
3010
0100
0000
0001
0100
0010
2000
0000
3100
0010
0000
0001
0010
0100
,  // measure 46
2000
0000
0000
0000
0000
0000
3020
0000
0000
0000
0000
0000
0032
0000
0000
0000
0000
0000
0013
0000
0000
1000
0000
0000
0000
0000
0000
0000
1000
0000
0000
0000
0100
0000
0000
0000
0010
0000
0000
0000
0001
0000
0000
0000
0100
0000
0000
0000
,  // measure 47
0120
0000
0100
0000
1030
0000
0100
0000
0021
0000
0130
1000
0001
0100
0010
1000
,  // measure 48
0000
0100
0010
1000
0000
0001
0100
0010
0000
0001
0100
0010
0000
1000
0010
0100
,  // measure 49
0001
0010
0000
0100
0000
0100
0002
0000
0103
1000
0010
0000
0002
0000
0023
0000
,  // measure 50
1030
0000
0000
0000
0000
0000
0000
0000
1000
0001
1000
0001
1000
0001
1000
0001
,  // measure 51
2002
0000
0003
0000
3001
0010
0100
1000
0000
0010
0100
0000
0102
0000
2003
0000
,  // measure 52
3100
0000
0010
0000
0010
0001
0100
0010
0000
0100
0001
1000
0100
0002
0000
0003
,  // measure 53
0220
0000
0330
0000
0220
0000
0330
0011
0000
1000
0010
1000
0001
0010
0000
0100
,  // measure 54
1000
0000
0001
0010
0001
0000
0200
0000
0310
1000
0200
0000
0000
0020
0000
0330
,  // measure 55
2002
0000
3000
0000
1003
0100
0010
0001
0000
0100
0010
0000
2010
0000
3000
0001
,  // measure 56
0010
0000
0100
0000
0100
1000
0010
0100
0000
0010
1000
0001
0010
2000
0000
3000
,  // measure 57
0220
0000
0030
0000
0310
0001
0100
0010
0000
0100
0001
0010
0200
0000
0302
0000
,  // measure 58
0203
0000
1300
0001
0020
0000
2030
0000
3020
0000
0031
0000
0001
0100
0001
0100
,  // measure 59
2000
0000
0000
3000
;

//---------------dance-single - ----------------
#NOTEDATA:;
#CHARTNAME:;
#STEPSTYPE:dance-single;
#DESCRIPTION:;
#CHARTSTYLE:;
#DIFFICULTY:Easy;
#METER:5;
#RADARVALUES:0.214545,0.272555,0.133339,0.154392,0.000000,214.000000,195.000000,19.000000,22.000000,0.000000,0.000000,0.000000,0.000000,0.000000,0.214545,0.272555,0.133339,0.154392,0.000000,214.000000,195.000000,19.000000,22.000000,0.000000,0.000000,0.000000,0.000000,0.000000;
#CREDIT:led_light;
#NOTES:
// measure 0
0000
0000
0000
0000
,  // measure 1
0000
0000
0000
0000
,  // measure 2
0000
0000
0000
0000
,  // measure 3
0000
0000
0000
0000
,  // measure 4
0000
0000
0000
0000
,  // measure 5
2000
0000
0020
3000
,  // measure 6
0200
0000
0000
0330
,  // measure 7
0002
0000
0020
0003
,  // measure 8
0200
0300
0002
0033
,  // measure 9
1000
0100
0001
0010
,  // measure 10
1000
0100
0001
0010
,  // measure 11
1000
0100
0001
0100
,  // measure 12
1000
0010
0001
0010
,  // measure 13
1000
1000
0001
0001
,  // measure 14
0010
0010
1000
1000
,  // measure 15
0100
0100
0001
0001
,  // measure 16
0010
0010
0100
0100
,  // measure 17
0020
0000
0000
0000
,  // measure 18
0000
0000
0200
0000
,  // measure 19
0000
0330
1001
0001
,  // measure 20
1000
1000
0010
0001
,  // measure 21
0010
0010
1000
0100
,  // measure 22
0010
0010
0001
1000
,  // measure 23
0010
0010
1001
1000
,  // measure 24
0001
0001
0010
1000
,  // measure 25
0010
0010
0001
0100
,  // measure 26
0010
0010
1000
0001
,  // measure 27
1001
1000
0001
0001
,  // measure 28
0100
1000
0001
0001
,  // measure 29
0010
1000
0000
1000
,  // measure 30
0001
0001
1000
0000
,  // measure 31
1001
0001
1000
1000
,  // measure 32
0100
0001
1000
1000
,  // measure 33
0010
0001
0100
0001
,  // measure 34
1000
1000
0001
1000
,  // measure 35
0102
1000
0100
0010
,  // measure 36
2003
0100
3020
0100
,  // measure 37
1030
1100
0001
0101
,  // measure 38
0010
0100
0010
0110
,  // measure 39
2010
0001
0010
0100
,  // measure 40
3002
0010
0203
0010
,  // measure 41
0301
0011
1000
1010
,  // measure 42
0100
0010
0100
0100
,  // measure 43
2001
0100
3002
0100
,  // measure 44
0023
0100
0001
0100
,  // measure 45
1030
0011
0001
1100
,  // measure 46
1000
0001
1000
1000
,  // measure 47
1002
0100
2003
0100
,  // measure 48
3020
0100
1000
0100
,  // measure 49
0031
1010
1000
0101
,  // measure 50
1000
0000
0001
0001
,  // measure 51
1001
1000
0100
0100
,  // measure 52
0001
1000
0010
0010
,  // measure 53
0001
1000
0000
1000
,  // measure 54
0001
0001
0010
0000
,  // measure 55
1001
1000
0010
0010
,  // measure 56
0001
1000
0100
0100
,  // measure 57
0001
0010
1000
0001
,  // measure 58
0100
1000
0010
0001
,  // measure 59
2000
0000
0000
3000
;

//---------------dance-single - ----------------
#NOTEDATA:;
#CHARTNAME:;
#STEPSTYPE:dance-single;
#DESCRIPTION:;
#CHARTSTYLE:;
#DIFFICULTY:Medium;
#METER:8;
#RADARVALUES:0.297757,0.335453,0.161410,0.477213,0.080705,297.000000,274.000000,23.000000,68.000000,0.000000,0.000000,0.000000,0.000000,0.000000,0.297757,0.335453,0.161410,0.477213,0.080705,297.000000,274.000000,23.000000,68.000000,0.000000,0.000000,0.000000,0.000000,0.000000;
#CREDIT:led_light;
#NOTES:
// measure 0
0000
0000
0000
0000
,  // measure 1
0000
0000
0000
0000
,  // measure 2
0000
0000
0000
0000
,  // measure 3
0000
0000
0000
0000
,  // measure 4
0000
0000
0000
0000
,  // measure 5
2000
0100
0001
0100
,  // measure 6
3020
0100
1000
0130
,  // measure 7
0002
0010
1000
0010
,  // measure 8
0203
0010
0001
0310
,  // measure 9
1000
0000
0000
0000
1000
0000
0000
0000
0001
0000
0000
1000
0100
0000
0000
0000
,  // measure 10
0010
0010
0001
0001
,  // measure 11
1000
0000
0000
0000
1000
0000
0000
0000
0001
0000
0000
1000
0010
0000
0000
0000
,  // measure 12
0100
0100
0001
0001
,  // measure 13
2000
0000
0000
0000
0100
0000
0000
0000
3002
0000
0003
0100
0020
0000
0000
0000
,  // measure 14
2030
3100
0200
0310
,  // measure 15
0002
0000
0000
0000
0100
0000
0000
0000
2003
0000
3000
0100
0020
0000
0000
0000
,  // measure 16
0032
0203
2300
3020
,  // measure 17
0032
0000
0200
0300
2000
0000
0000
0003
,  // measure 18
0200
3000
0020
0000
,  // measure 19
0000
0000
0330
0100
2001
0000
3002
0000
,  // measure 20
1003
0000
0001
0100
1000
0000
0001
0000
,  // measure 21
1000
0000
0100
0001
0020
0000
2030
0000
,  // measure 22
3010
0000
0001
1000
0010
0000
0010
0000
,  // measure 23
0100
0100
1002
2003
,  // measure 24
3001
0000
1000
0010
0001
0000
1000
0000
,  // measure 25
0001
0000
0010
1000
0200
0000
0302
0000
,  // measure 26
0103
0000
1000
0001
1000
0001
1000
0000
,  // measure 27
2001
0000
3002
0000
1003
0100
0010
0000
,  // measure 28
0100
0000
1000
0000
0010
0000
0100
0010
0000
0000
1000
0000
0002
0000
0003
0000
,  // measure 29
1002
0000
0000
0000
2003
0000
3000
0100
0000
0100
0000
0000
0001
0000
0000
0100
,  // measure 30
1000
0010
0100
0001
0010
0000
0000
0000
,  // measure 31
2001
0000
3002
0000
1003
0010
0100
0000
,  // measure 32
0010
0000
1000
0000
0100
0000
0010
0100
0000
0000
1000
0000
0002
0000
0003
0000
,  // measure 33
1002
0000
2003
0000
3010
0001
0010
0000
,  // measure 34
1000
0000
0100
0000
0010
0000
0000
0000
0010
0001
0000
0000
1000
0000
1000
0000
,  // measure 35
1200
0000
0000
0000
0310
0000
0000
0000
0021
0000
0000
0130
1000
0000
0000
0000
,  // measure 36
1020
0100
0001
0100
,  // measure 37
2030
0000
0000
3001
0100
0000
0000
0000
0002
0000
0000
1003
0100
0000
0000
0000
,  // measure 38
0020
0000
0031
1000
0010
0100
0001
0000
,  // measure 39
0201
0000
0000
0000
0310
0000
0000
0000
1020
0000
0000
0130
0001
0000
0000
0000
,  // measure 40
0021
0100
1000
0100
,  // measure 41
0031
1000
0100
0000
0010
0001
0100
0000
,  // measure 42
0001
0010
0100
0001
0000
0100
0010
0001
,  // measure 43
0201
0000
0000
0000
0310
0000
0000
0000
1020
0000
0000
0130
0001
0000
0000
0000
,  // measure 44
0021
0100
1000
0100
,  // measure 45
0032
0000
0000
1003
0100
0000
0000
0000
2000
0000
0000
3001
0100
0000
0000
0000
,  // measure 46
0020
0000
1030
0001
0010
0100
1000
0000
,  // measure 47
1200
0000
0000
0000
0310
0000
0000
0000
0021
0000
0000
0130
1000
0000
0000
0000
,  // measure 48
1020
0100
0001
0100
,  // measure 49
1030
0001
0100
0000
0010
1000
0100
0000
,  // measure 50
1001
0000
0000
0000
0100
0010
0100
0010
,  // measure 51
2001
0000
3002
0000
1003
0100
0010
0000
,  // measure 52
0100
0000
1000
0000
0010
0000
0100
0010
0000
0000
1000
0000
0002
0000
0003
0000
,  // measure 53
1002
0000
0000
0000
2003
0000
3000
0100
0000
0100
0000
0000
0001
0000
0000
0100
,  // measure 54
1000
0010
0100
0001
0010
0000
0000
0000
,  // measure 55
2001
0000
3002
0000
1003
0010
0100
0000
,  // measure 56
0010
0000
1000
0000
0100
0000
0010
0100
0000
0000
1000
0000
0002
0000
0003
0000
,  // measure 57
1002
0000
2003
0000
3010
0001
0010
0000
,  // measure 58
1000
0100
0010
0000
0001
0100
0010
1000
,  // measure 59
0200
0000
0000
0300
;
