#VERSION:0.83;
#TITLE:Breathe;
#SUBTITLE:;
#ARTIST:Curbi;
#TITLETRANSLIT:;
#SUBTITLETRANSLIT:;
#ARTISTTRANSLIT:;
#GENRE:Monstercat;
#ORIGIN:;
#CREDIT:;
#BANNER:Breathe.png;
#BACKGROUND:Breathe-bg.png;
#PREVIEWVID:;
#JACKET:Breathe-jacket.png;
#CDIMAGE:;
#DISCIMAGE:;
#LYRICSPATH:;
#CDTITLE:../cdtitle.png;
#MUSIC:Breathe.ogg;
#OFFSET:-0.123000;
#SAMPLESTART:61.997002;
#SAMPLELENGTH:15.000000;
#SELECTABLE:YES;
#BPMS:0.000=128.000;
#STOPS:;
#DELAYS:;
#WARPS:;
#TIMESIGNATURES:0.000=4=4;
#TICKCOUNTS:0.000=4;
#COMBOS:0.000=1;
#SPEEDS:0.000=1.000=0.000=0;
#SCROLLS:0.000=1.000;
#FAKES:;
#LABELS:0.000=Song Start;
#BGCHANGES:-99.000=../bg.avi=1.000=0=0=1=====,
99999=-nosongbg-=1.000=0=0=0 // don't automatically add -songbackground-
;
#KEYSOUNDS:;
#ATTACKS:
;

//---------------dance-single - ----------------
#NOTEDATA:;
#CHARTNAME:;
#STEPSTYPE:dance-single;
#DESCRIPTION:;
#CHARTSTYLE:;
#DIFFICULTY:Hard;
#METER:9;
#RADARVALUES:0.380517,0.423122,0.052399,0.113531,0.004367,305.000000,299.000000,6.000000,13.000000,0.000000,0.000000,0.000000,0.000000,0.000000,0.380517,0.423122,0.052399,0.113531,0.004367,305.000000,299.000000,6.000000,13.000000,0.000000,0.000000,0.000000,0.000000,0.000000;
#CREDIT:led_light;
#NOTES:
0000
0000
0000
0000
,
0000
0000
0000
0000
,
0000
0000
0000
0000
,
0000
0000
0000
0000
,
0000
0000
0000
0000
,
0000
0000
0000
0000
,
0000
0000
0000
0000
,
0000
0000
0000
0000
,
0000
0000
0000
0000
,
2000
0000
0100
0000
3000
0001
0100
0000
,
0002
0010
0000
0013
,
0001
0100
0020
0000
0000
0000
0130
0000
,
0002
0000
1003
0020
0000
0000
0130
0000
,
0002
0000
0010
0000
0003
1000
0010
0000
,
2000
0100
0000
3100
,
1000
0010
0200
0000
0000
0000
0310
0000
,
2000
0000
3001
0200
0000
0000
0310
0000
,
1000
0100
1000
0100
0001
0100
1000
0001
,
0000
0100
0001
0000
0001
0100
0001
0000
,
0100
0010
0100
0010
1000
0010
0100
0001
,
0000
0010
0100
0000
0100
0010
0001
0000
,
0001
0100
1000
0100
0001
0100
0010
1000
,
0100
0010
0100
0000
0100
0010
0001
0000
,
0100
0001
1000
0001
0100
0010
0001
0010
,
0100
0001
0010
0000
0010
0100
0010
0000
,
0001
0100
0001
0100
0010
0100
0001
0010
,
0100
0010
0001
0000
0001
0100
0010
0000
,
1000
0100
1000
0100
0010
0100
1000
0001
,
1000
0100
1000
0000
1000
0100
1000
0000
,
0001
0000
0011
0000
0001
0100
0001
0000
,
1000
0100
1000
0010
1000
0100
0010
0001
,
0100
0010
1000
0001
0100
0010
1000
0001
,
0020
0100
1000
0031
,
0110
0001
0100
0001
1000
0010
0100
0001
,
0010
0100
0010
0000
0100
0100
0010
0000
,
0001
1000
0100
1000
0010
0001
0010
1000
,
0100
0010
0100
0000
0100
0001
0100
1000
,
0010
0000
1001
0001
0010
1000
0010
0001
,
0010
0010
0100
0000
0010
0010
0100
0000
,
1000
0001
1000
0010
0100
0010
1000
0001
,
0010
0000
0000
0000
0110
0000
0000
0000
0001
0000
0100
0000
0001
0000
0001
0010
,
0001
0000
0010
0001
1000
0100
0010
0001
,
0100
0010
0100
0000
0100
1000
0100
0000
,
0010
0100
0010
0001
0010
1000
0010
0100
,
0010
1000
0010
0000
0010
0001
0010
0000
,
1000
0100
0010
0001
1000
0100
0001
0100
,
1000
1000
0010
0000
0001
0001
0010
0000
,
0100
0010
1000
0001
0100
0001
1000
0100
,
0020
1000
0001
0100
,
0031
0000
1100
0001
0100
0001
0010
0001
,
1000
0100
0010
0000
0001
0100
0010
0000
,
0100
0001
1000
0001
0010
1000
0010
0001
,
1000
0100
0010
0000
0001
0100
0010
0000
,
0100
0100
0001
0000
1000
0100
1000
0001
,
1000
1000
0100
0000
0010
0010
0001
0000
,
0100
0001
1000
0010
0100
0001
0010
0100
,
0020
0001
0000
0031
,
1010
0000
0000
0000
;

//---------------dance-single - ----------------
#NOTEDATA:;
#CHARTNAME:;
#STEPSTYPE:dance-single;
#DESCRIPTION:;
#CHARTSTYLE:;
#DIFFICULTY:Medium;
#METER:7;
#RADARVALUES:0.284452,0.373343,0.139731,0.174663,0.000000,228.000000,212.000000,16.000000,20.000000,0.000000,0.000000,0.000000,0.000000,0.000000,0.284452,0.373343,0.139731,0.174663,0.000000,228.000000,212.000000,16.000000,20.000000,0.000000,0.000000,0.000000,0.000000,0.000000;
#CREDIT:led_light;
#NOTES:
0000
0000
0000
0000
,
0000
0000
0000
0000
,
0000
0000
0000
0000
,
0000
0000
0000
0000
,
0000
0000
0000
0000
,
0000
0000
0000
0000
,
0000
0000
0000
0000
,
0000
0000
0000
0000
,
0000
0000
0000
0000
,
2000
0100
0000
0100
,
3002
0010
0000
0010
,
0103
0020
0000
1000
,
2030
0100
0000
0001
,
3002
0100
0000
0100
,
2003
0010
0000
0010
,
3100
0020
0000
0001
,
0032
0100
0000
1003
,
0100
0000
0100
0000
0001
0000
0100
0010
,
0000
0010
0100
0000
1000
0000
1000
0000
,
0001
0000
0001
0000
0010
0000
0100
1000
,
0000
1000
0010
0000
0100
0000
0100
0000
,
0010
0000
0010
0000
0001
0000
0010
0100
,
0000
0100
0010
0000
1000
0000
1000
0000
,
0001
0001
0100
0010
,
2000
0100
0000
3010
,
0100
0010
0100
0000
0001
0100
0001
1000
,
0000
0100
1000
0000
0010
0000
0010
0000
,
0100
1000
0100
0000
0001
0100
0001
0010
,
0000
0100
0010
0000
0001
0000
1000
0000
,
0100
0100
0001
0001
,
1000
0010
1000
0000
0010
0100
0010
0000
,
0002
2003
3020
0230
,
0302
0010
0000
0003
,
0001
0100
0010
0000
1000
0100
0001
0100
,
1000
1100
0010
0101
,
1000
0100
0010
0000
0001
0100
1000
0100
,
0001
0101
0010
1100
,
0010
0000
1001
0000
0100
1000
0010
1000
,
0100
0101
1000
0011
,
0100
1000
0001
0000
0010
0001
0100
0010
,
2000
3100
0200
0310
,
0000
0100
1000
1000
,
0001
0001
0200
0300
,
0001
0010
0100
0000
1000
0010
0001
0010
,
1000
1010
0100
0011
,
0100
0000
1001
0000
0010
0001
0100
0001
,
0010
1010
0001
1100
,
0010
0001
1000
0000
0100
1000
0010
0100
,
0002
0013
0200
0310
,
0001
0000
0101
0000
0001
1000
0001
0000
,
1000
1000
0100
0100
,
1000
0000
1010
0000
0010
0100
0001
0000
,
0010
0010
0100
0010
,
1000
0000
1100
0000
1000
0001
1000
0000
,
0001
0001
0100
0100
,
0001
0000
0011
0000
0010
0100
1000
0000
,
0020
0100
0000
0100
,
0030
0000
0000
0000
;

//---------------dance-single - ----------------
#NOTEDATA:;
#CHARTNAME:;
#STEPSTYPE:dance-single;
#DESCRIPTION:;
#CHARTSTYLE:;
#DIFFICULTY:Easy;
#METER:5;
#RADARVALUES:0.202110,0.273785,0.122264,0.139731,0.000000,162.000000,148.000000,14.000000,16.000000,0.000000,0.000000,0.000000,0.000000,0.000000,0.202110,0.273785,0.122264,0.139731,0.000000,162.000000,148.000000,14.000000,16.000000,0.000000,0.000000,0.000000,0.000000,0.000000;
#CREDIT:led_light;
#NOTES:
0000
0000
0000
0000
,
0000
0000
0000
0000
,
0000
0000
0000
0000
,
0000
0000
0000
0000
,
0000
0000
0000
0000
,
0000
0000
0000
0000
,
0000
0000
0000
0000
,
0000
0000
0000
0000
,
0000
0000
0000
0000
,
2000
0000
0000
3000
,
0002
0000
0000
0003
,
0010
0200
0000
0300
,
2000
3000
0002
0003
,
0020
0000
0000
0030
,
0200
0000
0000
0300
,
1000
0002
0000
0003
,
0200
0000
0020
0330
,
1000
1000
0001
0100
,
0000
0100
0100
0001
,
0010
0010
0100
1000
,
0000
1000
1000
1000
,
0001
0001
1000
0010
,
0000
0010
0010
1000
,
0100
0100
0010
0001
,
0100
0002
0000
0003
,
1000
1000
0100
0010
,
0000
0001
0000
0001
,
0010
0010
1000
0001
,
0000
0100
0000
0100
,
1000
1000
0001
0001
,
1000
0010
0001
0010
,
1000
0002
1000
0100
,
0023
0000
0000
0030
,
1001
0100
1001
0100
,
0000
0001
1000
1000
,
0010
1001
0100
0001
,
0000
0010
0001
0001
,
0010
1001
0100
1000
,
0000
0010
1000
1000
,
0001
0110
0001
1001
,
0020
0100
0000
0130
,
0000
1000
0001
0001
,
1000
1000
0001
0000
,
0010
1001
0100
0001
,
0000
0010
0001
0001
,
0010
1001
0100
1000
,
0000
0010
1000
1000
,
0001
0110
0001
1001
,
0020
0100
0000
0100
,
0031
0011
1000
1100
,
0010
0001
0000
0001
,
0100
0101
0010
1010
,
0001
0010
0000
0010
,
0100
0100
0010
0010
,
0001
0100
0000
0100
,
0010
0010
1000
1000
,
0002
0010
0000
0013
,
0100
0000
0000
0000
;

//---------------dance-single - ----------------
#NOTEDATA:;
#CHARTNAME:;
#STEPSTYPE:dance-single;
#DESCRIPTION:;
#CHARTSTYLE:;
#DIFFICULTY:Beginner;
#METER:3;
#RADARVALUES:0.111036,0.149337,0.000000,0.087332,0.000000,89.000000,89.000000,0.000000,10.000000,0.000000,0.000000,0.000000,0.000000,0.000000,0.111036,0.149337,0.000000,0.087332,0.000000,89.000000,89.000000,0.000000,10.000000,0.000000,0.000000,0.000000,0.000000,0.000000;
#CREDIT:led_light;
#NOTES:
0000
0000
0000
0000
,
0000
0000
0000
0000
,
0000
0000
0000
0000
,
0000
0000
0000
0000
,
0000
0000
0000
0000
,
0000
0000
0000
0000
,
0000
0000
0000
0000
,
0000
0000
0000
0000
,
0000
0000
0000
0000
,
0020
0000
0000
0000
,
0030
0000
0000
0000
,
2000
0000
0000
0000
,
3000
0000
0000
0000
,
0002
0000
0000
0000
,
0003
0000
0000
0000
,
0200
0000
0000
0000
,
0300
0000
0000
0000
,
0001
0000
0001
0000
,
0000
0001
0001
0000
,
0010
0000
0010
0000
,
0000
0010
0010
0000
,
1000
0000
1000
0000
,
0000
1000
1000
0000
,
0100
0000
0100
0000
,
0200
0000
0300
0000
,
0001
0000
0100
0100
,
0000
0001
0001
0000
,
1000
0000
0010
0010
,
0000
1000
1000
0000
,
0001
0000
1000
0000
,
0001
0000
1000
0000
,
0200
0000
0300
0000
,
0020
0000
0000
0030
,
0001
0000
0001
0001
,
0000
1000
1000
0000
,
0010
0000
0100
0100
,
0000
0010
0010
0000
,
1000
0000
1000
0001
,
0000
0001
0001
0000
,
0100
0000
0001
0000
,
0020
0000
0000
0030
,
0000
0100
0100
0000
,
0100
0000
0100
0000
,
1000
0000
0001
0001
,
0000
1000
1000
0000
,
0010
0000
0010
0100
,
0000
0100
0100
0000
,
0001
0000
0100
0000
,
2000
0000
0000
3000
,
1000
0000
0100
0100
,
0000
0100
0000
0001
,
1000
0000
0010
0010
,
0000
0001
0000
0001
,
1000
0000
0001
0001
,
0000
0010
0000
0010
,
1000
0000
0100
0000
,
0020
0000
0000
0030
,
0100
0000
0000
0000
;

//---------------dance-double - ----------------
#NOTEDATA:;
#CHARTNAME:;
#STEPSTYPE:dance-double;
#DESCRIPTION:;
#CHARTSTYLE:;
#DIFFICULTY:Hard;
#METER:10;
#RADARVALUES:0.380517,0.423122,0.043666,0.122264,0.004367,305.000000,300.000000,5.000000,14.000000,0.000000,0.000000,0.000000,0.000000,0.000000,0.380517,0.423122,0.043666,0.122264,0.004367,305.000000,300.000000,5.000000,14.000000,0.000000,0.000000,0.000000,0.000000,0.000000;
#CREDIT:led_light;
#NOTES:
// measure 0
00000000
00000000
00000000
00000000
,  // measure 1
00000000
00000000
00000000
00000000
,  // measure 2
00000000
00000000
00000000
00000000
,  // measure 3
00000000
00000000
00000000
00000000
,  // measure 4
00000000
00000000
00000000
00000000
,  // measure 5
00000000
00000000
00000000
00000000
,  // measure 6
00000000
00000000
00000000
00000000
,  // measure 7
00000000
00000000
00000000
00000000
,  // measure 8
00000000
00000000
00000000
00000000
,  // measure 9
00200000
00000000
00010000
00000000
00300000
10000000
00100000
00000000
,  // measure 10
20000000
01000000
00000000
31000000
,  // measure 11
00100000
00001000
00020000
00000000
00000000
00000000
00031000
00000000
,  // measure 12
00002000
00000000
00003100
00000002
00000000
00000000
00000103
00000000
,  // measure 13
00000020
00000000
00001000
00000000
00000030
00000001
00000010
00000000
,  // measure 14
00000002
00000100
00000000
00000103
,  // measure 15
00000010
00010000
00002000
00000000
00000000
00000000
00013000
00000000
,  // measure 16
00020000
00000000
01030000
20000000
00000000
00000000
31000000
00000000
,  // measure 17
00100000
00010000
00100000
00010000
10000000
00100000
01000000
00010000
,  // measure 18
00000000
01000000
00100000
00000000
00010000
00001000
00010000
00000000
,  // measure 19
00001000
00000100
00001000
00000100
00000001
00000100
00000010
00001000
,  // measure 20
00000000
00000001
00000010
00000000
00000100
00000010
00000001
00000000
,  // measure 21
00000001
00001000
00000010
00000100
00000001
00000010
00001000
00010000
,  // measure 22
00100000
00010000
00100000
00000000
10000000
00100000
10000000
00000000
,  // measure 23
01000000
00010000
01000000
10000000
00100000
10000000
01000000
00100000
,  // measure 24
00001000
00010000
00001000
00000000
00001000
00010000
00001000
00000000
,  // measure 25
00010000
00001000
00010000
00001000
00010000
00000010
00001000
00000100
,  // measure 26
00000010
00000100
00001000
00000000
00000001
00000100
00000001
00000000
,  // measure 27
00000100
00000010
00000100
00000010
00001000
00000100
00000010
00000100
,  // measure 28
00010000
00001000
00010000
00000000
00001000
01000000
00010000
00000000
,  // measure 29
10000000
00000000
01100000
00000000
00010000
00100000
00010000
00000000
,  // measure 30
10000000
01000000
00100000
00010000
10000000
01000000
00100000
00010000
,  // measure 31
01000000
00100000
00010000
00001000
00010000
00001000
00000100
00000001
,  // measure 32
00000020
00000100
00001000
00000031
,  // measure 33
00000110
00000001
00001000
00000010
00000100
00000010
00010000
00001000
,  // measure 34
00100000
00100000
00010000
00000000
10000000
10000000
00100000
00000000
,  // measure 35
10000000
01000000
00100000
01000000
10000000
01000000
00010000
00001000
,  // measure 36
00000100
00001000
00010000
00000000
01000000
00010000
00001000
00001000
,  // measure 37
00000100
00000000
00001001
00000001
00000010
00001000
00000010
00000001
,  // measure 38
00000010
00000010
00000100
00000000
00010000
00010000
00001000
00000000
,  // measure 39
00100000
00001000
01000000
00010000
00100000
00001000
01000000
00010000
,  // measure 40
00200000
00000000
00000000
00000000
01000000
00000000
00000000
00000000
10000000
00000000
00000000
00000000
00301000
00000000
00001000
00010000
,  // measure 41
00001000
00000000
00100000
00010000
10000000
01000000
00100000
00010000
,  // measure 42
01000000
00100000
00010000
00000000
00010000
00001000
00010000
00000000
,  // measure 43
00001000
00000100
00001000
00010000
00001000
00000100
00001000
00010000
,  // measure 44
00001000
00000010
00001000
00000000
00001000
00010000
00001000
00000000
,  // measure 45
01000000
00100000
10000000
00010000
00100000
01000000
10000000
01000000
,  // measure 46
00100000
00100000
00010000
00000000
00001000
00001000
00000100
00000000
,  // measure 47
00000010
00000001
00001000
00000010
00000100
00000001
00001000
00000100
,  // measure 48
00000020
00000000
00001000
00000000
00000001
00000000
00000130
00010000
,  // measure 49
00001000
00000000
00110000
00001000
01000000
00010000
00100000
00001000
,  // measure 50
00010000
00000010
00001000
00000000
00000100
00000100
00000010
00000000
,  // measure 51
00000001
00000100
00001000
00000100
00000001
00001000
00000100
00010000
,  // measure 52
01000000
00010000
00001000
00000000
00100000
00100000
00010000
00000000
,  // measure 53
10000000
10000000
01000000
01000000
00010000
00001000
00010000
01000000
,  // measure 54
10000000
10000000
00100000
00000000
01000000
01000000
00010000
00000000
,  // measure 55
10000000
00100000
01000000
00100000
00010000
00001000
00000010
00000001
,  // measure 56
00000020
00000100
00000000
00000130
,  // measure 57
00001001
00000000
00000000
00000000
;

//---------------dance-double - ----------------
#NOTEDATA:;
#CHARTNAME:;
#STEPSTYPE:dance-double;
#DESCRIPTION:;
#CHARTSTYLE:;
#DIFFICULTY:Medium;
#METER:8;
#RADARVALUES:0.295680,0.373343,0.130998,0.139731,0.000000,237.000000,222.000000,15.000000,16.000000,0.000000,0.000000,0.000000,0.000000,0.000000,0.295680,0.373343,0.130998,0.139731,0.000000,237.000000,222.000000,15.000000,16.000000,0.000000,0.000000,0.000000,0.000000,0.000000;
#CREDIT:led_light;
#NOTES:
// measure 0
00000000
00000000
00000000
00000000
,  // measure 1
00000000
00000000
00000000
00000000
,  // measure 2
00000000
00000000
00000000
00000000
,  // measure 3
00000000
00000000
00000000
00000000
,  // measure 4
00000000
00000000
00000000
00000000
,  // measure 5
00000000
00000000
00000000
00000000
,  // measure 6
00000000
00000000
00000000
00000000
,  // measure 7
00000000
00000000
00000000
00000000
,  // measure 8
00000000
00000000
00000000
00000000
,  // measure 9
00020000
00001000
00000000
00001000
,  // measure 10
00030020
00000100
00000000
00000130
,  // measure 11
00000001
00000020
00000000
00000130
,  // measure 12
00000200
00010000
00000000
00010300
,  // measure 13
00002000
00010000
00000000
00010000
,  // measure 14
02003000
00100000
00000000
03100000
,  // measure 15
10000000
02000000
00000000
03100000
,  // measure 16
00200000
00001000
00000000
00301000
,  // measure 17
00010000
00000000
00010000
00000000
00001000
00000000
00010000
00001000
,  // measure 18
00000000
00001000
00010000
00000000
00000010
00000000
00000010
00000000
,  // measure 19
00001000
00000000
00001000
00000000
00000001
00000000
00000010
00000100
,  // measure 20
00000000
00000100
00000010
00000000
00000001
00000000
00000001
00000000
,  // measure 21
00001000
00000000
00001000
00000000
00000100
00000000
00010000
00001000
,  // measure 22
00000000
00001000
00010000
00000000
00001000
00000000
00001000
00000000
,  // measure 23
01000000
01000000
00100000
10000000
,  // measure 24
00020000
00100000
00000000
00130000
,  // measure 25
00100000
01000000
00100000
00000000
01000000
00010000
01000000
10000000
,  // measure 26
00000000
01000000
00010000
00000000
00001000
00010000
00001000
00000000
,  // measure 27
00000100
00000010
00000100
00000000
00000010
00000001
00000010
00001000
,  // measure 28
00000000
00000001
00000010
00000000
00000100
00000010
00000100
00000000
,  // measure 29
00010000
00010000
00001000
00001000
,  // measure 30
00010000
01000000
10000000
00000000
01000000
00100000
01000000
00000000
,  // measure 31
00010000
00001000
00010000
00001000
00100000
00001000
00010000
00001000
,  // measure 32
02000000
00100000
00000000
03000000
,  // measure 33
10000000
00100000
10000000
00000000
01000000
00100000
00010000
00100000
,  // measure 34
01000000
10010000
00100000
00011000
,  // measure 35
00100000
00010000
01000000
00000000
00100000
00010000
00001000
00010000
,  // measure 36
00100000
01010000
00001000
00011000
,  // measure 37
00000100
00000000
00001001
00000000
00000001
00000100
00001000
00000100
,  // measure 38
00000001
00001100
00000001
00000110
,  // measure 39
00001000
00010000
00001000
00000000
00100000
00001000
00010000
00100000
,  // measure 40
02000000
00000000
03100000
00000000
00200000
00000000
10300000
00010000
,  // measure 41
00100000
01000000
10000000
10000000
,  // measure 42
00010000
00010000
00200000
00300000
,  // measure 43
00000100
00010000
00001000
00000000
01000000
00010000
00100000
00001000
,  // measure 44
00010000
00011000
00000010
00001010
,  // measure 45
00000100
00000001
00000010
00000000
00000001
00000010
00001000
00000010
,  // measure 46
00000001
00001010
00010000
00001100
,  // measure 47
00000010
00000001
00000100
00000000
00001000
00000100
00000010
00001000
,  // measure 48
00000200
00010300
00020000
00031000
,  // measure 49
00010000
00000000
01100000
00000000
00010000
01000000
00010000
00000000
,  // measure 50
10000000
10000000
00100000
00100000
,  // measure 51
01000000
00000000
10010000
00000000
00010000
00100000
01000000
00000000
,  // measure 52
10000000
10000000
01000000
00010000
,  // measure 53
00001000
00000000
00000110
00000000
00001000
00000010
00001000
00000000
,  // measure 54
00000001
00000001
00000100
00000100
,  // measure 55
00000010
00000000
00001001
00000000
00001000
00000100
00000010
00000000
,  // measure 56
00002000
00010000
00000000
00010000
,  // measure 57
00003100
00000000
00000000
00000000
;

//---------------dance-double - ----------------
#NOTEDATA:;
#CHARTNAME:;
#STEPSTYPE:dance-double;
#DESCRIPTION:;
#CHARTSTYLE:;
#DIFFICULTY:Easy;
#METER:5;
#RADARVALUES:0.197120,0.273785,0.122264,0.139731,0.000000,158.000000,144.000000,14.000000,16.000000,0.000000,0.000000,0.000000,0.000000,0.000000,0.197120,0.273785,0.122264,0.139731,0.000000,158.000000,144.000000,14.000000,16.000000,0.000000,0.000000,0.000000,0.000000,0.000000;
#CREDIT:led_light;
#NOTES:
// measure 0
00000000
00000000
00000000
00000000
,  // measure 1
00000000
00000000
00000000
00000000
,  // measure 2
00000000
00000000
00000000
00000000
,  // measure 3
00000000
00000000
00000000
00000000
,  // measure 4
00000000
00000000
00000000
00000000
,  // measure 5
00000000
00000000
00000000
00000000
,  // measure 6
00000000
00000000
00000000
00000000
,  // measure 7
00000000
00000000
00000000
00000000
,  // measure 8
00000000
00000000
00000000
00000000
,  // measure 9
00200000
00000000
00000000
00300000
,  // measure 10
00002000
00000000
00000000
00003000
,  // measure 11
00000100
00000020
00000000
00000030
,  // measure 12
00002000
00003000
00000002
00000003
,  // measure 13
00000020
00000000
00000000
00000030
,  // measure 14
00000200
00000000
00000000
00000300
,  // measure 15
00010000
00200000
00000000
00300000
,  // measure 16
20000000
00000000
00020000
30030000
,  // measure 17
10000000
10000000
00010000
00100000
,  // measure 18
00000000
01000000
01000000
00000000
,  // measure 19
00010000
00010000
00001000
00000010
,  // measure 20
00000000
00000100
00000100
00001000
,  // measure 21
00000001
00000001
00001000
00000100
,  // measure 22
00000000
00000010
00000010
00000000
,  // measure 23
00001000
00001000
00010000
01000000
,  // measure 24
00100000
00020000
00000000
00030000
,  // measure 25
10000000
10000000
01000000
00010000
,  // measure 26
00000000
00001000
00000000
00001000
,  // measure 27
00000100
00000100
00000001
00000010
,  // measure 28
00000000
00001000
00000000
00001000
,  // measure 29
00010000
00010000
00001000
00001000
,  // measure 30
00100000
01000000
10000000
01000000
,  // measure 31
00010000
00002000
00100000
00010000
,  // measure 32
02003000
00000000
00000000
03000000
,  // measure 33
00011000
00100000
00011000
01000000
,  // measure 34
00000000
00001000
00010000
00010000
,  // measure 35
00000100
00001001
00000100
00000010
,  // measure 36
00000000
00001000
00000001
00000001
,  // measure 37
00000100
00001001
00000010
00001000
,  // measure 38
00000000
00010000
00000000
00010000
,  // measure 39
01000000
11000000
00100000
00110000
,  // measure 40
20000000
00100000
00000000
30100000
,  // measure 41
00000000
10000000
00010000
00010000
,  // measure 42
00001000
00001000
00000001
00000000
,  // measure 43
00000010
00001001
00000010
00000100
,  // measure 44
00000000
00001000
00000001
00000001
,  // measure 45
00000010
00001001
00000100
00001000
,  // measure 46
00000000
00010000
00000000
00010000
,  // measure 47
01000000
10010000
00100000
01100000
,  // measure 48
20000000
00010000
00000000
30010000
,  // measure 49
01000000
00011000
00100000
00001000
,  // measure 50
00010000
00001000
00000000
00001000
,  // measure 51
00000100
00000101
00000010
00001000
,  // measure 52
00000001
00000010
00000000
00000010
,  // measure 53
00000100
00011000
00000010
00000100
,  // measure 54
00001000
00010000
00000000
00010000
,  // measure 55
00100000
01100000
10000000
00010000
,  // measure 56
00200000
01000000
00000000
01300000
,  // measure 57
00010000
00000000
00000000
00000000
;
