#TITLE:Bopeebo;
#SUBTITLE:;
#ARTIST:Kawai Sprite;
#TITLETRANSLIT:;
#SUBTITLETRANSLIT:;
#ARTISTTRANSLIT:;
#GENRE:Friday Night Funkin';
#CREDIT:;
#BANNER:Bopeebo.png;
#BACKGROUND:../bg.png;
#LYRICSPATH:;
#CDTITLE:../cdtitle.png;
#MUSIC:Bopeebo.ogg;
#OFFSET:1.495000;
#SAMPLESTART:0.904000;
#SAMPLELENGTH:15.000000;
#LASTBEATHINT:0.825000;
#SELECTABLE:YES;
#BPMS:0.000000=100.000000
;
#STOPS:
;
#BGCHANGES: -1.000=Bopeebo.avi=1.000=0=0=0=StretchNoLoop====,
99999=-nosongbg-=1.000=0=0=0 // don't automatically add -songbackground-
;
#KEYSOUNDS:;
#ATTACKS:;

//---------------dance-single - ----------------
#NOTES:
     dance-single:
     :
     Hard:
     11:
     0.455105,0.545895,0.467405,0.369004,0.135301,259.000000,221.000000,38.000000,30.000000,0.000000,0.000000,0.455105,0.545895,0.467405,0.369004,0.135301,259.000000,221.000000,38.000000,30.000000,0.000000,0.000000:
0000
0000
0000
0000
,
1000
0102
0010
0103
,
0001
2100
0010
3100
,
2000
3000
1010
0000
0002
0000
0103
0000
,
0002
0003
0011
0000
2000
0000
3100
0000
,
2000
3000
0001
1000
0200
0310
0110
0000
,
0002
0003
1000
0001
0200
0310
0110
0000
,
0010
1000
0100
1000
0020
0130
0110
0000
,
0100
0000
0001
0000
0010
0000
0001
0000
0200
0000
0310
0100
0010
0000
0010
0000
,
1010
0000
1000
0000
1100
0000
0010
0000
0000
0000
0001
0000
1000
0100
0010
0000
,
0010
0000
0001
0000
0101
0000
0010
0000
0000
0000
1000
0001
1000
0000
0100
0000
,
1000
0000
0010
0000
0011
0000
0100
0000
0000
0000
0010
0000
0100
0010
0100
0000
,
0001
0000
0100
0000
1100
0000
0010
0000
0000
0000
0100
0010
0100
0000
0100
0000
,
1001
0000
0100
0000
0011
0000
0100
1000
0000
1000
0100
0010
0100
0010
0001
0000
,
1001
0000
0100
0000
1010
0000
0100
0001
0000
0001
0100
0010
0100
0010
1000
0000
,
1000
0100
1001
0010
0200
0310
0110
1000
,
0001
0000
0010
0000
1001
0000
0100
0000
0020
0000
0130
0000
1000
1000
0001
0000
,
2000
3010
0002
0103
,
2000
3100
0002
0013
,
1000
0000
0000
0000
1100
0000
0000
0000
0010
0001
0010
0000
0110
0000
0000
0000
,
0001
0000
0000
0000
0101
0000
0000
0000
0010
1000
0010
0000
0110
0000
0000
0000
,
2000
0000
3100
0000
0002
0103
0101
0000
,
2000
0000
3010
0000
0002
0013
0011
0000
,
2000
0000
0100
0000
3000
1000
1010
0000
,
0002
0000
0000
0000
0100
0000
0000
0000
0003
0000
0100
0001
0010
0000
0010
0000
,
0110
0000
0001
0000
1010
0000
0100
0000
0000
0000
0010
0000
1000
0100
0010
0000
,
0100
0000
1000
0000
0101
0000
0010
0000
0000
0000
0100
0001
0010
0000
0100
0000
,
1000
0100
1001
0010
0200
0310
0110
1000
,
0001
0000
0100
0000
1001
0000
0010
0000
0200
0000
0310
0100
0010
0000
0010
0000
,
1000
0001
1100
0010
0002
1003
1100
0000
,
0001
0000
1000
0000
0101
0000
0010
0000
2000
0000
3001
0100
0001
0000
0001
0000
,
1000
0100
1001
0010
0200
0310
0110
1000
,
0001
0000
0010
0000
1001
0000
0100
0000
0020
0000
0130
0000
1000
0001
0100
0000
;

//---------------dance-single - ----------------
#NOTES:
     dance-single:
     :
     Medium:
     8:
     0.332103,0.363930,0.209102,0.369004,0.000000,189.000000,172.000000,17.000000,30.000000,0.000000,0.000000,0.332103,0.363930,0.209102,0.369004,0.000000,189.000000,172.000000,17.000000,30.000000,0.000000,0.000000:
0000
0000
0000
0000
,
1000
0002
0100
1003
,
0001
2000
0100
3001
,
0010
1000
0200
0301
,
0010
1000
0200
0301
,
2000
3000
0100
1000
0020
0000
0130
0000
,
0002
0003
0100
0001
0020
0000
0130
0000
,
1000
0100
0001
0100
2000
0000
3010
0000
,
1000
0010
0001
0010
2000
0000
3100
0000
,
1000
0100
0010
0001
0000
1000
1100
0000
,
0001
0100
0010
1000
0000
0001
0101
0000
,
1000
0100
0010
0100
0000
0100
0110
0000
,
0001
0100
0010
0100
0000
0100
0100
0110
,
1000
0001
0010
1000
0000
0010
0001
1100
,
0001
1000
0010
0001
0000
0010
1000
1001
,
1000
0100
0001
0100
2000
3000
0110
1000
,
0001
0010
1000
0010
0002
0003
0110
0001
,
2000
3100
0002
0103
,
2000
3010
0002
0013
,
1000
0000
1100
0000
0010
0010
1010
0000
,
0001
0000
0011
0000
0100
0100
0101
0000
,
0002
1003
2000
3010
,
2000
3001
0002
0013
,
0200
1000
0001
1300
,
0020
0000
0001
0000
1000
0000
0031
0001
,
1000
0001
0020
0000
0130
0000
1010
0000
,
0001
1000
0020
0000
0130
0000
0011
0000
,
0100
0100
0001
0000
2000
0000
3100
0000
,
0010
0010
0001
0000
2000
0000
3001
1001
,
0001
0100
0001
0001
0002
0000
0013
0000
,
1000
0100
1000
1000
2000
0000
3010
0000
,
0001
0010
1000
0010
0002
0003
1010
0000
,
1000
0100
0001
0100
2000
3000
0101
0100
;

//---------------dance-single - ----------------
#NOTES:
     dance-single:
     :
     Easy:
     4:
     0.173959,0.181273,0.000000,0.418204,0.000000,99.000000,99.000000,0.000000,34.000000,0.000000,0.000000,0.173959,0.181273,0.000000,0.418204,0.000000,99.000000,99.000000,0.000000,34.000000,0.000000,0.000000:
0000
0000
0000
0000
,
1000
0002
0000
0003
,
1000
0002
0000
0003
,
0010
0100
0020
0030
,
0100
0010
0200
0300
,
1000
0100
2000
3000
,
0001
0100
0002
0003
,
0010
1000
0020
0030
,
0001
0010
0002
0003
,
1000
0002
0003
0001
,
1000
0002
0003
0001
,
0010
0200
0300
0100
,
0010
0200
0300
0100
,
1000
0002
0000
0103
,
1000
0002
0000
0013
,
1000
0100
2000
3000
,
0100
0001
0200
0300
,
2000
3010
2000
3000
,
0002
0013
0002
0003
,
0100
0010
0100
0100
,
0010
0100
0010
0010
,
0002
0013
2000
3100
,
0002
0103
2000
3010
,
0200
0010
0000
0310
,
0020
0100
0000
0130
,
0001
0002
0000
0013
,
1000
2000
0000
3100
,
0001
0100
0002
0003
,
1000
0100
2000
3000
,
0010
0010
0020
0030
,
0100
0100
0200
0300
,
0001
0001
0002
0003
,
1000
1000
2000
3001
;

//---------------dance-single - ----------------
#NOTES:
     dance-single:
     :
     Beginner:
     1:
     0.059743,0.098401,0.000000,0.024600,0.000000,34.000000,34.000000,0.000000,2.000000,0.000000,0.000000,0.059743,0.098401,0.000000,0.024600,0.000000,34.000000,34.000000,0.000000,2.000000,0.000000,0.000000:
0000
0000
0000
0000
,
1000
0000
0000
0000
,
1000
0000
0000
0000
,
0001
0000
0000
0000
,
0001
0000
0000
0000
,
0100
0000
0000
0000
,
0100
0000
0000
0000
,
0010
0000
0000
0000
,
0010
0000
0000
0000
,
1000
0000
0000
0000
,
1000
0000
0000
0000
,
0001
0000
0000
0000
,
0001
0000
0000
0000
,
1000
0000
0000
0000
,
1000
0000
0000
0000
,
0001
0000
0000
0000
,
0001
0000
0000
0000
,
1000
0000
0000
0000
,
1000
0000
0000
0000
,
0100
0000
0010
0000
,
0100
0000
0010
0000
,
0001
0000
0000
0000
,
0001
0000
0000
0000
,
2000
0000
0000
3000
,
0002
0000
0000
0003
,
1000
0000
0000
0000
,
0001
0000
0000
0000
,
0010
0000
0000
0000
,
0100
0000
0000
0000
,
0001
0000
0000
0000
,
1000
0000
0000
0000
,
0100
0000
0000
0000
,
0010
0000
0000
0000
;

//---------------dance-single - FNF Hard----------------
#NOTES:
     dance-single:
     :
     Edit:
     7:
     0.217888,0.261839,0.000000,0.565806,0.049200,124.000000,124.000000,0.000000,46.000000,0.000000,0.000000,0.217888,0.261839,0.000000,0.565806,0.049200,124.000000,124.000000,0.000000,46.000000,0.000000,0.000000:
// measure 0
0000
0000
0000
0000
,  // measure 1
0010
0000
0000
0000
0002
0000
0000
0003
0002
0000
0000
0000
0003
0000
0000
0000
,  // measure 2
0010
0000
0000
0000
0002
0000
0000
0003
0002
0000
0000
0000
0003
0000
0000
0000
,  // measure 3
0200
0300
2000
3000
0002
0000
0003
0000
,  // measure 4
0200
0300
2000
3000
0002
0000
0003
0000
,  // measure 5
0200
0000
0300
0000
0001
0000
1000
0000
0200
0000
0000
0300
0000
0000
0000
0000
,  // measure 6
0200
0000
0300
0000
0001
0000
1000
0000
0200
0000
0000
0300
0000
0000
0000
0000
,  // measure 7
0001
0100
0000
1000
0020
0000
0030
0000
,  // measure 8
0001
0100
0000
1000
0020
0000
0030
0000
,  // measure 9
1000
0001
0200
0000
0000
0300
0000
0000
,  // measure 10
1000
0001
0200
0000
0000
0300
0000
0000
,  // measure 11
0100
0001
2000
0000
0000
3000
0000
0000
,  // measure 12
0100
0001
2000
0000
0000
3000
0000
0000
,  // measure 13
0010
0001
2000
0000
0000
0000
3000
0000
,  // measure 14
0010
0001
2000
0000
0000
0000
3000
0010
,  // measure 15
1000
0000
0000
0000
0001
0000
0000
0000
0000
0000
0000
0000
0010
1000
0000
0000
0200
0000
0000
0000
0000
0000
0000
0000
0300
0000
0000
0000
0010
0000
0000
0000
,  // measure 16
1000
0000
0000
0000
0001
0000
0000
0000
0000
0000
0000
0000
0010
1000
0000
0000
0200
0000
0000
0000
0000
0000
0000
0000
0300
0000
0000
0000
0000
0000
0000
0000
,  // measure 17
0020
0000
0000
0030
0002
0000
0003
0000
2000
0000
0000
0000
3000
0000
0000
0000
,  // measure 18
0020
0000
0000
0030
0002
0000
0003
0000
2000
0000
0000
0000
3000
0000
0000
0000
,  // measure 19
0100
0000
0000
0000
0010
0000
0000
0000
0100
0100
0100
0000
0010
0000
0000
0000
,  // measure 20
0100
0000
0000
0000
0010
0000
0000
0000
0100
0100
0100
0000
0010
0000
0000
0000
,  // measure 21
0020
0000
0000
0030
0002
0000
0003
0000
2000
0000
0000
3000
0000
0000
0000
0000
,  // measure 22
0020
0000
0000
0030
0002
0000
0003
0000
2000
0000
0000
3000
0000
0000
0000
0000
,  // measure 23
0002
0000
0000
0003
,  // measure 24
0002
0000
0000
0003
,  // measure 25
0010
0001
2000
0000
0000
0000
3000
0000
,  // measure 26
0010
0001
2000
0000
0000
0000
3000
0010
,  // measure 27
1000
0000
0000
0000
0001
0000
0000
0000
0000
0000
0000
0000
0010
1000
0000
0000
0200
0000
0000
0000
0000
0000
0000
0000
0300
0000
0000
0000
0010
0000
0000
0000
,  // measure 28
1000
0000
0000
0000
0001
0000
0000
0000
0000
0000
0000
0000
0010
1000
0000
0000
0200
0000
0000
0000
0000
0000
0000
0000
0300
0000
0000
0000
0000
0000
0000
0000
,  // measure 29
0010
0001
1000
0010
0200
0000
0300
0000
,  // measure 30
0010
0001
1000
0010
0200
0000
0300
0010
,  // measure 31
1000
0000
0000
0000
0001
0000
0000
0000
0000
0000
0000
0000
0010
1000
0000
0000
0200
0000
0000
0000
0000
0000
0000
0000
0300
0000
0000
0000
0010
0000
0000
0000
,  // measure 32
1000
0000
0000
0000
0001
0000
0000
0000
0000
0000
0000
0000
0010
1000
0000
0000
0200
0000
0000
0000
0000
0000
0000
0000
0300
0000
0000
0000
0000
0000
0000
0000
;
