#TITLE:Bopeebo;
#SUBTITLE:[B-Side Remix];
#ARTIST:JADS;
#TITLETRANSLIT:;
#SUBTITLETRANSLIT:;
#ARTISTTRANSLIT:;
#GENRE:Friday Night Funkin';
#CREDIT:;
#BANNER:Bopeebo [B-Side Remix].png;
#BACKGROUND:../bg.png;
#LYRICSPATH:;
#CDTITLE:../cdtitle.png;
#MUSIC:Bopeebo [B-Side Remix].ogg;
#OFFSET:1.956000;
#SAMPLESTART:0.043000;
#SAMPLELENGTH:15.000000;
#LASTBEATHINT:1.912000;
#SELECTABLE:YES;
#BPMS:0.000000=120.000000
;
#STOPS:
;
#BGCHANGES: -1.000=Bopeebo [B-Side Remix].avi=1.000=0=0=0=StretchNoLoop====,
99999=-nosongbg-=1.000=0=0=0 // don't automatically add -songbackground-
;
#KEYSOUNDS:;
#ATTACKS:;

//---------------dance-single - FNF Hard----------------
#NOTES:
     dance-single:
     :
     Edit:
     13:
     0.475320,0.468080,0.000000,1.019154,0.614490,222.000000,222.000000,0.000000,68.000000,0.000000,0.000000,0.475320,0.468080,0.000000,1.019154,0.614490,222.000000,222.000000,0.000000,68.000000,0.000000,0.000000:
0000
0000
0000
0000
,
0001
0000
0000
0000
0000
0000
0200
0000
0000
0000
0000
0300
0200
0000
0000
0000
0000
0000
0000
0000
0300
0000
0000
0000
0000
0000
0000
0000
0000
0000
0000
0000
,
1000
0000
0000
0000
0000
0000
0020
0000
0000
0000
0000
0030
0020
0000
0000
0000
0000
0000
0000
0000
0030
0000
0000
0000
0000
0000
0000
0000
0000
0000
0000
0000
,
0001
0000
0000
0000
0000
0000
2000
0000
0000
0000
0000
3000
0200
0000
0000
0000
0000
0000
0000
0000
0300
0000
0000
0000
0100
0000
0000
0000
0100
0000
0100
0000
,
1000
0000
0000
0000
0000
0000
0002
0000
0000
0000
0000
0003
0020
0000
0000
0000
0000
0000
0000
0000
0030
0000
0000
0000
0010
0000
0000
0000
0010
0000
0010
0000
,
2000
0000
0000
0000
3000
0000
0000
0000
0001
0000
0010
0000
0000
0000
2000
0000
0000
0000
0000
0000
3000
0000
0000
0000
2000
0000
0000
0000
0000
0000
0000
3000
,
0002
0000
0000
0000
0003
0000
0000
0000
1000
0000
0100
0000
0000
0000
0002
0000
0000
0000
0000
0000
0003
0000
0000
0000
0002
0000
0000
0000
0000
0000
0000
0003
,
0010
0000
0010
0000
0100
0000
0000
0000
0100
0000
0000
0000
1000
0000
0002
0000
0000
0000
0000
0000
0003
0000
0000
0000
0002
0000
0000
0003
0001
0000
0001
0000
,
0100
0000
0100
0000
0010
0000
0000
0000
0010
0000
0000
0000
0001
0000
2000
0000
0000
0000
0000
0000
3000
0000
0000
0000
2000
0000
0000
3000
1000
0000
1000
0000
,
0001
0000
0000
0000
0100
0000
0000
0000
2000
0000
0000
3000
0100
0000
2000
0000
0000
3000
0000
0000
2000
0000
0000
3000
0000
0000
2000
0000
0000
0000
0000
3000
,
1000
0000
0000
0000
0010
0000
0000
0000
0002
0000
0000
0003
0010
0000
0002
0000
0000
0003
0000
0000
0002
0000
0000
0003
0000
0000
0002
0000
0000
0000
0000
0003
,
1000
0000
1000
0000
0010
0000
0000
0000
0002
0000
0000
0000
0000
0003
1000
0000
0000
0000
1000
0000
0010
0000
0000
0000
0002
0000
0000
0000
0000
0000
0000
0003
,
0001
0000
0001
0000
0100
0000
0000
0000
2000
0000
0000
0000
0000
3000
0001
0000
0000
0000
0001
0000
0100
0000
0000
0000
2000
0000
0000
0000
0000
0000
0000
3000
,
0001
0000
1000
0000
0000
0000
0001
0000
0000
0000
0200
0000
0000
0000
0000
0000
0000
0300
0001
0000
1000
0000
0000
0000
0001
0000
0000
0000
0000
0000
0000
0000
,
1000
0000
0001
0000
0000
0000
1000
0000
0000
0000
0020
0000
0000
0000
0000
0000
0000
0030
1000
0000
0001
0000
0000
0000
1000
0000
0000
0000
0001
0000
0000
0000
,
1000
0000
0001
1000
0000
0001
0010
0000
0100
0000
0010
0000
0100
0000
1000
0000
,
0001
0000
1000
0001
0000
1000
0100
0000
0010
0000
0100
0000
0010
0000
0000
0000
,
0020
0000
0000
0000
0000
0000
0000
0030
0002
0000
0000
0000
0000
0003
0200
0000
0000
0000
0000
0000
0000
0000
0300
0000
0000
0000
0100
0000
0000
0000
0100
0000
,
0200
0000
0000
0000
0000
0000
0000
0300
2000
0000
0000
0000
0000
3000
0020
0000
0000
0000
0000
0000
0000
0000
0030
0000
0000
0000
0010
0000
0000
0000
0010
0000
,
1000
0000
1000
0000
0001
0000
0000
1000
0000
1000
1000
0000
0001
0000
0001
0001
,
0001
0000
0001
0000
1000
0000
0000
0001
0000
0001
0001
0000
1000
0000
1000
1000
,
0020
0000
0000
0000
0000
0000
0000
0030
0002
0000
0000
0000
0000
0003
0200
0000
0000
0000
0000
0000
0000
0000
0300
0000
0000
0000
0100
0000
0000
0000
0100
0000
,
0200
0000
0000
0000
0000
0000
0000
0300
2000
0000
0000
0000
0000
3000
0020
0000
0000
0000
0000
0000
0000
0000
0030
0000
0000
0000
0010
0000
0000
0000
0010
0000
,
0020
0000
0000
0000
0000
0000
0000
0000
0000
0000
0000
0000
0000
0000
0000
0030
0010
0000
0000
0000
0010
0000
0000
0000
0010
0000
0010
0000
0010
0000
0010
0000
,
0200
0000
0000
0000
0000
0000
0000
0000
0000
0000
0000
0000
0000
0000
0000
0300
0100
0000
0000
0000
0100
0000
0000
0000
0100
0000
0100
0000
0100
0000
0100
0000
,
0001
0000
0000
0000
0100
0000
0000
0000
2000
0000
0000
3000
0100
0000
2000
0000
0000
3000
0000
0000
2000
0000
0000
3000
0000
0000
2000
0000
0000
0000
0000
3000
,
1000
0000
0000
0000
0010
0000
0000
0000
0002
0000
0000
0003
0010
0000
0002
0000
0000
0003
0000
0000
0002
0000
0000
0003
0000
0000
0002
0000
0000
0000
0000
0003
,
1000
0000
1000
0000
0010
0000
0000
0000
0002
0000
0000
0000
0000
0003
1000
0000
0000
0000
1000
0000
0010
0000
0000
0000
0002
0000
0000
0000
0000
0000
0000
0003
,
0001
0000
0001
0000
0100
0000
0000
0000
2000
0000
0000
0000
0000
3000
0001
0000
0000
0000
0001
0000
0100
0000
0000
0000
2000
0000
0000
0000
0000
0000
0000
3000
,
0001
0000
1000
0000
0000
0000
0001
0000
0000
0000
0200
0000
0000
0000
0000
0000
0000
0300
0001
0000
1000
0000
0000
0000
0001
0000
0000
0000
0000
0000
0000
0000
,
1000
0000
0001
0000
0000
0000
1000
0000
0000
0000
0020
0000
0000
0000
0000
0000
0000
0030
1000
0000
0001
0000
0000
0000
1000
0000
0000
0000
0001
0000
0000
0000
,
1000
0000
0001
1000
0000
0001
0020
0000
0230
0000
0320
0000
0230
0000
1300
0000
,
0001
0000
1000
0001
0000
1000
0200
0000
0320
0000
0230
0000
0320
0000
0030
0000
;

//---------------dance-single - ----------------
#NOTES:
     dance-single:
     :
     Hard:
     12:
     0.503154,0.492716,0.419652,0.404664,0.329726,235.000000,207.000000,28.000000,27.000000,0.000000,0.000000,0.503154,0.492716,0.419652,0.404664,0.329726,235.000000,207.000000,28.000000,27.000000,0.000000,0.000000:
// measure 0
0000
0000
0000
0000
,  // measure 1
0100
0000
0000
0001
0000
0000
2100
0000
0000
0000
3001
0000
0101
0000
0000
0000
,  // measure 2
0010
0000
0000
1000
0000
0000
0012
0000
0000
0000
1003
0000
1010
0000
0000
0000
,  // measure 3
0100
0000
0000
0100
0000
0000
2010
0000
0000
0000
3100
0000
1001
0000
1000
0000
,  // measure 4
0010
0000
0000
0010
0000
0000
0102
0000
0000
0000
0013
0000
1001
0000
0001
0000
,  // measure 5
0100
0000
0000
0000
0010
1000
0000
0020
0000
0000
0130
0000
0110
0000
0000
0000
,  // measure 6
0010
0000
0000
0000
0100
0001
0000
0200
0000
0000
0310
0000
0110
0000
0000
0000
,  // measure 7
0001
0010
0001
0000
1000
0000
0001
0020
0000
0000
0030
0000
1010
0000
0010
0000
,  // measure 8
0001
0100
0001
0000
1000
0000
0001
0200
0000
0000
0300
0000
1100
0000
0100
0000
,  // measure 9
0001
0000
0100
0000
0001
0000
0100
0010
0000
0000
1000
0000
1010
0000
0000
0000
,  // measure 10
0001
0000
0010
0000
0001
0000
0010
0100
0000
0000
1000
0000
1100
0000
0000
0000
,  // measure 11
1000
0000
1000
0000
0001
0000
0000
0010
0000
0000
0010
0000
1010
0000
0000
0000
,  // measure 12
0001
0000
0001
0000
1000
0000
0000
0100
0000
0000
0100
0000
0101
0000
0000
0000
,  // measure 13
1000
0000
0000
0010
0000
0020
0000
0000
0000
0000
0130
0000
1010
0000
0000
0000
,  // measure 14
0001
0000
0000
0010
0000
0020
0000
0000
0000
0000
0130
0000
0011
0000
0001
0000
,  // measure 15
1000
0000
0001
0100
0000
0010
1000
0000
0100
0000
0010
0000
0100
0000
0010
0000
,  // measure 16
0001
0000
1000
0100
0000
0010
0001
0000
0100
0000
0010
0000
0100
0000
0000
0000
,  // measure 17
0020
0000
0000
0000
2030
0000
0000
3002
0000
0000
0003
0000
0101
0000
0000
0000
,  // measure 18
0002
0000
0000
0000
0023
0000
0000
0230
0000
0000
0300
0000
1100
0000
0000
0000
,  // measure 19
1000
0000
1000
0000
0001
0000
0000
1000
0000
0000
1000
0000
0001
0000
0010
0000
,  // measure 20
0100
0000
0100
0000
0010
0000
0000
0100
0000
0000
0100
0000
0010
0000
0001
0000
,  // measure 21
0200
0000
0000
0000
0302
0000
0000
2003
0000
0000
3010
0000
0110
0000
0000
0000
,  // measure 22
2000
0000
0000
0000
3200
0000
0000
0320
0000
0000
0031
0000
1001
0000
0000
0000
,  // measure 23
0002
0000
0000
0000
0100
0000
0000
0000
1003
0000
1000
0000
0100
0010
0001
0000
,  // measure 24
2000
0000
0000
0000
0100
0000
0000
0000
3001
0000
0001
0000
0100
0010
1000
0000
,  // measure 25
0001
0000
0010
0000
0001
0000
0010
0100
0000
0000
1000
0000
1100
0000
0010
0000
,  // measure 26
0001
0000
0100
0000
0001
0000
0100
0010
0000
0000
1000
0000
1010
0000
0100
0000
,  // measure 27
1000
0000
1000
0000
0001
0000
0000
0100
0000
0000
0100
0000
1100
0000
0000
0000
,  // measure 28
0001
0000
0001
0000
1000
0000
0000
0010
0000
0000
0010
0000
0011
0000
0000
0000
,  // measure 29
1000
0000
0000
0100
0000
0200
0000
0000
0000
0000
0310
0000
1100
0000
0000
0000
,  // measure 30
0001
0000
0000
0100
0000
0200
0000
0000
0000
0000
0310
0000
0101
0000
0001
0000
,  // measure 31
1000
0000
0001
0010
0000
0100
1000
0000
0010
0000
0100
0000
0010
0000
0100
0000
,  // measure 32
0001
0000
1000
0010
0000
0100
0001
0000
0010
0000
0100
0000
0020
0000
0130
0000
;

//---------------dance-single - ----------------
#NOTES:
     dance-single:
     :
     Medium:
     8:
     0.342573,0.343590,0.059950,0.269776,0.089925,160.000000,156.000000,4.000000,18.000000,0.000000,0.000000,0.342573,0.343590,0.059950,0.269776,0.089925,160.000000,156.000000,4.000000,18.000000,0.000000,0.000000:
// measure 0
0000
0000
0000
0000
,  // measure 1
1000
0000
0000
0001
0000
0000
0002
0000
0000
0000
0003
0000
0001
0000
0000
0000
,  // measure 2
0001
0000
0000
1000
0000
0000
2000
0000
0000
0000
3000
0000
1000
0000
0000
0000
,  // measure 3
0010
0000
0000
0100
0000
0000
2000
0000
0000
0000
3000
0000
1000
0000
0100
0000
,  // measure 4
0010
0000
0000
0100
0000
0000
0002
0000
0000
0000
0003
0000
0001
0000
0100
0000
,  // measure 5
0010
0000
0000
0000
0100
0000
0000
0002
0000
0000
0003
0000
0101
0000
0000
0000
,  // measure 6
0010
0000
0000
0000
0100
0000
0000
2000
0000
0000
3000
0000
1100
0000
0000
0000
,  // measure 7
1000
0000
0010
0000
0100
0000
0000
0020
0000
0000
0030
0000
0110
0000
0000
0000
,  // measure 8
0001
0000
0010
0000
0100
0000
0000
0020
0000
0000
0030
0000
0110
0000
0000
0000
,  // measure 9
0100
1000
0010
0100
0000
0001
1000
0000
,  // measure 10
0010
1000
0100
0010
0000
0001
1000
0000
,  // measure 11
0100
0000
0100
0000
0100
0000
0000
0010
0000
0000
0100
0000
0010
0000
0000
0000
,  // measure 12
0001
0000
0001
0000
0001
0000
0000
1000
0000
0000
0001
0000
1000
0000
0000
0000
,  // measure 13
0010
0000
2000
0000
3100
1000
1000
0000
,  // measure 14
0010
0000
0002
0000
0103
0001
0001
0000
,  // measure 15
0010
0100
0010
0000
1000
0010
1000
0000
,  // measure 16
0100
0010
0100
0000
0001
0100
0001
0000
,  // measure 17
1000
0100
0002
0003
,  // measure 18
0001
0100
2000
3000
,  // measure 19
1000
0000
0010
0000
0100
0010
0010
0000
,  // measure 20
0100
0000
0001
0000
1000
0001
0001
0000
,  // measure 21
0100
0001
0020
0030
,  // measure 22
0100
1000
0020
0030
,  // measure 23
0200
0000
0010
0310
,  // measure 24
0020
0000
0100
0130
,  // measure 25
0010
1000
0100
0010
0000
0001
1000
0000
,  // measure 26
0100
1000
0010
0100
0000
0001
1000
0000
,  // measure 27
0010
0000
0010
0000
0010
0000
0000
0100
0000
0000
0010
0000
0100
0000
0000
0000
,  // measure 28
0001
0000
0001
0000
0001
0000
0000
1000
0000
0000
0001
0000
1000
0000
0000
0000
,  // measure 29
0100
0000
2000
0000
3010
1000
1000
0000
,  // measure 30
0100
0000
0002
0000
0013
0001
0001
0000
,  // measure 31
0100
0010
0100
0000
1000
0100
1000
0000
,  // measure 32
0010
0100
0010
0000
0001
0010
0001
0000
;

//---------------dance-single - ----------------
#NOTES:
     dance-single:
     :
     Easy:
     5:
     0.218390,0.245421,0.089925,0.209826,0.000000,102.000000,96.000000,6.000000,14.000000,0.000000,0.000000,0.218390,0.245421,0.089925,0.209826,0.000000,102.000000,96.000000,6.000000,14.000000,0.000000,0.000000:
// measure 0
0000
0000
0000
0000
,  // measure 1
0100
2000
3000
1000
,  // measure 2
0010
0200
0300
0100
,  // measure 3
0001
0010
0002
0003
,  // measure 4
1000
0100
2000
3000
,  // measure 5
0001
0000
0001
0101
,  // measure 6
1000
0000
1000
1100
,  // measure 7
0010
0100
0020
0030
,  // measure 8
0001
1000
0002
0003
,  // measure 9
0100
0010
0000
0010
,  // measure 10
1000
0100
0000
0100
,  // measure 11
1000
0001
0000
0001
,  // measure 12
0010
1000
0000
1000
,  // measure 13
0010
0020
0030
0011
,  // measure 14
0100
0200
0300
1100
,  // measure 15
0001
1000
0001
0001
,  // measure 16
0100
0010
0100
0100
,  // measure 17
0002
0100
0000
0103
,  // measure 18
2000
0100
0000
3100
,  // measure 19
0001
0001
0000
0010
,  // measure 20
1000
1000
0000
0010
,  // measure 21
0001
0010
0100
0000
,  // measure 22
1000
0010
0100
0000
,  // measure 23
0020
0000
0000
0030
,  // measure 24
0200
0000
0000
0300
,  // measure 25
0010
0100
0000
0100
,  // measure 26
0001
0010
0000
0010
,  // measure 27
0001
1000
0000
1000
,  // measure 28
0100
0001
0000
0001
,  // measure 29
0100
0200
0300
1100
,  // measure 30
0010
0020
0030
0011
,  // measure 31
1000
0001
1000
1000
,  // measure 32
0010
0100
0010
0010
;

//---------------dance-single - ----------------
#NOTES:
     dance-single:
     :
     Beginner:
     1:
     0.072797,0.119900,0.000000,0.059950,0.000000,34.000000,34.000000,0.000000,4.000000,0.000000,0.000000,0.072797,0.119900,0.000000,0.059950,0.000000,34.000000,34.000000,0.000000,4.000000,0.000000,0.000000:
0000
0000
0000
0000
,
1000
0000
0000
0000
,
1000
0000
0000
0000
,
0001
0000
0000
0000
,
0001
0000
0000
0000
,
0010
0000
0000
0000
,
0100
0000
0000
0000
,
1000
0000
0000
0000
,
0001
0000
0000
0000
,
1000
0000
0000
0000
,
1000
0000
0000
0000
,
0010
0000
0000
0000
,
0010
0000
0000
0000
,
0001
0000
0000
0000
,
0001
0000
0000
0000
,
0100
0000
0000
0000
,
0100
0000
0000
0000
,
0020
0000
0030
0000
,
0002
0000
0003
0000
,
1000
0000
1000
0000
,
0100
0000
0100
0000
,
1000
0000
0000
0000
,
1000
0000
0000
0000
,
0020
0000
0030
0000
,
0020
0000
0030
0000
,
1000
0000
0000
0000
,
1000
0000
0000
0000
,
0100
0000
0000
0000
,
0100
0000
0000
0000
,
0001
0000
0000
0000
,
0001
0000
0000
0000
,
0010
0000
0000
0000
,
0010
0000
0000
0000
;
