#VERSION:0.83;
#TITLE:Body;
#SUBTITLE:;
#ARTIST:Megan Thee Stallion;
#TITLETRANSLIT:;
#SUBTITLETRANSLIT:;
#ARTISTTRANSLIT:;
#GENRE:Popular Songs;
#ORIGIN:;
#CREDIT:;
#BANNER:Body.png;
#BACKGROUND:Body-bg.png;
#PREVIEWVID:;
#JACKET:Body-jacket.png;
#CDIMAGE:;
#DISCIMAGE:;
#LYRICSPATH:;
#CDTITLE:../cdtitle.png;
#MUSIC:Body.ogg;
#OFFSET:2.461000;
#SAMPLESTART:10.304000;
#SAMPLELENGTH:15.000000;
#SELECTABLE:YES;
#BPMS:0.000=94.000;
#STOPS:;
#DELAYS:;
#WARPS:;
#TIMESIGNATURES:0.000=4=4;
#TICKCOUNTS:0.000=4;
#COMBOS:0.000=1;
#SPEEDS:0.000=1.000=0.000=0;
#SCROLLS:0.000=1.000;
#FAKES:;
#LABELS:0.000=Song Start;
#BGCHANGES:3.875=Body.avi=1.000=0=0=0=StretchNoLoop====,
99999=-nosongbg-=1.000=0=0=0 // don't automatically add -songbackground-
;
#KEYSOUNDS:;
#ATTACKS:
;

//---------------dance-single - ----------------
#NOTEDATA:;
#CHARTNAME:;
#STEPSTYPE:dance-single;
#DESCRIPTION:;
#CHARTSTYLE:;
#DIFFICULTY:Challenge;
#METER:14;
#RADARVALUES:0.593695,0.607598,0.195393,0.000000,0.819149,553.000000,527.000000,26.000000,0.000000,44.000000,0.000000,0.000000,0.000000,0.000000,0.593695,0.607598,0.195393,0.000000,0.819149,553.000000,527.000000,26.000000,0.000000,44.000000,0.000000,0.000000,0.000000,0.000000;
#CREDIT:led_light;
#NOTES:
0000
0000
0000
0000
,
0000
0000
0000
0000
,
0000
0000
0000
0000
,
0000
0000
0000
0000
,
0000
0000
0000
0000
,
1000
0100
1000
0100
0010
0100
0010
0100
1000
0100
1000
0100
0001
0100
0001
0100
,
1000
0010
1000
0010
0100
0001
0100
0001
1000
0010
0100
0001
0010
0100
MMMM
0000
,
0001
0010
0001
0010
0100
0010
0100
0010
0001
0010
0001
0010
1000
0010
1000
0010
,
0001
0100
0001
0100
0010
1000
0010
1000
0001
0100
0010
1000
0100
0010
MMMM
0000
,
1000
0100
1000
0000
0100
0010
0001
0000
0100
0000
0110
0000
1000
0001
0010
0000
,
0001
0010
0001
0000
0010
0100
1000
0000
0010
0000
0110
0000
0001
1000
0100
0000
,
1000
0010
1000
0010
0100
0010
0100
0010
1000
0010
1000
0010
0001
0010
0001
0010
,
1000
0100
1000
0100
0010
0001
0010
0001
1000
0100
0010
0001
0100
0010
1000
0000
,
1001
0000
0000
0000
0001
0010
0001
0000
0100
0010
0100
0000
0010
1000
0001
0000
,
0100
0001
0100
0000
0010
1000
0010
0100
0001
1000
0001
0000
1000
0100
0001
0000
,
0100
0000
0000
1000
0000
0000
0100
0000
0000
0000
0000
0000
0010
0000
0000
0001
0000
0000
0010
0000
0000
0100
0000
0000
1000
0000
0000
0000
0100
0000
1000
0000
0000
0000
0000
0000
0001
0000
0000
0100
0000
0000
0001
0000
0000
0000
0000
0000
,
0100
0010
1000
0000
0100
0010
0001
0000
MMMM
0000
0000
0000
0000
0000
0000
0000
,
1000
0100
1000
0000
0010
0100
0010
0100
0001
0100
0010
0000
1000
0100
1000
0100
,
0010
0100
1000
0001
0010
0100
0010
0001
1000
0001
0100
0000
0010
1000
0010
0000
,
0100
0000
0110
0000
0010
0100
0001
1000
0100
0000
0110
0000
0100
0010
0001
0000
,
0100
0100
0100
0100
0100
0100
MMMM
0000
,
1000
0100
1000
0100
0010
0100
0010
0100
1000
0100
1000
0100
0001
0100
0001
0100
,
1000
0010
1000
0010
0100
0001
0100
0001
1000
0010
0100
0001
0010
0100
MMMM
0000
,
0001
0010
0001
0010
0100
0010
0100
0010
0001
0010
0001
0010
1000
0010
1000
0010
,
0001
0100
0001
0100
0010
1000
0010
1000
0001
0100
0010
1000
0100
0010
MMMM
0000
,
1000
0100
1000
0000
0100
0010
0001
0000
0100
0000
0110
0000
1000
0001
0010
0000
,
0001
0010
0001
0000
0010
0100
1000
0000
0010
0000
0110
0000
0001
1000
0100
0000
,
1000
0010
1000
0010
0100
0010
0100
0010
1000
0010
1000
0010
0001
0010
0001
0010
,
1000
0100
1000
0100
0010
0001
0010
0001
1000
0100
0010
0001
0100
0010
1000
0001
,
0100
0001
1000
0000
1100
0000
0000
0000
0010
0001
1000
0000
1010
0000
0000
0000
,
0001
0100
0001
0100
0010
0010
0010
0100
0001
1000
0001
0000
0110
0000
0000
0000
,
0001
0010
0001
0000
1000
0010
1000
0010
0100
0010
1000
0000
0001
0100
0010
0000
,
MMMM
0000
0000
0000
,
0001
0100
0001
0100
1000
0100
0001
1000
0010
0000
0010
0000
0110
0000
0000
0000
,
0100
0001
0100
0000
0011
0000
1000
0100
1000
0000
0010
0000
1001
0000
0000
0000
,
0100
0000
0100
0000
1100
0000
1000
0001
0100
0000
0100
0000
0101
0000
0000
0000
,
0010
0010
0010
0010
MMMM
0000
0000
0000
,
1000
0100
1000
0100
0001
0100
0001
0100
1000
0100
1000
0100
0001
0100
0001
0100
,
1000
0010
1000
0010
0001
0010
0001
0010
1000
0010
0001
1000
0100
0001
MMMM
0000
,
0001
0010
0001
0010
1000
0010
1000
0010
0001
0010
0001
0010
1000
0010
1000
0010
,
0001
0100
0001
0100
1000
0100
1000
0100
0001
0100
1000
0001
0010
1000
MMMM
0000
,
1000
0001
0010
0010
1000
0001
0100
0100
1000
0000
1100
0100
0010
0001
1000
0000
,
0001
1000
0010
0010
0001
1000
0100
0100
0001
0000
0101
0100
0010
1000
0001
0000
,
1000
0100
1000
0100
0001
0100
0001
0100
1000
0010
1000
0010
0001
0010
0001
0010
,
1000
0010
0001
1000
0100
0001
1000
0010
0001
1000
0100
0001
1000
0010
MMMM
0000
,
0110
0000
0000
0000
1001
0000
0001
0100
0000
0000
0100
0000
1001
0010
0000
0000
,
0100
0000
0000
0000
1001
0000
0001
0010
0000
0000
0010
0000
0110
0100
0000
0000
,
1000
0000
0000
0000
0110
0000
0010
0001
0000
0000
0001
0000
0110
1000
0000
0000
,
0001
0000
0000
0000
0110
0000
0010
1000
0000
0000
1000
0000
1001
0001
0000
0001
,
1000
0000
0000
0000
;

//---------------dance-single - ----------------
#NOTEDATA:;
#CHARTNAME:;
#STEPSTYPE:dance-single;
#DESCRIPTION:;
#CHARTSTYLE:;
#DIFFICULTY:Hard;
#METER:10;
#RADARVALUES:0.507808,0.607598,1.285086,0.015030,0.022545,473.000000,302.000000,171.000000,2.000000,0.000000,0.000000,0.000000,0.000000,0.000000,0.507808,0.607598,1.285086,0.015030,0.022545,473.000000,302.000000,171.000000,2.000000,0.000000,0.000000,0.000000,0.000000,0.000000;
#CREDIT:led_light;
#NOTES:
0000
0000
0000
0000
,
0000
0000
0000
0000
,
0000
0000
0000
0000
,
0000
0000
0000
0000
,
0000
0000
0000
0000
,
1100
1100
1001
1001
1100
1100
1001
1001
,
0011
0011
0101
0101
1001
1100
0110
0000
,
0011
0011
1001
1001
0011
0011
1001
1001
,
1100
1100
1010
1010
1001
0011
0110
0000
,
1000
1000
0001
0001
0100
0001
1100
0000
,
0001
0001
1000
1000
0100
1000
0101
0000
,
1100
1100
1010
1010
1100
1100
0101
0101
,
1001
1001
0110
0110
1001
0110
1001
0000
,
0110
0000
0110
0001
1000
0001
0100
0000
,
0010
0010
0001
0010
1000
0000
0101
0000
,
1000
1000
0100
1000
0010
0000
1100
0000
,
0010
0010
0001
1000
0001
0000
0000
0000
,
1000
0100
1000
0000
0100
0000
0010
0000
0001
0100
0001
0000
0100
0000
0010
0000
,
1000
0100
1000
0000
0001
0000
0001
0000
0010
0000
1000
0000
0010
0001
0010
0000
,
0001
1000
0110
0000
1000
0001
0110
0000
,
0200
0010
0010
0010
0010
0010
0300
0000
,
1100
1100
1001
1001
1100
1100
1001
1001
,
0011
0011
0101
0101
1001
1100
0110
0000
,
0011
0011
1001
1001
0011
0011
1001
1001
,
1100
1100
1010
1010
1001
0011
0110
0000
,
1000
1000
0001
0001
0100
0001
1100
0000
,
0001
0001
1000
1000
0100
1000
0101
0000
,
1100
1100
1010
1010
1100
1100
0101
0101
,
1001
1001
0110
0110
1001
0110
1001
0000
,
1000
0100
1100
0000
0001
0100
0101
0000
,
0010
0010
0100
0100
0010
0100
0110
0000
,
0001
0001
1000
0001
1000
1000
1100
0010
,
0100
0000
0000
0000
,
0010
0001
0010
0000
0001
0000
0100
0000
0010
0000
1000
0000
1001
0000
0000
0000
,
1000
0100
1000
0000
0010
0000
0100
0000
0001
0000
1000
0000
0110
0000
0000
0000
,
0001
0010
0011
0000
1000
0010
1010
0000
,
0200
0010
0010
0010
0300
0000
0000
0000
,
1010
1010
0011
0011
1100
1100
1001
1001
,
0011
0101
1100
0011
1010
1100
0110
0000
,
0101
0101
1100
1100
0011
0011
1001
1001
,
1100
1010
0011
1100
0101
0011
0110
0000
,
1010
1010
0011
0011
1010
0011
0110
0000
,
1100
1100
0101
0101
1100
0101
0110
0000
,
1100
1100
0101
0101
0011
0011
1010
1010
,
1001
1001
0110
0110
1001
0110
1001
0010
,
0110
0000
0001
1000
0000
0001
1000
0000
,
0100
0000
1001
0000
0010
0100
0100
0000
,
1000
0000
0110
0001
0000
1000
0001
0000
,
0100
0000
1001
0000
0010
0001
0100
0000
,
1000
0000
0000
0000
;

//---------------dance-single - ----------------
#NOTEDATA:;
#CHARTNAME:;
#STEPSTYPE:dance-single;
#DESCRIPTION:;
#CHARTSTYLE:;
#DIFFICULTY:Medium;
#METER:8;
#RADARVALUES:0.333886,0.368241,0.187878,0.015030,0.000000,311.000000,286.000000,25.000000,2.000000,0.000000,0.000000,0.000000,0.000000,0.000000,0.333886,0.368241,0.187878,0.015030,0.000000,311.000000,286.000000,25.000000,2.000000,0.000000,0.000000,0.000000,0.000000,0.000000;
#CREDIT:led_light;
#NOTES:
0000
0000
0000
0000
,
0000
0000
0000
0000
,
0000
0000
0000
0000
,
0000
0000
0000
0000
,
0000
0000
0000
0000
,
0100
0100
0100
0100
0100
0100
0100
0100
,
0100
0100
0100
0100
0100
0100
0100
1001
,
0010
0010
0010
0010
0010
0010
0010
0010
,
0010
0010
0010
0010
0010
0010
0010
1001
,
1000
0100
0001
0100
1000
0001
1000
1100
,
0001
0010
1000
0010
0001
1000
0001
0011
,
0100
0100
0100
0100
0100
0100
0100
0100
,
0100
0100
0100
0100
0100
0100
0100
0000
,
1001
0000
0100
0000
0001
1000
0100
0000
,
0010
0010
0001
1000
0001
0000
0101
0000
,
1000
0010
0100
0000
0001
0000
1010
0000
,
0001
0010
0100
0000
0010
0000
0000
0000
,
0011
0000
0100
0100
1100
0000
1000
0010
,
0001
0001
0010
0000
1000
1000
1100
0000
,
0001
0010
1000
0000
0001
0100
1000
0000
,
0020
0100
0100
0030
,
1000
1000
1000
1000
1000
1000
1000
1000
,
1000
1000
1000
1000
1000
1000
1000
0110
,
0001
0001
0001
0001
0001
0001
0001
0001
,
0001
0001
0001
0001
0001
0001
0001
0110
,
0010
1000
0100
1000
0010
0100
0010
1010
,
0100
0001
0010
0001
0100
0010
0100
0101
,
1000
1000
1000
1000
1000
1000
1000
1000
,
1000
1000
1000
1000
1000
1000
1000
0000
,
0001
0010
1000
0000
1000
0100
0001
0000
,
0001
0010
1000
0010
0001
1000
1001
0000
,
0001
0100
0110
0000
1000
0100
0110
0000
,
0100
0000
0000
0000
,
1000
0001
0010
0000
0100
0000
0101
0000
,
0001
1000
0010
0000
0100
0000
1100
0000
,
0001
1000
0010
0000
0100
0001
1000
0000
,
0020
0100
0030
0000
,
1000
1000
0100
0100
1000
1000
0010
0010
,
0100
0100
0001
0001
1000
0010
0100
0000
,
0001
0001
0010
0010
0001
0001
0100
0100
,
0010
0010
1000
1000
0001
0100
0010
0000
,
1000
0100
0001
0100
1000
1000
1100
0000
,
0001
0010
1000
0010
0001
0001
0011
0000
,
0100
0100
0010
0010
0100
0100
0010
0010
,
0001
0001
1000
1000
0010
0100
0001
1000
,
1100
0000
0001
0100
0000
0001
1000
0000
,
0100
0000
1001
0000
0010
0001
0100
0000
,
0001
0000
1010
0010
0000
1000
0001
0000
,
0010
0000
1001
0000
0100
1000
0010
0000
,
0001
0000
0000
0000
;

//---------------dance-single - ----------------
#NOTEDATA:;
#CHARTNAME:;
#STEPSTYPE:dance-single;
#DESCRIPTION:;
#CHARTSTYLE:;
#DIFFICULTY:Easy;
#METER:5;
#RADARVALUES:0.195393,0.239357,0.187878,0.030060,0.000000,182.000000,157.000000,25.000000,4.000000,0.000000,0.000000,0.000000,0.000000,0.000000,0.195393,0.239357,0.187878,0.030060,0.000000,182.000000,157.000000,25.000000,4.000000,0.000000,0.000000,0.000000,0.000000,0.000000;
#CREDIT:led_light;
#NOTES:
0000
0000
0000
0000
,
0000
0000
0000
0000
,
0000
0000
0000
0000
,
0000
0000
0000
0000
,
0000
0000
0000
0000
,
0100
0100
0100
0100
,
0100
0100
0100
1001
,
0010
0010
0010
0010
,
0010
0010
0010
1001
,
0100
0100
0001
1100
,
0010
0010
1000
0011
,
0100
0100
0100
0100
,
0100
0100
0100
0110
,
0110
0001
1000
0000
,
0001
0001
0100
0000
,
0010
1000
0001
0000
,
0010
0100
0010
0000
,
0001
0101
1000
1100
,
0010
0100
0010
0110
,
0002
0003
2000
3000
,
0020
0000
0000
0030
,
0100
0100
0100
0100
,
0100
0100
0100
1001
,
0010
0010
0010
0010
,
0010
0010
0010
1001
,
0100
0100
0001
1100
,
0010
0010
1000
0011
,
0100
0100
0100
0100
,
0100
0100
0100
0010
,
0100
0011
0100
1010
,
0001
1000
0001
0110
,
0001
0010
1000
0010
,
0000
0000
0000
0000
,
0001
0100
0001
1100
,
0001
0010
0001
1010
,
0001
0101
1000
1100
,
0020
0000
0030
0000
,
0100
0100
0100
0100
,
0100
0001
0100
0110
,
0010
0010
0010
0010
,
0010
0001
0010
0110
,
0001
0001
0010
1100
,
1000
1000
0010
0101
,
1000
1000
1000
1000
,
0010
0010
0001
0100
,
1001
0010
0000
0010
,
0100
1000
0000
1000
,
0001
0100
0000
0100
,
1000
0001
0000
0001
,
1000
0000
0000
0000
;

//---------------dance-single - ----------------
#NOTEDATA:;
#CHARTNAME:;
#STEPSTYPE:dance-single;
#DESCRIPTION:;
#CHARTSTYLE:;
#DIFFICULTY:Beginner;
#METER:2;
#RADARVALUES:0.078372,0.110472,0.015030,0.015030,0.000000,73.000000,71.000000,2.000000,2.000000,0.000000,0.000000,0.000000,0.000000,0.000000,0.078372,0.110472,0.015030,0.015030,0.000000,73.000000,71.000000,2.000000,2.000000,0.000000,0.000000,0.000000,0.000000,0.000000;
#CREDIT:led_light;
#NOTES:
0000
0000
0000
0000
,
0000
0000
0000
0000
,
0000
0000
0000
0000
,
0000
0000
0000
0000
,
0000
0000
0000
0000
,
0100
0000
0100
0000
,
0100
0000
0100
0000
,
0010
0000
0010
0000
,
0010
0000
0010
0000
,
0001
0000
1000
0000
,
0001
0000
1000
0000
,
0100
0000
0100
0000
,
0100
0000
0100
0000
,
0110
0000
0000
0000
,
0100
0000
0000
0000
,
0001
0000
0000
0000
,
1000
0000
0000
0000
,
0001
0000
0001
0000
,
0001
0000
0000
0000
,
1000
0000
1000
0000
,
2000
0000
0000
3000
,
0100
0000
0100
0000
,
0100
0000
0100
0000
,
0010
0000
0010
0000
,
0010
0000
0010
0000
,
0001
0000
1000
0000
,
0001
0000
1000
0000
,
0100
0000
0100
0000
,
0100
0000
0100
0000
,
0010
0000
0000
0000
,
0010
0000
0000
0000
,
0001
0000
0001
0000
,
0000
0000
0000
0000
,
1000
0000
0000
0000
,
0001
0000
0000
0000
,
0010
0000
0000
0000
,
0200
0000
0300
0000
,
0010
0000
0010
0000
,
0010
0000
0010
0000
,
0100
0000
0100
0000
,
0100
0000
0100
0000
,
1000
0000
0001
0000
,
1000
0000
0001
0000
,
0010
0000
0010
0000
,
0010
0000
0010
0000
,
0110
0000
0000
0000
,
0100
0000
0000
0000
,
1000
0000
0000
0000
,
0001
0000
0000
0000
,
0010
0000
0000
0000
;

//---------------dance-double - ----------------
#NOTEDATA:;
#CHARTNAME:;
#STEPSTYPE:dance-double;
#DESCRIPTION:;
#CHARTSTYLE:;
#DIFFICULTY:Challenge;
#METER:14;
#RADARVALUES:0.584032,0.607598,0.187878,0.015030,0.789088,544.000000,519.000000,25.000000,2.000000,88.000000,0.000000,0.000000,0.000000,0.000000,0.584032,0.607598,0.187878,0.015030,0.789088,544.000000,519.000000,25.000000,2.000000,88.000000,0.000000,0.000000,0.000000,0.000000;
#CREDIT:led_light;
#NOTES:
// measure 0
00000000
00000000
00000000
00000000
,  // measure 1
00000000
00000000
00000000
00000000
,  // measure 2
00000000
00000000
00000000
00000000
,  // measure 3
00000000
00000000
00000000
00000000
,  // measure 4
00000000
00000000
00000000
00000000
,  // measure 5
00010000
00001000
00010000
00001000
00010000
00001000
00010000
00001000
00000010
00001000
00000010
00001000
00010000
00001000
00010000
00001000
,  // measure 6
00100000
00001000
00100000
00001000
00010000
00001000
00010000
00001000
00000100
00001000
00000100
00001000
00010000
00001000
MMMMMMMM
00000000
,  // measure 7
00001000
00010000
00001000
00010000
00001000
00010000
00001000
00010000
01000000
00010000
01000000
00010000
00001000
00010000
00001000
00010000
,  // measure 8
00000100
00010000
00000100
00010000
00001000
00010000
00001000
00010000
00100000
00010000
00100000
00010000
00001000
00010000
MMMMMMMM
00000000
,  // measure 9
00010000
01000000
10000000
00000000
01000000
00100000
00010000
00000000
01000000
00000000
01100000
00000000
00010000
00001000
00010000
00000000
,  // measure 10
00001000
00000100
00000001
00000000
00000100
00000010
00001000
00000000
00000100
00000000
00000110
00000000
00001000
00010000
00001000
00000000
,  // measure 11
00100000
00010000
00100000
00010000
00100000
00010000
00100000
00010000
10000000
00100000
10000000
00100000
10000000
00100000
10000000
00100000
,  // measure 12
00010000
00001000
00010000
00001000
00010000
00001000
00010000
00001000
00000100
00000010
00000100
00000010
00001000
00000001
00000010
00000000
,  // measure 13
00000110
00000000
00000000
00000000
00000001
00000100
00000010
00000000
00001000
00000100
00001000
00000000
00000100
00000010
00000100
00000000
,  // measure 14
00000001
00000001
00000001
00000000
00000100
00001000
00000010
00000000
00010000
00010000
00001000
00000000
00010000
00010000
01000000
00000000
,  // measure 15
10000000
00000000
00000000
00010000
00000000
00000000
10000000
00000000
00000000
00000000
00000000
00000000
01000000
00000000
00000000
00100000
00000000
00000000
00010000
00000000
00000000
00100000
00000000
00000000
01000000
00000000
00000000
00000000
10000000
00000000
01000000
00000000
00000000
00000000
00000000
00000000
10000000
00000000
00000000
00100000
00000000
00000000
10000000
00000000
00000000
00000000
00000000
00000000
,  // measure 16
00100000
01000000
00010000
00000000
00100000
00001000
00010000
00000000
MMMMMMMM
00000000
00000000
00000000
00000000
00000000
00000000
00000000
,  // measure 17
00100000
00010000
00100000
00000000
00001000
00010000
00001000
00010000
00000010
00001000
00000010
00000000
00010000
00001000
00010000
00001000
,  // measure 18
01000000
00010000
00100000
00000000
01000000
10000000
01000000
00010000
00001000
00010000
00001000
00000000
01000000
00100000
10000000
00000000
,  // measure 19
00100000
00000000
00110000
00000000
00010000
00001000
00010000
00000100
00001000
00000000
00000110
00000000
00000001
00001000
00000010
00000000
,  // measure 20
00000200
00000010
00000010
00000010
00000010
00000310
MMMMMMMM
00000000
,  // measure 21
00001000
00010000
00001000
00010000
00001000
00010000
00001000
00010000
01000000
00010000
01000000
00010000
00001000
00010000
00001000
00010000
,  // measure 22
00000100
00010000
00000100
00010000
00001000
00010000
00001000
00010000
00100000
00010000
00100000
00010000
00001000
00010000
MMMMMMMM
00000000
,  // measure 23
00010000
00001000
00010000
00001000
00010000
00001000
00010000
00001000
00000010
00001000
00000010
00001000
00010000
00001000
00010000
00001000
,  // measure 24
00100000
00001000
00100000
00001000
00010000
00001000
00010000
00001000
00000100
00001000
00000100
00001000
00010000
00001000
MMMMMMMM
00000000
,  // measure 25
00001000
00000010
00000001
00000000
00000010
00000100
00001000
00000000
00000010
00000000
00000110
00000000
00001000
00010000
00001000
00000000
,  // measure 26
00010000
00100000
10000000
00000000
00100000
01000000
00010000
00000000
00100000
00000000
01100000
00000000
00010000
00001000
00010000
00000000
,  // measure 27
00000100
00001000
00000100
00001000
00000100
00001000
00000100
00001000
00000001
00000100
00000001
00000100
00000001
00000100
00000001
00000100
,  // measure 28
00001000
00010000
00001000
00010000
00001000
00010000
00001000
00010000
00100000
01000000
00100000
01000000
00010000
10000000
01000000
00100000
,  // measure 29
00001000
00010000
00001000
00000000
00011000
00000000
00000000
00000000
00100000
00010000
01000000
00000000
10100000
00000000
00000000
00000000
,  // measure 30
00010000
01000000
00010000
01000000
00100000
00100000
00100000
00010000
00001000
00000100
00001000
00000000
00011000
00000000
00000000
00000000
,  // measure 31
00000010
00000100
00000010
00000000
00001000
00000001
00001000
00000001
00000010
00000100
00001000
00000000
00000100
00000010
00000001
00000000
,  // measure 32
MMMMMMMM
00000000
00000000
00000000
,  // measure 33
00000001
00000100
00000001
00000100
00001000
00000100
00000010
00010000
00001000
00000000
00010000
00000000
00011000
00000000
00000000
00000000
,  // measure 34
00100000
00010000
00100000
00000000
11000000
00000000
01000000
00100000
01000000
00000000
00100000
00000000
00011000
00000000
00000000
00000000
,  // measure 35
00010000
00000000
00000100
00000000
00011000
00000000
00010000
00001000
01000000
00000000
00001000
00000000
00110000
00000000
00000000
00000000
,  // measure 36
02000000
00100000
00100000
03100000
MMMMMMMM
00000000
00000000
00000000
,  // measure 37
01000000
00100000
01000000
00100000
01000000
00100000
01000000
00100000
01000000
00010000
01000000
00010000
01000000
10000000
01000000
10000000
,  // measure 38
00010000
00100000
00010000
00100000
00001000
00010000
00001000
00010000
00000100
00001000
00000010
00000001
00000010
00001000
MMMMMMMM
00000000
,  // measure 39
00000100
00000010
00000100
00000010
00000100
00000010
00000100
00000010
00000100
00001000
00000100
00001000
00000100
00000001
00000100
00000001
,  // measure 40
00001000
00000010
00001000
00000010
00010000
00001000
00010000
00001000
01000000
00010000
00100000
10000000
00100000
00010000
MMMMMMMM
00000000
,  // measure 41
01000000
00010000
01000000
00000000
10000000
01000000
10000000
00000000
00010000
00000000
00110000
00000000
00001000
00010000
00001000
00000000
,  // measure 42
00000100
00001000
00000100
00000000
00000001
00000100
00000001
00000000
00001000
00000000
00001010
00000000
00010000
00001000
00010000
00000000
,  // measure 43
00000100
00000010
00000100
00000010
00000100
00000010
00000100
00000010
00001000
00010000
00001000
00010000
00001000
00010000
00001000
00010000
,  // measure 44
00100000
01000000
00100000
01000000
00100000
01000000
00100000
01000000
00010000
10000000
01000000
00100000
00001000
00010000
MMMMMMMM
00000000
,  // measure 45
00011000
00000000
00000000
00000000
01000000
00000000
00001000
00010000
00000000
00000000
00010000
00000000
00011000
00001000
00000000
00000000
,  // measure 46
00100000
00000000
00000000
00000000
10010000
00000000
01000000
00010000
00000000
00000000
00010000
00000000
00011000
00001000
00000000
00000000
,  // measure 47
00000100
00000000
00000000
00000000
00000110
00000000
00001000
00000001
00000000
00000000
00000001
00000000
00000101
00000100
00000000
00000000
,  // measure 48
00001000
00000000
00000000
00000000
00011000
00000000
00100000
00010000
00000000
00000000
00010000
00000000
01010000
01000000
00000000
00001000
,  // measure 49
00010000
00000000
00000000
00000000
;

//---------------dance-double - ----------------
#NOTEDATA:;
#CHARTNAME:;
#STEPSTYPE:dance-double;
#DESCRIPTION:;
#CHARTSTYLE:;
#DIFFICULTY:Hard;
#METER:10;
#RADARVALUES:0.465938,0.607598,0.976966,0.015030,0.022545,434.000000,304.000000,130.000000,2.000000,0.000000,0.000000,0.000000,0.000000,0.000000,0.465938,0.607598,0.976966,0.015030,0.022545,434.000000,304.000000,130.000000,2.000000,0.000000,0.000000,0.000000,0.000000,0.000000;
#CREDIT:led_light;
#NOTES:
00000000
00000000
00000000
00000000
,
00000000
00000000
00000000
00000000
,
00000000
00000000
00000000
00000000
,
00000000
00000000
00000000
00000000
,
00000000
00000000
00000000
00000000
,
00011000
00010000
00011000
00001000
00011000
00010000
00011000
00001000
,
00001010
00000010
00000011
00000001
00000101
00000100
00001100
00000000
,
00011000
00001000
00011000
00010000
00011000
00001000
00011000
00010000
,
01010000
01000000
11000000
10000000
10100000
00100000
00110000
00000000
,
00001000
00010000
00100000
00010000
00001000
00100000
00010000
00011000
,
00010000
00001000
00000100
00001000
00010000
00000100
00001000
00011000
,
00010100
00010100
00011000
00011000
00001010
00001010
00011000
00011000
,
00101000
00101000
00011000
00011000
01010000
10010000
00110000
00000000
,
00011000
00000000
00011000
00010000
01000000
00010000
00001000
00000000
,
00010000
00010000
00000100
00001000
00000010
00000000
00000110
00000000
,
00000001
00000001
00001000
00000001
00001000
00000000
00000011
00000000
,
00000100
00001000
00000010
00010000
00001000
00000000
00000000
00000000
,
00100000
00010000
00100000
00000000
00001000
00000000
00010000
00000000
00000010
00001000
00000010
00000000
00010000
00000000
00001000
00000000
,
00100000
00010000
00100000
00000000
01000000
00000000
10000000
00000000
00100000
00000000
01000000
00000000
00001000
00010000
00001000
00000000
,
00010000
00011000
00000100
00000000
00001000
00011000
01000000
00000000
,
00002000
00010000
00010000
00010000
00010000
00010000
00003000
00000000
,
00011000
00001000
00011000
00010000
00011000
00001000
00011000
00010000
,
01010000
01000000
11000000
10000000
10100000
00100000
00110000
00000000
,
00011000
00010000
00011000
00001000
00011000
00010000
00011000
00001000
,
00001010
00000010
00000011
00000001
00000101
00000100
00001100
00000000
,
00010000
00001000
00000100
00001000
00010000
00000100
00001000
00011000
,
00001000
00010000
00100000
00010000
00001000
00100000
00010000
00011000
,
00101000
00101000
00011000
00011000
01010000
01010000
00011000
00011000
,
00010100
00010100
00011000
00011000
00001010
00001001
00001100
00000000
,
00000010
00001000
00011000
00000000
01000000
00010000
00011000
00000000
,
00100000
00001000
01000000
00001000
00010000
00001000
00110000
00000000
,
00010000
10000000
01000000
10000000
00100000
00010000
00001000
00000000
,
00010000
00000000
00000000
00000000
,
00000100
00001000
00000100
00000000
00000001
00000000
00000100
00000000
00001000
00000000
00000010
00000000
00001010
00000000
00000000
00000000
,
00100000
00010000
00100000
00000000
10000000
00000000
00100000
00000000
00010000
00000000
01000000
00000000
01010000
00000000
00000000
00000000
,
00001000
00000100
00001100
00000000
00010000
01000000
01010000
00000000
,
00002000
00010000
00010000
00010000
00003000
00000000
00000000
00000000
,
00011000
00011000
00101000
00101000
00011000
00011000
00010010
00010010
,
00011000
00110000
01100000
10100000
10010000
11000000
01010000
00000000
,
00011000
00011000
00010100
00010100
00011000
00011000
01001000
01001000
,
00011000
00001100
00000110
00000101
00001001
00000011
00001010
00000000
,
00010000
00001000
00100000
00001000
00010000
00001000
01010000
00000000
,
00001000
00010000
00000100
00010000
00001000
00010000
00001010
00000000
,
00011000
00011000
00110000
00110000
10100000
10100000
00110000
00110000
,
10010000
11000000
01010000
00011000
00001100
00000101
00000110
00000000
,
00001001
00000000
00000001
00000100
00000000
00000001
00001000
00000000
,
00000100
00000000
00011000
00000000
00100000
00001000
00010000
00000000
,
01000000
00000000
10010000
01000000
00000000
10000000
00010000
00000000
,
00100000
00000000
00011000
00000000
00100000
00010000
01000000
00000000
,
00001000
00000000
00000000
00000000
;

//---------------dance-double - ----------------
#NOTEDATA:;
#CHARTNAME:;
#STEPSTYPE:dance-double;
#DESCRIPTION:;
#CHARTSTYLE:;
#DIFFICULTY:Medium;
#METER:8;
#RADARVALUES:0.324224,0.368241,0.150302,0.015030,0.000000,302.000000,282.000000,20.000000,2.000000,0.000000,0.000000,0.000000,0.000000,0.000000,0.324224,0.368241,0.150302,0.015030,0.000000,302.000000,282.000000,20.000000,2.000000,0.000000,0.000000,0.000000,0.000000,0.000000;
#CREDIT:led_light;
#NOTES:
00000000
00000000
00000000
00000000
,
00000000
00000000
00000000
00000000
,
00000000
00000000
00000000
00000000
,
00000000
00000000
00000000
00000000
,
00000000
00000000
00000000
00000000
,
00100000
00100000
00100000
00100000
00100000
00100000
00100000
00100000
,
00100000
00100000
00100000
00100000
00100000
00100000
00100000
00011000
,
00000010
00000010
00000010
00000010
00000010
00000010
00000010
00000010
,
00000010
00000010
00000010
00000010
00000010
00000010
00000010
00001001
,
00000001
00000010
00001000
00000010
00000001
00001000
00000010
00000110
,
00010000
00001000
00000010
00001000
00010000
00100000
01000000
01100000
,
00010000
00010000
00010000
00010000
00010000
00010000
00010000
00010000
,
00010000
00010000
00010000
00010000
00010000
00010000
00010000
00000000
,
00011000
00000000
01000000
00000000
00001000
00001000
00010000
00000000
,
00000100
00010000
00001000
00000100
00010000
00000000
00011000
00000000
,
00000010
00001000
00000100
00000000
00000001
00000000
00001001
00000000
,
00000010
00000001
00000100
00000000
00001000
00000000
00000000
00000000
,
00010000
00000000
00001000
00001000
00001000
00000000
00010000
00010000
,
00010000
01000000
10000000
00000000
00100000
00000000
01100000
00000000
,
10000000
01000000
00010000
00000000
10000000
00100000
00010000
00000000
,
00002000
00010000
00010000
00003000
,
00000100
00000100
00000100
00000100
00000100
00000100
00000100
00000100
,
00000100
00000100
00000100
00000100
00000100
00000100
00000100
00011000
,
01000000
01000000
01000000
01000000
01000000
01000000
01000000
01000000
,
01000000
01000000
01000000
01000000
01000000
01000000
01000000
10010000
,
10000000
01000000
00010000
01000000
10000000
00010000
01000000
01100000
,
00001000
00010000
01000000
00010000
00001000
00000100
00000010
00000110
,
00001000
00001000
00001000
00001000
00001000
00001000
00001000
00001000
,
00001000
00001000
00001000
00001000
00001000
00001000
00001000
00000000
,
00010000
00001000
00000100
00000000
00001000
00010000
01000000
00000000
,
10000000
00100000
01000000
00010000
10000000
00000000
00110000
00000000
,
00001000
00010000
00100000
00000000
00010000
00001000
00000010
00000000
,
00001000
00000000
00000000
00000000
,
00000010
00000000
00000010
00000000
00000001
00000100
00001001
00000000
,
00000100
00000000
00000100
00000000
00000010
00001000
00010010
00000000
,
00001000
00000000
00001000
00000000
00100000
00010000
01010000
00000000
,
20000000
01000000
30000000
00000000
,
01000000
01000000
01000000
01000000
01000000
01000000
01000000
01000000
,
00010000
00010000
00010000
00010000
00001000
00000100
00000001
00000000
,
00000010
00000010
00000010
00000010
00000010
00000010
00000010
00000010
,
00001000
00001000
00001000
00001000
00010000
00100000
10000000
00000000
,
10000000
01000000
00010000
01000000
10000000
00100000
00010000
00000000
,
00001000
00000100
00000001
00000010
00001000
00000010
00000001
00000000
,
00000010
00000010
00000010
00000010
00000010
00000010
00000010
00000010
,
00001000
00001000
00001000
00001000
00010000
00100000
10000000
00000000
,
11000000
00000000
00100000
10000000
00000000
01000000
10000000
00000000
,
00100000
00000000
10010000
00000000
10000000
01000000
00010000
00000000
,
00001000
00000000
00000101
00000001
00000000
00000010
00000001
00000000
,
00000100
00000000
00001001
00000000
00001000
00000100
00000001
00000000
,
00000100
00000000
00000000
00000000
;

//---------------dance-double - ----------------
#NOTEDATA:;
#CHARTNAME:;
#STEPSTYPE:dance-double;
#DESCRIPTION:;
#CHARTSTYLE:;
#DIFFICULTY:Easy;
#METER:4;
#RADARVALUES:0.174995,0.219817,0.127757,0.015030,0.000000,163.000000,146.000000,17.000000,2.000000,0.000000,0.000000,0.000000,0.000000,0.000000,0.174995,0.219817,0.127757,0.015030,0.000000,163.000000,146.000000,17.000000,2.000000,0.000000,0.000000,0.000000,0.000000,0.000000;
#CREDIT:led_light;
#NOTES:
00000000
00000000
00000000
00000000
,
00000000
00000000
00000000
00000000
,
00000000
00000000
00000000
00000000
,
00000000
00000000
00000000
00000000
,
00000000
00000000
00000000
00000000
,
00010000
00010000
00001000
00001000
,
00010000
00010000
10000000
00110000
,
00001000
00001000
00010000
00010000
,
00001000
00001000
00000001
00001010
,
00000100
00001000
00000100
00011000
,
01000000
00010000
01000000
00011000
,
00000100
00000100
00000100
00000100
,
00001000
00001000
00010000
01000000
,
10010000
00000000
00100000
00000000
,
00010000
10000000
00010000
00000000
,
01000000
00001000
00010000
00000000
,
00000100
00001000
00000010
00000000
,
00000100
00000000
00000100
00000000
,
00000001
00001000
00000001
00000000
,
00000010
00000000
00000100
00000000
,
00020000
00000000
00000000
00030000
,
00001000
00001000
00010000
00010000
,
00001000
00001000
00000001
00001100
,
00010000
00010000
00001000
00001000
,
00010000
00010000
10000000
01010000
,
00100000
00010000
00100000
00011000
,
00000010
00001000
00000010
00011000
,
00100000
00100000
00100000
00100000
,
00010000
00010000
00001000
00000010
,
00000001
00000000
00001000
00000000
,
00000100
00000010
00000100
00000000
,
00010000
00001000
00010000
00001000
,
00000000
00000000
00000000
00000000
,
00100000
00010000
01000000
10010000
,
01000000
00010000
00001000
00001100
,
00000010
00001000
00000100
00001001
,
00000020
00000000
00000030
00000000
,
00000001
00000001
00000001
00000001
,
00001000
00001000
00010000
10010000
,
10000000
10000000
10000000
10000000
,
00010000
00010000
00001000
00001001
,
00000010
00000100
00000010
00011000
,
00100000
01000000
00100000
00011000
,
00100000
00100000
00100000
00100000
,
00010000
00010000
00001000
00000010
,
00001001
00000100
00000000
00000100
,
00000000
00001000
00000000
00001000
,
00000000
00010000
00000000
00010000
,
00000000
01000000
00000000
01000000
;
