#VERSION:0.83;
#TITLE:Blue Sugar;
#SUBTITLE:;
#ARTIST:Ren Zotto;
#TITLETRANSLIT:;
#SUBTITLETRANSLIT:;
#ARTISTTRANSLIT:;
#GENRE:にじさんじ;
#ORIGIN:;
#CREDIT:;
#BANNER:Blue Sugar.png;
#BACKGROUND:../bg.png;
#PREVIEWVID:;
#JACKET:Blue Sugar-jacket.png;
#CDIMAGE:;
#DISCIMAGE:;
#LYRICSPATH:;
#CDTITLE:../cdtitle.png;
#MUSIC:Blue Sugar.ogg;
#OFFSET:2.009000;
#SAMPLESTART:30.830999;
#SAMPLELENGTH:15.000000;
#SELECTABLE:YES;
#BPMS:0.000=95.000;
#STOPS:;
#DELAYS:;
#WARPS:;
#TIMESIGNATURES:0.000=4=4;
#TICKCOUNTS:0.000=4;
#COMBOS:0.000=1;
#SPEEDS:0.000=1.000=0.000=0;
#SCROLLS:0.000=1.000;
#FAKES:;
#LABELS:0.000=Song Start;
#BGCHANGES:3.000=Blue Sugar.avi=1.000=0=0=0=StretchNoLoop====,
99999=-nosongbg-=1.000=0=0=0 // don't automatically add -songbackground-
;
#KEYSOUNDS:;
#ATTACKS:
;

//---------------dance-single - ----------------
#NOTEDATA:;
#CHARTNAME:;
#STEPSTYPE:dance-single;
#DESCRIPTION:;
#CHARTSTYLE:;
#DIFFICULTY:Beginner;
#METER:1;
#RADARVALUES:0.046482,0.078423,0.000000,0.083429,0.000000,39.000000,39.000000,0.000000,10.000000,0.000000,0.000000,0.000000,0.000000,0.000000,0.046482,0.078423,0.000000,0.083429,0.000000,39.000000,39.000000,0.000000,10.000000,0.000000,0.000000,0.000000,0.000000,0.000000;
#CREDIT:led_light;
#NOTES:
0000
0000
0000
0000
,
0000
0000
0000
0000
,
0000
0000
0000
0000
,
0000
0000
0000
0000
,
0000
0000
0000
0000
,
0001
0000
0000
0000
,
0010
0000
0000
0000
,
0100
0000
0000
0000
,
1000
0000
0000
0000
,
0001
0000
0000
0000
,
0001
0000
0000
0000
,
1000
0000
0000
0000
,
1000
0000
0000
0000
,
0001
0000
0001
0000
,
0020
0000
0000
0000
,
0030
0000
0010
0000
,
2000
0000
0000
0000
,
3000
0000
1000
0000
,
0020
0000
0000
0000
,
0030
0000
0010
0000
,
0002
0000
0000
0000
,
0003
0000
0000
0000
,
0000
0000
0000
0000
,
1000
0000
0000
0000
,
0100
0000
0000
0000
,
0010
0000
0000
0000
,
0001
0000
0000
0000
,
0100
0000
0000
0000
,
0010
0000
0000
0000
,
0100
0000
0000
0000
,
0010
0000
0000
0000
,
1000
0000
0000
0000
,
1000
0000
0000
0000
,
0001
0000
0000
0000
,
0000
0000
0000
0000
,
1000
0000
1000
0000
,
0020
0000
0000
0000
,
0030
0000
0010
0000
,
0002
0000
0000
0000
,
0003
0000
0001
0000
,
0020
0000
0000
0000
,
0030
0000
0010
0000
,
2000
0000
0000
0000
,
3000
0000
0000
0000
,
0002
0000
0000
0000
,
0003
0000
0000
0000
,
0200
0000
0000
0000
,
0300
0000
0000
0000
;

//---------------dance-single - ----------------
#NOTEDATA:;
#CHARTNAME:;
#STEPSTYPE:dance-single;
#DESCRIPTION:;
#CHARTSTYLE:;
#DIFFICULTY:Easy;
#METER:3;
#RADARVALUES:0.122759,0.176451,0.000000,0.108457,0.000000,103.000000,103.000000,0.000000,13.000000,0.000000,0.000000,0.000000,0.000000,0.000000,0.122759,0.176451,0.000000,0.108457,0.000000,103.000000,103.000000,0.000000,13.000000,0.000000,0.000000,0.000000,0.000000,0.000000;
#CREDIT:led_light;
#NOTES:
0000
0000
0000
0000
,
0000
0000
0000
0000
,
0000
0000
0000
0000
,
0000
0000
0000
0000
,
0000
0000
0000
0000
,
0010
0100
0100
0010
,
1000
0001
0100
0000
,
0001
0100
1000
0000
,
0001
0010
1000
0000
,
0001
0000
1000
0000
,
0100
0010
0100
0010
,
0001
0000
1000
0000
,
0001
0100
0002
0003
,
1000
0000
1000
0100
,
0020
0000
0000
0030
,
1000
0000
0010
0001
,
2000
0000
0000
3000
,
0001
0000
0001
0100
,
0020
0000
0000
0030
,
0001
0000
0010
1000
,
0002
0000
0000
0003
,
1000
0000
0000
0000
,
1000
0000
1000
0001
,
0100
0010
0010
0100
,
0001
1000
0010
0000
,
1000
0010
0001
0010
,
1000
0100
0001
0100
,
1000
0000
0001
0000
,
0010
0100
0010
0100
,
1000
0000
0001
0000
,
1000
0010
2000
3000
,
0001
0010
0000
0010
,
1000
0010
0000
0010
,
0001
0100
0010
0100
,
0002
0000
0000
0003
,
1000
0000
1000
0100
,
0020
0000
0000
0030
,
1000
0000
0010
0001
,
2000
0000
0000
3000
,
0001
0000
0001
0100
,
0020
0000
0000
0030
,
0001
0000
0010
1000
,
0002
0000
0000
0003
,
1000
0000
1000
0000
,
0200
0000
0000
0300
,
0010
0000
0010
0000
,
0002
0000
0000
0000
,
0003
0000
0000
0000
;

//---------------dance-single - ----------------
#NOTEDATA:;
#CHARTNAME:;
#STEPSTYPE:dance-single;
#DESCRIPTION:;
#CHARTSTYLE:;
#DIFFICULTY:Medium;
#METER:5;
#RADARVALUES:0.209763,0.254874,0.125143,0.175200,0.000000,176.000000,161.000000,15.000000,21.000000,0.000000,0.000000,0.000000,0.000000,0.000000,0.209763,0.254874,0.125143,0.175200,0.000000,176.000000,161.000000,15.000000,21.000000,0.000000,0.000000,0.000000,0.000000,0.000000;
#CREDIT:led_light;
#NOTES:
0000
0000
0000
0000
,
0000
0000
0000
0000
,
0000
0000
0000
0000
,
0000
0000
0000
0000
,
0000
0000
0000
0000
,
0001
0010
0001
0001
,
0100
0010
1000
1001
,
0100
0010
0100
0100
,
1000
1000
0001
0001
,
0110
0000
1001
0000
,
0001
0100
0001
0000
1000
0000
0010
0000
,
1000
0000
1000
0000
0001
0100
0010
0000
,
0100
0000
0001
1000
0200
0000
0300
0000
,
0110
0000
0001
0100
0100
0000
0001
0000
,
0020
0000
0100
0031
,
0110
0000
1000
0010
0010
0000
1000
0000
,
0002
0000
0010
0103
,
0110
0000
1000
0100
0100
0000
1000
0000
,
0020
0000
0100
1030
,
0110
0000
0001
0010
0010
0000
0001
0000
,
2000
0000
0010
3100
,
1000
0000
1000
0000
,
0001
0000
0000
0000
0001
0100
0001
0000
,
1000
0100
1000
1000
,
0010
0100
0001
1001
,
0010
0100
0010
0000
0100
0010
0100
0000
,
0001
0000
0001
0000
1000
0100
1000
0000
,
0110
0002
0203
0302
,
0023
0230
2300
3002
,
0203
0300
0010
0100
0010
0000
1000
0000
,
0001
0100
0100
2000
,
3000
0000
0011
0000
0000
0100
0001
0000
,
0000
0000
1010
0000
0000
0100
1000
0000
,
0001
0000
0001
0000
1000
0100
0010
0000
,
0100
0000
1000
0001
0200
0000
0300
0000
,
0110
0000
1000
0100
0100
0000
1000
0000
,
0020
0000
0100
1030
,
0110
0000
0001
0010
0010
0000
0001
0000
,
2000
0000
0010
3100
,
0110
0000
0001
0100
0100
0000
0001
0000
,
0020
0000
0100
0031
,
0110
0000
1000
0010
0010
0000
1000
0000
,
0002
0000
0010
0103
,
0001
0000
0010
1000
,
0002
0000
0000
0003
,
1000
0000
0010
0001
,
2000
0000
0000
0000
,
3000
0000
0000
0000
;

//---------------dance-single - ----------------
#NOTEDATA:;
#CHARTNAME:;
#STEPSTYPE:dance-single;
#DESCRIPTION:;
#CHARTSTYLE:;
#DIFFICULTY:Hard;
#METER:10;
#RADARVALUES:0.345633,0.529354,0.266971,0.400457,0.287829,290.000000,258.000000,32.000000,48.000000,0.000000,0.000000,0.000000,0.000000,0.000000,0.345633,0.529354,0.266971,0.400457,0.287829,290.000000,258.000000,32.000000,48.000000,0.000000,0.000000,0.000000,0.000000,0.000000;
#CREDIT:led_light;
#NOTES:
// measure 0
0000
0000
0000
0000
,  // measure 1
0000
0000
0000
0000
,  // measure 2
0000
0000
0000
0000
,  // measure 3
0000
0000
0000
0000
,  // measure 4
0000
0000
0000
0000
,  // measure 5
1000
0100
0000
0000
0001
0100
0000
0000
0010
0100
0000
0000
1000
0010
0000
0000
,  // measure 6
0100
0010
0000
0000
0010
1000
0000
0000
0001
0000
1000
0000
0110
0000
0000
0000
,  // measure 7
0001
0000
1000
0100
0010
0000
0001
0000
0100
0000
0001
0000
0110
0000
0000
0000
,  // measure 8
0001
0000
0010
0100
1000
0000
1000
0000
0010
0000
1000
0100
0000
0100
0010
0000
,  // measure 9
0011
0000
0000
0000
0110
0000
0000
0000
0001
0100
0000
0100
0002
0000
0003
0000
,  // measure 10
1000
0100
1000
0000
0001
0000
0010
0000
0100
0000
1000
0001
0000
0100
0000
0010
,  // measure 11
2000
0000
3000
0000
0100
0000
1000
0000
0001
0000
0100
0010
0000
0010
0100
0000
,  // measure 12
0001
0000
0000
0010
0000
0000
2100
0000
0001
0000
3001
0000
1000
0000
0100
0000
,  // measure 13
0011
0000
0100
1000
0000
0010
0000
1010
0000
0000
0100
0000
0110
0000
1000
0000
,  // measure 14
0002
0000
0000
2000
0000
0003
0200
3000
,  // measure 15
1300
0000
0001
0010
0000
0100
0000
0110
0000
0000
0001
0000
0101
0000
0010
0000
,  // measure 16
0200
0000
0000
0002
0000
0300
2000
0003
,  // measure 17
3001
0000
0100
0001
0000
0010
0000
0011
0000
0000
0100
0000
0110
0000
0001
0000
,  // measure 18
2000
0000
0000
0002
0000
3000
0200
0003
,  // measure 19
0301
0000
1000
0010
0000
0100
0000
0110
0000
0000
1000
0000
1100
0000
0010
0000
,  // measure 20
0200
0000
0000
2000
0000
0300
0002
3000
,  // measure 21
1003
0000
1000
0000
,  // measure 22
0001
0000
0000
0000
0000
0000
0000
0000
0100
0000
0100
0000
0010
1000
0010
0000
,  // measure 23
1000
0100
0000
0000
0001
0100
0000
0000
0010
0100
0000
0000
1000
0010
0000
0000
,  // measure 24
0100
0010
0000
0000
0010
1000
0000
0000
0001
0000
0100
0010
0110
0000
1000
0100
,  // measure 25
0010
0001
0010
0000
0011
0000
0001
0100
0010
1000
0010
0000
1010
0000
1000
0100
,  // measure 26
0010
0100
1000
0000
0001
0000
0010
0000
1000
0000
0010
0000
0001
2000
0000
0000
,  // measure 27
3001
0021
0230
2300
,  // measure 28
3020
0032
0023
2030
,  // measure 29
3002
0000
0003
0000
0101
0000
0001
0000
1000
0000
0100
1000
0000
1000
0100
0000
,  // measure 30
0010
0000
0000
0001
0000
0000
0011
0000
0100
0000
0000
2000
0000
0000
3002
0000
,  // measure 31
0103
0000
0000
0000
1010
0000
0000
0000
0001
0000
0010
0100
1000
0002
0000
0000
,  // measure 32
1003
0000
0000
0000
2100
0000
0000
0000
3010
0000
1000
0001
0100
0020
0000
0000
,  // measure 33
2030
0000
3000
0000
0100
0000
1000
0000
0001
0000
0100
0010
0000
0010
0100
0000
,  // measure 34
0001
0000
0000
0010
0000
0000
0220
0000
0000
0000
0000
0000
0330
0000
0000
0000
,  // measure 35
0011
0000
0100
1000
0000
0010
0000
1010
0000
0000
0100
0000
0110
0000
1000
0000
,  // measure 36
0002
0000
0000
2000
0000
0003
0200
3000
,  // measure 37
1300
0000
0001
0010
0000
0100
0000
0110
0000
0000
0001
0000
0101
0000
0010
0000
,  // measure 38
0200
0000
0000
0002
0000
0300
2000
0003
,  // measure 39
3001
0000
0100
0001
0000
0010
0000
0011
0000
0000
0100
0000
0110
0000
0001
0000
,  // measure 40
2000
0000
0000
0002
0000
3000
0200
0003
,  // measure 41
0301
0000
1000
0010
0000
0100
0000
0110
0000
0000
1000
0000
1100
0000
0010
0000
,  // measure 42
0200
0000
0000
2000
0000
0300
0002
3000
,  // measure 43
1003
0000
0000
1000
0000
0001
0100
0000
,  // measure 44
0020
0000
0000
2000
0000
0000
3030
0000
,  // measure 45
0001
0000
0000
0001
0000
0010
0100
0000
,  // measure 46
2000
0000
0000
0002
0000
0000
0000
0000
,  // measure 47
3003
0000
0000
0000
;

//---------------dance-double - ----------------
#NOTEDATA:;
#CHARTNAME:;
#STEPSTYPE:dance-double;
#DESCRIPTION:;
#CHARTSTYLE:;
#DIFFICULTY:Easy;
#METER:3;
#RADARVALUES:0.114416,0.156846,0.016686,0.108457,0.000000,96.000000,94.000000,2.000000,13.000000,0.000000,0.000000,0.000000,0.000000,0.000000,0.114416,0.156846,0.016686,0.108457,0.000000,96.000000,94.000000,2.000000,13.000000,0.000000,0.000000,0.000000,0.000000,0.000000;
#CREDIT:led_light;
#NOTES:
00000000
00000000
00000000
00000000
,
00000000
00000000
00000000
00000000
,
00000000
00000000
00000000
00000000
,
00000000
00000000
00000000
00000000
,
00000000
00000000
00000000
00000000
,
00001000
00010000
00010000
00001000
,
00100000
00010000
10000000
00000000
,
00010000
01000000
00010000
00000000
,
10000000
01000000
10000000
00000000
,
00100000
00000000
00100000
00000000
,
00010000
00001000
00010000
00000000
,
00001000
00000000
00001000
00000000
,
00000010
00000100
00000020
00000030
,
00000001
00000000
00000001
00001000
,
00000020
00000000
00000000
00000030
,
00010000
00000000
00000010
00001000
,
00000200
00000000
00000000
00000300
,
00010000
00000000
00010000
00001000
,
00200000
00000000
00000000
00300000
,
01000000
00000000
00100000
00010000
,
20000000
00000000
00000000
30000000
,
00010000
00000000
00000000
00000000
,
00010000
00000000
00000000
00000000
,
00001000
00010000
00010000
00001000
,
00100000
00010000
10000000
00000000
,
10000000
00100000
00010000
00100000
,
01000000
01000000
01000000
00000000
,
00001000
00000000
00001000
00000000
,
00010000
00000000
00000100
00000000
,
00010000
00000000
00010000
00000000
,
00001000
01000000
00002000
00000000
,
00003000
00011000
00000000
00000010
,
00000000
00011000
00000000
00100000
,
00000000
00001000
00000010
00000100
,
00000020
00000000
00000000
00000030
,
00000001
00000000
00000001
00001000
,
00000020
00000000
00000000
00000030
,
00010000
00000000
00000010
00001000
,
00000200
00000000
00000000
00000300
,
00010000
00000000
00010000
00001000
,
00200000
00000000
00000000
00300000
,
01000000
00000000
00100000
00010000
,
20000000
00000000
00000000
30000000
,
00010000
00000000
00000000
10000000
,
02000000
00000000
00000000
03000000
,
00100000
00000000
00000000
00001000
,
00020000
00000000
00000000
00000000
,
00030000
00000000
00000000
00000000
;

//---------------dance-double - ----------------
#NOTEDATA:;
#CHARTNAME:;
#STEPSTYPE:dance-double;
#DESCRIPTION:;
#CHARTSTYLE:;
#DIFFICULTY:Medium;
#METER:5;
#RADARVALUES:0.208571,0.254874,0.125143,0.175200,0.000000,175.000000,160.000000,15.000000,21.000000,0.000000,0.000000,0.000000,0.000000,0.000000,0.208571,0.254874,0.125143,0.175200,0.000000,175.000000,160.000000,15.000000,21.000000,0.000000,0.000000,0.000000,0.000000,0.000000;
#CREDIT:led_light;
#NOTES:
00000000
00000000
00000000
00000000
,
00000000
00000000
00000000
00000000
,
00000000
00000000
00000000
00000000
,
00000000
00000000
00000000
00000000
,
00000000
00000000
00000000
00000000
,
10000000
00010000
10000000
10000000
,
01000000
00100000
00001000
00011000
,
00010000
00000100
00000100
00000000
,
00000010
00000001
00000001
00001000
,
00010100
00000000
00001010
00000000
,
00010000
00001000
00010000
00000000
01000000
00000000
10000000
00000000
,
00010000
00000000
10000000
00000000
01000000
00100000
01000000
00000000
,
10000000
00000000
00010000
01000000
00200000
00000000
00300000
00000000
,
11000000
00000000
00010000
00100000
00100000
00000000
00001000
00000000
,
00020000
00000000
00000100
00031000
,
00011000
00000000
00010000
00000010
00000010
00000000
00000100
00000000
,
00000002
00000000
00000100
00000013
,
00000101
00000000
00001000
00000010
00000010
00000000
00010000
00000000
,
00002000
00000000
01000000
00013000
,
00011000
00000000
00001000
00100000
00100000
00000000
01000000
00000000
,
20000000
00000000
01000000
30100000
,
10000000
00000000
10000000
00000000
,
00010000
00000000
00000000
00000000
00010000
00100000
00010000
00000000
,
10000000
00010000
10000000
10000000
,
01000000
00100000
00001000
00011000
,
00010000
00000100
00010000
00000000
00000010
00001000
00000010
00000000
,
00000100
00000000
00000100
00000000
00000001
00001000
00000001
00000000
,
00001001
00002000
00003200
00000320
,
00000032
00000203
00002300
00023000
,
00032000
00003000
00010000
00001000
00010000
00000000
01000000
00000000
,
10000000
10000000
00010000
20000000
,
30000000
00000000
01100000
00000000
00000000
10000000
00010000
00000000
,
00000000
00000000
00101000
00000000
00000000
01000000
00010000
00000000
,
00100000
00000000
00100000
00000000
00001000
00010000
00001000
00000000
,
00010000
00000000
00000100
00001000
00000020
00000000
00000030
00000000
,
00000101
00000000
00001000
00000010
00000010
00000000
00010000
00000000
,
00002000
00000000
01000000
00013000
,
00011000
00000000
00001000
00100000
00100000
00000000
01000000
00000000
,
20000000
00000000
01000000
30100000
,
11000000
00000000
00010000
00100000
00100000
00000000
00001000
00000000
,
00020000
00000000
00000100
00031000
,
00011000
00000000
00010000
00000010
00000010
00000000
00000100
00000000
,
00000002
00000000
00000100
00000013
,
00000001
00000000
00000010
00000010
,
00002000
00000000
00000000
00003000
,
00010000
00000000
00100000
00100000
,
20000000
00000000
00000000
00000000
,
30000000
00000000
00000000
00000000
;

//---------------dance-double - ----------------
#NOTEDATA:;
#CHARTNAME:;
#STEPSTYPE:dance-double;
#DESCRIPTION:;
#CHARTSTYLE:;
#DIFFICULTY:Hard;
#METER:10;
#RADARVALUES:0.342057,0.509749,0.250286,0.400457,0.283657,287.000000,257.000000,30.000000,48.000000,0.000000,0.000000,0.000000,0.000000,0.000000,0.342057,0.509749,0.250286,0.400457,0.283657,287.000000,257.000000,30.000000,48.000000,0.000000,0.000000,0.000000,0.000000,0.000000;
#CREDIT:led_light;
#NOTES:
00000000
00000000
00000000
00000000
,
00000000
00000000
00000000
00000000
,
00000000
00000000
00000000
00000000
,
00000000
00000000
00000000
00000000
,
00000000
00000000
00000000
00000000
,
10000000
01000000
00000000
00000000
00100000
00010000
00000000
00000000
00100000
00001000
00000000
00000000
00010000
00001000
00000000
00000000
,
00001000
00000100
00000000
00000000
00000100
00000010
00000000
00000000
00001000
00000000
00000001
00000000
00000110
00000000
00000000
00000000
,
00000001
00000000
00000010
00000100
00001000
00000000
00010000
00000000
00001000
00000000
00000100
00000000
00000110
00000000
00000000
00000000
,
00000001
00000000
00000010
00001000
00010000
00000000
00001000
00000000
00010000
00000000
00100000
10000000
00000000
10000000
01000000
00000000
,
01100000
00000000
00000000
00000000
10010000
00000000
00000000
00000000
00010000
01000000
00000000
01000000
00020000
00000000
00030000
00000000
,
00100000
00010000
00100000
00000000
00001000
00000000
00100000
00000000
00010000
00000000
10000000
00100000
00000000
01000000
00000000
00010000
,
20000000
00000000
30000000
00000000
00100000
00000000
00010000
00000000
00001000
00000000
00000010
00000100
00000000
00000100
00000010
00000000
,
00000001
00000000
00000000
00001000
00000000
00000000
00000201
00000000
00000010
00000000
00000310
00000000
00000100
00000000
00000001
00000000
,
00001100
00000000
00010000
00001000
00000000
00001000
00000000
00101000
00000000
00000000
00010000
00000000
01010000
00000000
00100000
00000000
,
20000000
00000000
00000000
00020000
00000000
30000000
00200000
00030000
,
01300000
00000000
00100000
00001000
00000000
00001000
00000000
00010010
00000000
00000000
00010000
00000000
00001010
00000000
00000001
00000000
,
00000020
00000000
00000000
00000200
00000000
00000030
00002000
00000300
,
00003001
00000000
00001000
00000010
00000000
00000010
00000000
00010010
00000000
00000000
00001000
00000000
00011000
00000000
00100000
00000000
,
00020000
00000000
00000000
20000000
00000000
00030000
02000000
30000000
,
13000000
00000000
00010000
01000000
00000000
01000000
00000000
00110000
00000000
00000000
00001000
00000000
00010100
00000000
00010000
00000000
,
00002000
00000000
00000000
00000200
00000000
00003000
00000002
00000300
,
00001003
00000000
00001000
00000000
,
00010000
00000000
00000000
00000000
00000000
00000000
00000000
00000000
00100000
00000000
00100000
00000000
01000000
10000000
00010000
00000000
,
10000000
01000000
00000000
00000000
00100000
00010000
00000000
00000000
00100000
00001000
00000000
00000000
00010000
00001000
00000000
00000000
,
00001000
00000100
00000000
00000000
00000100
00000010
00000000
00000000
00001000
00000000
00001000
00000000
00000110
00000000
00000001
00000010
,
00000100
00001000
00000100
00000000
00011000
00000000
00001000
00100000
00010000
01000000
00010000
00000000
10100000
00000000
01000000
00010000
,
10000000
00010000
00100000
00000000
10000000
00000000
00100000
00000000
00010000
00000000
00100000
00000000
01000000
20000000
00000000
00000000
,
30010000
00200000
02300000
23000000
,
30200000
00320000
00032000
00003020
,
00000032
00000000
00000003
00000000
00000010
00000000
00000100
00000000
00001000
00000000
00000100
00000010
00000000
00000010
00000100
00000000
,
00001000
00000000
00000000
00000010
00000000
00000000
00001010
00000000
00010000
00000000
00000000
00002000
00000000
00000000
00203000
00000000
,
00310000
00000000
00000000
00000000
10010000
00000000
00000000
00000000
00010000
00000000
10000000
01000000
00100000
00020000
00000000
00000000
,
00130000
00000000
00000000
00000000
00021000
00000000
00000000
00000000
00031000
00000000
01000000
00100000
00010000
00002000
00000000
00000000
,
00023000
00000000
00030000
00000000
00001000
00000000
00000010
00000000
00000001
00000000
00000010
00000100
00000000
00000100
00010000
00000000
,
00001000
00000000
00000000
00100000
00000000
00000000
22000000
00000000
00000000
00000000
00000000
00000000
33000000
00000000
00000000
00000000
,
01010000
00000000
00001000
00010000
00000000
00010000
00000000
00010010
00000000
00000000
00001000
00000000
00001100
00000000
00000010
00000000
,
00000002
00000000
00000000
00002000
00000000
00000003
00000020
00003000
,
00000130
00000000
00000010
00010000
00000000
00010000
00000000
00101000
00000000
00000000
00001000
00000000
00110000
00000000
10000000
00000000
,
00200000
00000000
00000000
02000000
00000000
00300000
00020000
03000000
,
10030000
00000000
00010000
00100000
00000000
00100000
00000000
00101000
00000000
00000000
00010000
00000000
00011000
00000000
00000010
00000000
,
00002000
00000000
00000000
00000002
00000000
00003000
00000200
00000003
,
00000301
00000000
00001000
00000100
00000000
00000100
00000000
00001010
00000000
00000000
00010000
00000000
01001000
00000000
00001000
00000000
,
00020000
00000000
00000000
02000000
00000000
00030000
20000000
03000000
,
30010000
00000000
00000000
00010000
00000000
00100000
00001000
00000000
,
00020000
00000000
00000000
00002000
00000000
00000000
00033000
00000000
,
00010000
00000000
00000000
00010000
00000000
00001000
00000010
00000000
,
00000002
00000000
00000000
00002000
00000000
00000000
00000000
00000000
,
00003003
00000000
00000000
00000000
;
