#VERSION:0.83;
#TITLE:Blossoms for Life;
#SUBTITLE:;
#ARTIST:Shi Kuang Lee & Pico & 林子玹;
#TITLETRANSLIT:;
#SUBTITLETRANSLIT:;
#ARTISTTRANSLIT:;
#GENRE:Crossover;
#ORIGIN:;
#CREDIT:;
#BANNER:Blossoms for Life.png;
#BACKGROUND:Blossoms for Life-bg.png;
#PREVIEWVID:;
#JACKET:Blossoms for Life-jacket.png;
#CDIMAGE:;
#DISCIMAGE:;
#LYRICSPATH:;
#CDTITLE:../cdtitle.png;
#MUSIC:Blossoms for Life.ogg;
#OFFSET:-0.100000;
#SAMPLESTART:43.973000;
#SAMPLELENGTH:15.000000;
#SELECTABLE:YES;
#DISPLAYBPM:120.000000;
#BPMS:0.000=120.000,
86.000=127.000,
87.000=149.000,
88.000=120.000;
#STOPS:217.000=0.500;
#DELAYS:;
#WARPS:;
#TIMESIGNATURES:0.000=4=4;
#TICKCOUNTS:0.000=4;
#COMBOS:0.000=1;
#SPEEDS:0.000=1.000=0.000=0;
#SCROLLS:0.000=1.000;
#FAKES:;
#LABELS:0.000=Song Start;
#BGCHANGES:-99.000=../bg.avi=1.000=0=0=1=====,
99999=-nosongbg-=1.000=0=0=0 // don't automatically add -songbackground-
;
#KEYSOUNDS:;
#ATTACKS:
;

//---------------dance-single - ----------------
#NOTEDATA:;
#CHARTNAME:;
#STEPSTYPE:dance-single;
#DESCRIPTION:;
#CHARTSTYLE:;
#DIFFICULTY:Beginner;
#METER:2;
#RADARVALUES:0.079589,0.122080,0.060411,0.120822,0.000000,83.000000,74.000000,9.000000,18.000000,0.000000,0.000000,0.000000,0.000000,0.000000,0.079589,0.122080,0.060411,0.120822,0.000000,83.000000,74.000000,9.000000,18.000000,0.000000,0.000000,0.000000,0.000000,0.000000;
#CREDIT:led_light;
#DISPLAYBPM:120.000000;
#NOTES:
0000
0000
0000
0000
,
0000
0000
0000
0000
,
0000
0000
0000
0000
,
0000
0000
0000
0000
,
0000
0000
0000
0000
,
0000
0000
0000
0000
,
2000
0000
0000
0000
,
3000
0000
0000
0000
,
0002
0000
0000
0000
,
0003
0000
0000
0000
,
1000
0000
0000
0000
,
1000
0000
0000
0000
,
0020
0000
0000
0000
,
0000
0000
0030
0000
,
0001
0000
0000
0000
,
0001
0000
0000
0000
,
0200
0000
0000
0000
,
0000
0000
0300
0000
,
0110
0000
0000
0000
,
1001
0000
0000
0000
,
0020
0000
0000
0000
,
0000
0000
0030
0000
,
0100
0000
0000
0000
,
0100
0000
0000
0000
,
0001
0000
1000
0000
,
1001
0000
0000
0000
,
0010
0000
0000
0000
,
0020
0000
0030
0000
,
1000
0000
0001
0000
,
2002
0000
3003
0000
,
0002
0000
0003
0000
,
0001
0000
0000
0000
,
1000
0000
1000
0000
,
0000
0000
0000
0000
,
0000
0100
0100
0000
,
0010
0000
0000
0000
,
0001
0000
0001
0002
,
0000
0000
0003
0000
,
1000
0000
0000
0000
,
1000
0000
0000
0000
,
0020
0000
0000
0000
,
0000
0000
0030
0000
,
0001
0000
0000
0000
,
0001
0000
0000
0000
,
0200
0000
0000
0000
,
0000
0000
0300
0000
,
0110
0000
0000
0000
,
1001
0000
0000
0000
,
0020
0000
0000
0000
,
0030
0000
0100
0000
,
0000
0000
0100
0000
,
0000
0000
0001
0000
,
0000
0000
1001
0000
,
0000
0000
0110
0000
,
0000
0000
0010
0010
,
0000
0010
0000
0000
,
0000
1000
0000
0001
,
0000
1001
0000
0000
,
0000
0100
0000
0000
,
0000
0100
0000
0000
,
0000
0001
0000
1000
,
0000
0200
0000
0300
,
0000
1000
0000
1000
,
1000
0000
0000
0010
,
0000
0100
0000
0100
,
0200
0000
0300
0000
,
0000
0001
0000
0001
,
0000
0001
0000
0100
,
0000
0010
0000
0010
,
0020
0000
0030
0100
,
0000
0100
0200
0000
,
0300
0000
0020
0000
,
0000
0000
0000
0030
;

//---------------dance-single - ----------------
#NOTEDATA:;
#CHARTNAME:;
#STEPSTYPE:dance-single;
#DESCRIPTION:;
#CHARTSTYLE:;
#DIFFICULTY:Easy;
#METER:5;
#RADARVALUES:0.167808,0.219744,0.067123,0.322191,0.000000,175.000000,165.000000,10.000000,48.000000,0.000000,0.000000,0.000000,0.000000,0.000000,0.167808,0.219744,0.067123,0.322191,0.000000,175.000000,165.000000,10.000000,48.000000,0.000000,0.000000,0.000000,0.000000,0.000000;
#CREDIT:led_light;
#DISPLAYBPM:120.000000;
#NOTES:
0000
0000
0000
0000
,
0000
0000
0000
0000
,
0000
0000
0000
0000
,
0000
0000
0000
0000
,
0000
0000
0000
0000
,
0000
0000
0000
0000
,
2000
0000
0000
0000
,
0020
0000
0000
3030
,
0002
0000
0000
0000
,
0203
0000
0300
0100
,
0110
0000
0000
1000
0000
0000
1000
0000
,
0100
0000
0000
0100
0000
0000
0010
0000
,
0001
0000
0000
2000
0000
0000
0010
0000
,
0010
0000
3100
0010
,
0200
0000
0000
0010
0000
0000
0310
0000
,
0002
0000
0000
0100
0000
0000
0103
0000
,
0020
0000
0000
2030
0000
0000
0100
0000
,
0100
0000
3010
0100
,
0001
0000
0000
0220
0000
0000
0330
0000
,
1000
0000
0000
2200
0000
0000
3300
0000
,
0001
0000
0000
0022
0000
0000
0000
0000
,
0000
0000
0003
0000
,
0130
0000
0100
0000
0100
0000
0000
0020
,
0000
1030
0001
0000
,
1000
0010
0001
0000
,
1001
0000
0000
0020
0000
0000
0030
0000
,
0100
0000
0001
0000
1000
0000
0000
0020
,
0000
0031
1000
0000
,
0001
0000
0010
0000
1000
0000
1000
0200
,
0000
0320
0230
0310
,
0001
0000
0001
0000
0001
0000
0000
2000
,
0000
3100
0010
0000
,
0100
0000
1000
0000
0010
0000
0000
0010
,
0000
0000
1000
0000
0000
1000
0000
0000
,
0001
0000
0010
0000
0100
0000
0000
2000
,
0000
3010
0100
0000
,
0010
1000
0100
0020
,
0000
0000
0030
0100
,
0100
0000
0000
1000
,
1000
0000
0000
0001
,
0001
0000
0000
2000
0000
0000
0000
0000
,
0002
0000
3003
0100
,
0100
0000
0000
0001
,
0001
0000
0000
0000
,
0010
0000
0000
0200
0000
0000
0000
0000
,
0020
0000
0330
0000
,
0001
0000
0000
0220
0000
0000
0330
0000
,
1000
0000
0000
2020
0000
0000
3030
0000
,
0001
0000
0000
0202
0000
0000
0000
0000
,
0000
0303
0001
0000
,
0000
1000
0100
0000
,
0000
1000
0010
0000
,
0200
0000
0020
0000
,
0000
0000
0330
0000
0110
0000
0000
1000
,
0000
0001
1000
0100
,
0000
0020
0000
0000
1030
0000
0001
0000
,
0000
1000
0010
0001
,
0000
0000
1001
0000
0000
0020
0000
0000
,
0030
0100
0001
1000
,
0000
0020
0000
0000
0031
0000
1000
0000
,
0000
0001
0010
1000
,
1000
0200
0000
0000
0320
0000
0230
0000
,
0310
0001
0001
0001
,
0000
2000
0000
0000
3100
0000
0010
0000
,
0000
0100
1000
0010
,
0000
0010
0000
0000
1000
0000
0000
1000
,
0000
0001
0010
0100
,
0000
2000
0000
0000
3010
0000
0100
0000
,
0000
0010
1000
0100
,
0020
0000
0030
0100
,
1000
0010
0200
0000
,
0302
0000
0000
0020
0000
0000
0000
0000
,
0000
0000
0000
0033
;

//---------------dance-single - ----------------
#NOTEDATA:;
#CHARTNAME:;
#STEPSTYPE:dance-single;
#DESCRIPTION:;
#CHARTSTYLE:;
#DIFFICULTY:Medium;
#METER:8;
#RADARVALUES:0.277123,0.366240,0.208082,0.322191,0.104041,289.000000,258.000000,31.000000,48.000000,0.000000,0.000000,0.000000,0.000000,0.000000,0.277123,0.366240,0.208082,0.322191,0.104041,289.000000,258.000000,31.000000,48.000000,0.000000,0.000000,0.000000,0.000000,0.000000;
#CREDIT:led_light;
#DISPLAYBPM:120.000000;
#NOTES:
0000
0000
0000
0000
,
0000
0000
0000
0000
,
0000
0000
0000
0000
,
0000
0000
0000
0000
,
0000
0000
0000
0000
,
0000
0000
0000
0000
,
2000
0000
0000
0100
0000
0000
3010
0000
,
0002
0000
0000
0100
0000
0000
0013
0000
,
2000
0000
0000
0200
0000
0000
3300
0000
,
0010
0000
0000
0100
0000
0000
0100
0000
,
0110
0000
0000
0001
0000
0000
0100
0000
,
0110
0000
0000
1000
0000
0000
0100
0000
,
0010
0000
0000
0002
0000
0000
0200
0000
,
0000
0000
0000
0000
0303
0100
0010
0000
,
0110
0000
0000
0001
0000
0000
0010
0000
,
0110
0000
0000
1000
0000
0000
0010
0000
,
0100
0000
0000
0002
0000
0000
1000
0000
,
0100
0000
0013
0100
,
0010
0000
0000
0001
0000
0000
2200
0000
0000
0000
0000
0000
3300
0000
0000
0000
,
0001
0000
0000
0100
0000
0000
2020
0000
0000
0000
0000
0000
3030
0000
0000
0000
,
0001
0000
0000
1000
0000
0000
0220
0000
0000
0000
0000
0000
0000
0000
0000
0000
,
0000
0000
0000
0330
,
0001
0010
0001
0000
0100
0001
0000
1200
,
0000
0000
0310
0000
0100
1000
0001
0000
,
0001
0100
0010
0000
2000
0000
3000
0000
,
0001
0000
0000
0010
0000
0000
2200
0000
0000
0000
0000
0000
3300
0000
0000
0000
,
0001
0000
0100
0000
0001
1000
0000
1200
,
0000
0310
0100
1000
,
0001
0100
0010
1000
0000
0100
0010
0200
,
0000
0001
1300
0010
,
1000
0100
1000
0000
0010
1000
0000
0021
,
0000
0000
0130
0000
0010
0001
1000
0000
,
1000
0010
0100
0000
0020
0000
1030
0100
,
0000
0010
0000
0000
1100
0000
0000
0010
0000
0000
0101
0000
0000
0010
0000
0000
,
1000
0000
0000
0000
0010
0000
0000
0000
1000
0000
0000
0001
0000
0000
0021
0000
,
0000
0130
0010
0001
,
1000
0010
0100
0001
0010
0100
0020
0000
,
0000
1000
0000
0000
0100
0000
0031
0000
,
1001
0000
0000
0100
,
0110
0000
0000
0000
0000
0000
0000
1000
,
0100
0000
0000
0010
0000
0000
0002
0000
0000
0000
0000
0000
0100
0000
0000
0000
,
1000
0000
0000
0000
0003
0100
0010
1000
,
1001
0000
0000
0100
0000
0000
1000
0010
,
1010
0000
0000
0100
0000
0000
0100
0000
,
0002
0000
0000
2003
0000
0000
0000
0000
,
0020
0000
0000
0000
3030
0000
1000
0100
,
0010
0000
0000
0001
0000
0000
2200
0000
0000
0000
0000
0000
3300
0000
0000
0000
,
0001
0000
0000
0100
0000
0000
2020
0000
0000
0000
0000
0000
3030
0000
0000
0000
,
0001
0000
0000
1000
0000
0000
0220
0000
0000
0000
0000
0000
0000
0000
0000
0000
,
0000
0000
0000
0000
0330
0000
0000
0000
0001
0000
0000
0010
0000
0000
0001
0000
,
0000
0100
0000
0000
0010
0000
0000
0000
1000
0000
0000
0010
0000
0000
1000
0000
,
0000
0100
0000
0000
1000
0000
0000
0000
0010
0000
0000
0100
0000
0000
0010
0000
,
0000
0100
0000
0000
0010
0000
0000
0000
1001
0000
0000
0100
0000
0000
0220
0000
,
0000
0000
0000
0000
0330
0000
0000
0000
0001
0000
0000
0010
0000
0000
1000
0000
,
0000
0100
0000
0000
0001
0000
0000
0000
0100
0000
0010
0000
1000
0000
0000
0000
,
0001
0021
0000
0000
0130
0000
0010
0001
,
1000
0000
1000
0010
0100
0000
0002
0000
,
0003
0000
0000
0000
1000
0000
0000
0100
0000
0000
0022
0000
0000
0000
0000
0000
,
0033
0000
1000
0000
0010
0000
1000
0001
,
0000
0021
0000
0000
0130
0000
0010
0000
,
0001
0000
1000
0010
0100
0001
0000
0010
,
0100
0020
0000
0000
1000
0000
0031
0000
,
0100
0000
0000
0000
0001
0000
0010
0000
0001
0000
0000
0000
0100
0000
0000
0001
,
0000
1200
0000
0000
0310
0000
0100
1000
,
0001
0000
0001
0100
0010
0000
0200
0000
,
0301
0000
0010
0000
0000
0100
0000
0000
0011
0000
0000
0100
0000
0000
1010
0000
,
0000
0100
0000
0000
0001
0000
0000
0000
0100
0000
0000
0000
0001
0000
0000
1000
,
0000
1200
0000
0000
0310
0000
0100
0000
,
1000
0000
0001
0100
0010
1000
0100
0010
,
0200
0000
0000
0010
0000
0000
0010
0000
0000
0001
0000
0000
1300
0000
0100
0000
,
0010
0000
0001
0000
0100
0000
0010
0000
0200
0000
0000
1000
0000
0000
1300
0000
,
0100
0000
0000
0001
0000
0000
2200
0000
0000
0000
0000
0000
0000
0000
0000
0000
,
0000
0000
0000
3300
;

//---------------dance-single - ----------------
#NOTEDATA:;
#CHARTNAME:;
#STEPSTYPE:dance-single;
#DESCRIPTION:;
#CHARTSTYLE:;
#DIFFICULTY:Hard;
#METER:10;
#RADARVALUES:0.364383,0.390656,0.255068,0.409451,0.244999,380.000000,342.000000,38.000000,61.000000,0.000000,0.000000,0.000000,0.000000,0.000000,0.364383,0.390656,0.255068,0.409451,0.244999,380.000000,342.000000,38.000000,61.000000,0.000000,0.000000,0.000000,0.000000,0.000000;
#CREDIT:led_light;
#DISPLAYBPM:120.000000;
#NOTES:
// measure 0
0000
0000
0000
0000
,  // measure 1
0000
0000
0000
0000
,  // measure 2
0000
0000
0000
0000
,  // measure 3
0000
0000
0000
0000
,  // measure 4
0000
0000
0000
0000
,  // measure 5
0000
0000
0000
0000
0000
0001
0100
0010
,  // measure 6
2000
0000
0000
0100
0000
0000
3010
0000
,  // measure 7
0200
0000
0000
1000
0000
0000
0301
0000
,  // measure 8
0002
0000
0000
0010
0000
0000
1003
0000
,  // measure 9
0200
0000
0000
0001
0300
0001
0100
1000
,  // measure 10
1100
0000
0000
0100
0000
0000
0010
0000
0000
0001
0000
0000
0100
0000
0010
0000
,  // measure 11
1000
0000
0000
0010
0000
0000
0100
0000
0000
0001
0000
0000
0010
0000
0100
0000
,  // measure 12
1000
0000
0000
0100
0000
0000
0021
0000
0000
0100
0000
0000
1000
0000
0000
0100
,  // measure 13
0030
0000
0010
0000
0000
0001
0000
0000
0010
0000
0100
0000
1000
0000
0001
0000
,  // measure 14
0101
0000
0000
0100
0000
0000
0010
0000
0000
1000
0000
0000
0100
0000
0010
0000
,  // measure 15
0001
0000
0000
0010
0000
0000
0100
0000
0000
1000
0000
0000
0010
0000
0100
0000
,  // measure 16
0001
0000
0000
0100
0000
0000
1020
0000
0000
0100
0000
0000
0001
0000
0000
0100
,  // measure 17
0030
0000
0010
0000
0000
1000
0000
0000
0010
0000
0100
0000
0001
0000
1000
0000
,  // measure 18
0100
0000
0000
0001
0000
0000
2200
0000
0000
0000
0000
0000
3300
0000
0000
0000
,  // measure 19
0001
0000
0000
0100
0000
0000
0220
0000
0000
0000
0000
0000
0330
0000
0000
0000
,  // measure 20
0010
0000
0000
1000
0000
0000
0022
0000
0000
0000
0000
0000
0000
0000
0000
0000
,  // measure 21
0000
0000
0000
0033
,  // measure 22
0100
0000
0100
0000
0010
0000
0000
0002
0000
0000
0103
0000
0000
0000
0120
0000
,  // measure 23
0000
0000
1030
0000
0001
0100
0010
0000
,  // measure 24
1000
0000
0100
0000
0010
0000
0000
0001
0000
0000
1000
0000
0100
0000
0010
0000
,  // measure 25
0001
0000
0000
0101
0000
0000
2100
0000
0000
3100
0000
0000
0020
0000
0000
0000
,  // measure 26
0031
0001
2000
0000
3010
0100
0000
1002
,  // measure 27
0000
0000
0013
0000
0100
1000
0001
0000
,  // measure 28
0100
0001
0010
0200
0000
1300
0001
2000
,  // measure 29
0000
3100
0020
0000
0032
0000
0203
0000
,  // measure 30
0310
0000
0010
0000
0100
0000
0000
0002
0000
0000
0013
0000
0000
0000
0210
0000
,  // measure 31
0000
0000
1300
0000
0001
0010
0100
0000
,  // measure 32
1000
0000
0010
0000
0100
0000
0000
0001
0000
0000
1000
0000
0010
0000
0100
0000
,  // measure 33
0000
0001
0000
0000
0011
0000
0000
1100
0000
0000
0001
0000
0000
0200
0000
0000
,  // measure 34
0310
0000
0010
0000
2000
0000
0000
0000
3100
0000
0000
0010
0000
0000
1002
0000
,  // measure 35
0000
0000
0103
0000
0010
1000
0001
0000
,  // measure 36
0010
0000
0001
0000
0100
0000
0010
0000
1000
0000
0001
0000
2000
0000
0000
0100
,  // measure 37
0000
0000
3200
0000
0000
0010
0000
0000
0301
0000
0100
0000
1000
0000
0100
0000
,  // measure 38
1100
0000
0000
0100
0000
0000
0010
0000
0000
0001
0000
0000
0100
0000
0010
0000
,  // measure 39
1000
0000
0000
0010
0000
0000
0100
0000
0000
0001
0000
0000
0010
0000
0100
0000
,  // measure 40
1000
0000
0000
0100
0000
0000
0021
0000
0000
0100
0000
0000
1000
0000
0000
0100
,  // measure 41
0030
0000
0010
0000
0000
0001
0000
0000
0010
0000
0100
0000
1000
0000
0001
0000
,  // measure 42
0101
0000
0000
0100
0000
0000
0010
0000
0000
1000
0000
0000
0100
0000
0010
0000
,  // measure 43
0001
0000
0000
0010
0000
0000
0100
0000
0000
1000
0000
0000
0010
0000
0100
0000
,  // measure 44
0001
0000
0000
0100
0000
0000
1020
0000
0000
0100
0000
0000
0001
0000
0000
0100
,  // measure 45
0030
0000
0010
0000
0000
1000
0000
0000
0010
0000
0100
0000
0001
0000
1000
0000
,  // measure 46
0100
0000
0000
0001
0000
0000
2200
0000
0000
0000
0000
0000
3300
0000
0000
0000
,  // measure 47
0001
0000
0000
0100
0000
0000
0220
0000
0000
0000
0000
0000
0330
0000
0000
0000
,  // measure 48
0010
0000
0000
1000
0000
0000
0022
0000
0000
0000
0000
0000
0000
0000
0000
0000
,  // measure 49
0000
0000
0000
0000
0033
0000
0000
0000
0110
0000
0000
0100
0000
0000
1000
0000
,  // measure 50
0000
0100
0000
0000
0010
0000
0001
0000
1001
0000
0000
0001
0000
0000
0100
0000
,  // measure 51
0000
0010
0000
0000
1000
0000
0100
0000
0001
0000
0000
0100
0000
0000
1000
0000
,  // measure 52
0000
0001
0000
0000
0010
0000
1000
0000
0010
0000
0000
0001
0000
0000
2200
0000
,  // measure 53
0000
0000
0000
0000
3300
0000
0000
0000
0010
0000
0000
1000
0000
0000
0011
0000
,  // measure 54
0000
1000
0000
0000
0110
0000
0000
0000
0101
0000
0010
0000
2000
0000
0000
3100
,  // measure 55
0000
0120
0000
0000
0031
0000
1000
0100
,  // measure 56
0010
0000
0000
0000
0001
0000
0100
0000
0010
0000
0000
1000
0000
0000
0001
0000
,  // measure 57
0100
0000
0010
0000
1000
0000
0000
1100
0000
0000
0102
0000
0000
0103
0000
0000
,  // measure 58
0020
0000
1030
1000
0002
0000
0013
0100
,  // measure 59
0000
2001
0000
0000
3010
0000
0100
0001
,  // measure 60
1000
0000
0100
1000
0010
0200
0000
0301
,  // measure 61
1000
0002
0000
0103
0020
0000
2030
0000
,  // measure 62
3200
0000
0000
0000
0310
0000
0010
0000
0100
0000
0000
2000
0000
0000
3010
0000
,  // measure 63
0000
0210
0000
0000
0000
0000
0000
0000
0301
0000
0000
0000
1000
0000
0010
0000
,  // measure 64
0100
0000
0000
0000
0001
0000
0010
0000
0100
0000
0000
1000
0000
0000
0001
0000
,  // measure 65
0010
0000
0100
0000
0000
1000
0000
0000
1010
0000
0000
0101
0000
0000
1000
0000
,  // measure 66
0000
0200
0000
0000
0310
0000
0010
0000
0002
0000
0000
0000
0103
0000
0010
0000
,  // measure 67
0000
2001
0000
0000
3100
0000
0010
0001
,  // measure 68
1000
0000
0010
1000
0100
0010
0001
1000
,  // measure 69
0002
0000
0000
0100
0000
0000
0203
0000
0000
0010
0000
0000
1300
0000
0100
0000
,  // measure 70
0001
0000
1000
0000
0100
0000
0010
0000
0200
0000
0000
0001
0000
0000
0301
0000
,  // measure 71
0100
0000
0000
1010
0000
0000
0022
0000
0000
0000
0000
0000
0000
0000
0000
0000
,  // measure 72
0000
0000
0000
0033
;
