#VERSION:0.83;
#TITLE:Blammed;
#SUBTITLE:;
#ARTIST:Kawai Sprite;
#TITLETRANSLIT:;
#SUBTITLETRANSLIT:;
#ARTISTTRANSLIT:;
#GENRE:Friday Night Funkin';
#ORIGIN:;
#CREDIT:;
#BANNER:Blammed.png;
#BACKGROUND:../bg.png;
#PREVIEWVID:;
#JACKET:Blammed-jacket.png;
#CDIMAGE:;
#DISCIMAGE:;
#LYRICSPATH:;
#CDTITLE:../cdtitle.png;
#MUSIC:Blammed.ogg;
#OFFSET:1.089000;
#SAMPLESTART:46.910000;
#SAMPLELENGTH:15.000000;
#SELECTABLE:YES;
#BPMS:0.000=165.000;
#STOPS:;
#DELAYS:;
#WARPS:;
#TIMESIGNATURES:0.000=4=4;
#TICKCOUNTS:0.000=4;
#COMBOS:0.000=1;
#SPEEDS:0.000=1.000=0.000=0;
#SCROLLS:0.000=1.000;
#FAKES:;
#LABELS:0.000=Song Start;
#BGCHANGES: -1.000=Blammed.avi=1.000=0=0=0=StretchNoLoop====,
99999=-nosongbg-=1.000=0=0=0 // don't automatically add -songbackground-
;
#KEYSOUNDS:;
#ATTACKS:
;

//---------------dance-single - ----------------
#NOTEDATA:;
#CHARTNAME:;
#STEPSTYPE:dance-single;
#DESCRIPTION:;
#CHARTSTYLE:;
#DIFFICULTY:Hard;
#METER:12;
#RADARVALUES:0.457672,0.541667,0.425926,0.037037,0.074074,346.000000,300.000000,46.000000,4.000000,0.000000,0.000000,0.000000,0.000000,0.000000,0.457672,0.541667,0.425926,0.037037,0.074074,346.000000,300.000000,46.000000,4.000000,0.000000,0.000000,0.000000,0.000000,0.000000;
#CREDIT:led_light;
#NOTES:
0000
0000
0000
0000
,
0000
0000
0000
0000
,
0000
0000
0000
0000
,
0000
0000
0000
0000
,
0000
0000
0000
0000
,
0000
0000
0000
0000
,
0000
0000
0000
0000
,
0000
0000
0000
0000
,
0000
0000
0000
0000
,
1100
0000
0001
0110
,
0000
0001
1010
0000
,
0011
0000
0000
1000
0001
0000
0110
0000
,
0000
1000
0102
0000
,
0013
0000
1000
0110
,
0000
1000
0101
0000
,
1100
0000
0000
0001
1000
0000
0110
0000
,
0000
0001
1010
0000
,
1100
0000
0000
0100
0001
0000
0011
0000
,
0100
0010
0100
0000
1001
0000
0000
0000
,
1010
0000
0000
0010
0001
0000
1100
0000
,
0010
0100
0010
0000
0102
0000
0000
0000
,
1003
0000
0000
0010
0001
0000
0101
0000
,
0010
0100
0010
0000
1001
0000
0000
0000
,
1100
0000
0000
0100
0001
0000
1010
0000
,
0001
0100
0001
0000
1000
0010
0100
0010
,
1000
0100
0010
0000
0001
0001
0100
0000
,
0010
0000
0011
0000
0010
0000
1010
1000
,
0000
0100
0001
0000
0100
0100
1000
0000
,
0010
0000
0000
0000
0110
0000
0000
0000
0001
0100
0001
0000
1000
0000
0010
0000
,
1000
1000
0100
0000
0001
0001
0100
0000
,
1000
0000
0110
0000
0001
0000
0101
0010
,
0000
0100
1000
0000
0100
0100
0001
0000
,
0100
0000
0000
0000
1001
0000
0000
0000
0001
0100
0001
0000
1000
0000
0010
0000
,
1000
0000
0100
0000
1000
0000
0001
0100
0001
0000
0100
0000
0010
0000
0000
0000
,
1000
0100
0010
0000
0110
0000
0000
0000
,
0001
0000
0100
0000
0001
0000
1000
0100
1000
0000
0100
0000
0010
0000
0000
0000
,
0001
0100
0010
0000
0120
0000
0000
0000
,
1030
0000
0010
0000
1000
0000
0100
0010
0100
0000
1000
0000
0100
0000
0000
0000
,
0010
0001
0010
0000
0110
0000
0000
0000
,
1000
0000
0100
0000
1000
0000
0010
0100
0010
0000
1000
0000
0010
0000
0000
0000
,
0100
0001
0010
0000
0100
0010
0100
0100
,
1000
0000
0010
0000
1000
0000
0001
0010
0001
0000
0010
0000
0100
0000
0000
0000
,
1000
0010
0100
0000
0110
0000
0000
0000
,
0001
0000
0010
0000
0001
0000
1000
0010
1000
0000
0010
0000
0100
0000
0000
0000
,
0001
0010
0100
0000
0210
0000
0000
0000
,
1300
0000
0100
0000
1000
0000
0010
0100
0010
0000
1000
0000
0010
0000
0000
0000
,
0100
0001
0100
0000
0110
0000
0000
0000
,
1000
0000
0010
0000
1000
0000
0100
0010
0100
0000
1000
0000
0100
0000
0000
0000
,
0010
0001
0100
0000
0010
0100
0010
0010
,
1000
0100
0010
0000
0001
0001
0100
0000
,
0010
0000
0011
0000
0010
0000
1010
1000
,
0000
0100
0001
0000
0100
0100
1000
0000
,
0010
0000
0000
0000
0110
0000
0000
0000
0001
0100
0001
0000
1000
0000
0010
0000
,
1000
1000
0100
0000
0001
0001
0100
0000
,
1000
0000
0110
0000
0001
0000
0101
0010
,
0000
0100
1000
0000
0100
0100
0001
0000
,
0100
0000
0000
0000
1001
0000
0000
0000
0001
0100
0001
0000
1000
0000
0010
0000
,
1000
0000
0100
1000
0100
0000
0000
0000
0010
0000
0010
0000
0001
0000
0000
0000
,
1000
0000
1100
0000
1000
0000
0101
0001
,
0000
0100
0010
0000
0100
0100
1000
0000
,
0100
0000
0000
0000
0101
0000
0000
0000
0001
0010
0001
0000
0010
0000
0100
0000
,
1000
0000
0010
1000
0010
0000
0000
0000
0100
0000
0100
0000
0001
0000
0000
0000
,
1000
0000
1010
0000
1000
0000
0011
0001
,
0000
0010
0100
0000
0010
0010
1000
0000
,
0010
0000
0000
0000
0011
0000
0000
0000
0001
0100
0001
0000
0100
0000
0010
0000
,
1010
0000
0000
0000
;

//---------------dance-single - ----------------
#NOTEDATA:;
#CHARTNAME:;
#STEPSTYPE:dance-single;
#DESCRIPTION:;
#CHARTSTYLE:;
#DIFFICULTY:Medium;
#METER:10;
#RADARVALUES:0.388889,0.481481,0.342593,0.074074,0.000000,294.000000,257.000000,37.000000,8.000000,0.000000,0.000000,0.000000,0.000000,0.000000,0.388889,0.481481,0.342593,0.074074,0.000000,294.000000,257.000000,37.000000,8.000000,0.000000,0.000000,0.000000,0.000000,0.000000;
#CREDIT:led_light;
#NOTES:
0000
0000
0000
0000
,
0000
0000
0000
0000
,
0000
0000
0000
0000
,
0000
0000
0000
0000
,
0000
0000
0000
0000
,
0000
0000
0000
0000
,
0000
0000
0000
0000
,
0000
0000
0000
0000
,
0000
0000
0000
0000
,
0110
0000
0001
0110
,
0000
1000
1001
0000
,
1010
0000
0000
0010
1000
0000
0101
0000
,
0000
0001
0022
0033
,
0110
0000
1000
0110
,
0000
0001
1001
0000
,
0101
0000
0000
0100
0001
0000
1010
0000
,
0000
1000
1100
0000
,
0110
0000
0001
0110
,
0000
0001
1010
0000
,
1001
0000
0000
1000
0100
0000
1100
0000
,
0000
0001
0202
0303
,
0110
0000
1000
0110
,
0000
1000
0101
0000
,
1001
0000
0000
0001
0010
0000
0011
0000
,
0000
1000
2020
3030
,
0100
0100
0100
0000
0001
0100
0001
0000
,
1000
0000
0100
0000
0001
0000
0100
1000
,
0000
1000
0001
0000
0100
0001
0100
0000
,
0010
0000
1000
0000
0100
1000
0100
0010
,
0100
0100
0100
0000
1000
0100
1000
0000
,
0001
0000
0100
0000
1000
0000
0100
0001
,
0000
0001
1000
0000
0100
1000
0100
0000
,
0010
0000
0001
0000
0100
0001
0100
0010
,
1000
0100
1000
0100
0010
0000
0101
0000
,
0010
0100
0010
0000
1100
0000
0000
0000
,
0011
0000
0001
1000
0010
0000
0110
0000
,
0001
0100
0001
0000
2100
0000
0000
0000
,
3001
0100
0001
0000
0100
0010
1000
0000
,
0100
1000
0100
0000
0101
0000
0000
0000
,
1000
0100
1000
0000
0100
0010
0001
0000
,
0100
0010
0100
0000
0100
1000
0100
0000
,
0001
0100
0001
0100
0010
0000
1100
0000
,
0010
0100
0010
0000
0101
0000
0000
0000
,
1010
0000
1000
0001
0010
0000
0110
0000
,
1000
0100
1000
0000
0102
0000
0000
0000
,
1003
0100
1000
0000
0100
0010
0001
0000
,
0100
0001
0100
0000
1100
0000
0000
0000
,
0001
0100
0001
0000
0100
0010
1000
0000
,
0100
0010
0100
0000
0100
0001
0100
0000
,
0010
0010
0010
0000
0001
0010
0001
0000
,
1000
0000
0010
0000
0001
0000
0010
1000
,
0000
1000
0001
0000
0010
0001
0010
0000
,
0100
0000
1000
0000
0010
1000
0010
0100
,
0010
0010
0010
0000
1000
0010
1000
0000
,
0001
0000
0010
0000
1000
0000
0010
0001
,
0000
0001
1000
0000
0010
1000
0010
0000
,
0100
0000
0001
0000
0010
0001
0010
0100
,
1000
0100
1000
0000
0001
0100
0001
0000
,
1000
0000
0010
0000
0001
0000
0010
1000
,
0000
1000
0100
0000
1000
0001
1000
0000
,
0001
0000
0100
0000
0010
0100
0010
0000
,
1000
0010
1000
0000
0001
0010
0001
0000
,
1000
0000
0100
0000
0001
0000
0100
1000
,
0000
1000
0010
0000
1000
0001
1000
0000
,
0001
0000
0010
0000
0100
0010
0100
0000
,
1001
0000
0000
0000
;

//---------------dance-single - ----------------
#NOTEDATA:;
#CHARTNAME:;
#STEPSTYPE:dance-single;
#DESCRIPTION:;
#CHARTSTYLE:;
#DIFFICULTY:Easy;
#METER:6;
#RADARVALUES:0.292328,0.361111,0.453704,0.092593,0.000000,221.000000,172.000000,49.000000,10.000000,0.000000,0.000000,0.000000,0.000000,0.000000,0.292328,0.361111,0.453704,0.092593,0.000000,221.000000,172.000000,49.000000,10.000000,0.000000,0.000000,0.000000,0.000000,0.000000;
#CREDIT:led_light;
#NOTES:
0000
0000
0000
0000
,
0000
0000
0000
0000
,
0000
0000
0000
0000
,
0000
0000
0000
0000
,
0000
0000
0000
0000
,
0000
0000
0000
0000
,
0000
0000
0000
0000
,
0000
0000
0000
0000
,
0000
0000
0000
0000
,
0110
0000
1000
0110
,
0000
0001
1001
0000
,
0011
0000
0001
1100
,
0000
1000
2020
3030
,
0110
0000
0001
0110
,
0000
1000
1001
0000
,
1100
0000
1000
0011
,
0000
0001
0101
0000
,
0110
0000
1000
0110
,
0000
1000
0011
0000
,
1001
0000
0100
0101
,
0000
1000
2200
3300
,
0110
0000
0001
0110
,
0000
0001
1100
0000
,
1001
0000
0010
1010
,
0000
0001
0022
0033
,
0100
0100
1000
1000
,
0010
0001
0010
1000
,
0000
0001
0100
0100
,
0010
0010
1000
0100
,
0010
0010
0001
0001
,
0100
1000
0100
0001
,
0000
1000
0010
0010
,
0100
0100
0001
0010
,
0110
0000
0001
0110
,
0000
1000
1001
0000
,
1010
0000
1000
0101
,
0000
0001
0022
0033
,
0110
0000
1000
0110
,
0000
0001
1001
0000
,
0101
0000
0001
1010
,
0000
1000
1100
0010
,
1001
0000
0100
1001
,
0010
0010
0110
0000
,
1010
0000
0010
0101
,
0100
0100
2200
3300
,
1001
0000
0010
1001
,
0100
0100
0110
0000
,
0101
0000
0100
1010
,
0010
0010
0011
0001
,
0100
0100
0001
0001
,
0010
1000
0010
0001
,
0000
1000
0100
0100
,
0010
0010
0001
0100
,
0010
0010
1000
1000
,
0100
0001
0100
1000
,
0000
0001
0010
0010
,
0100
0100
1000
0010
,
1000
0100
0001
0000
,
1000
0100
0001
0000
,
1000
0010
0001
0000
,
1000
0010
0001
0000
,
0100
0100
0100
0000
,
0010
0010
0010
0000
,
1000
1000
0100
0000
,
0001
0001
0100
0100
,
1001
0000
0000
0000
;

//---------------dance-single - ----------------
#NOTEDATA:;
#CHARTNAME:;
#STEPSTYPE:dance-single;
#DESCRIPTION:;
#CHARTSTYLE:;
#DIFFICULTY:Beginner;
#METER:3;
#RADARVALUES:0.148148,0.210648,0.083333,0.000000,0.000000,112.000000,103.000000,9.000000,0.000000,0.000000,0.000000,0.000000,0.000000,0.000000,0.148148,0.210648,0.083333,0.000000,0.000000,112.000000,103.000000,9.000000,0.000000,0.000000,0.000000,0.000000,0.000000,0.000000;
#CREDIT:led_light;
#NOTES:
0000
0000
0000
0000
,
0000
0000
0000
0000
,
0000
0000
0000
0000
,
0000
0000
0000
0000
,
0000
0000
0000
0000
,
0000
0000
0000
0000
,
0000
0000
0000
0000
,
0000
0000
0000
0000
,
0000
0000
0000
0000
,
1001
0000
0100
0000
,
0000
0000
0100
0000
,
1001
0000
0010
0000
,
0000
0000
0010
0000
,
1001
0000
0100
0000
,
0000
0000
0100
0000
,
1001
0000
0010
0000
,
0000
0000
0010
0000
,
1000
0000
0100
0000
,
0000
0000
0100
0000
,
0001
0000
0100
0000
,
0000
0000
0100
0000
,
1000
0000
0010
0000
,
0000
0000
0010
0000
,
0001
0000
0010
0000
,
0000
0000
0010
0000
,
1000
0000
1000
0000
,
1000
0000
1000
0000
,
0001
0000
0001
0000
,
0001
0000
0001
0000
,
0100
0100
0100
0000
,
1000
0000
0100
0000
,
0010
0010
0010
0000
,
1000
0000
0010
0000
,
1001
0000
0100
0000
,
0000
0000
0100
0000
,
1001
0000
0010
0000
,
0000
0000
0010
0000
,
1001
0000
0100
0000
,
0000
0000
0100
0000
,
1001
0000
0010
0000
,
0000
0000
0010
0000
,
1000
0000
0100
0000
,
0000
0000
0100
0000
,
0001
0000
0100
0000
,
0000
0000
0100
0000
,
1000
0000
0010
0000
,
0000
0000
0010
0000
,
0001
0000
0010
0000
,
0000
0000
0010
0000
,
1000
0000
1000
0000
,
1000
0000
1000
0000
,
0001
0000
0001
0000
,
0001
0000
0001
0000
,
0100
0100
0100
0000
,
1000
0000
0100
0000
,
0010
0010
0010
0000
,
1000
0000
0010
0000
,
0001
0000
0001
0000
,
0001
0000
0001
0000
,
1000
0000
1000
0000
,
1000
0000
1000
0000
,
0010
0010
0010
0000
,
0001
0000
0010
0000
,
0100
0100
0100
0000
,
0001
0000
0100
0000
,
1001
0000
0000
0000
;

//---------------dance-single - FNF Hard----------------
#NOTEDATA:;
#CHARTNAME:;
#STEPSTYPE:dance-single;
#DESCRIPTION:FNF Hard;
#CHARTSTYLE:;
#DIFFICULTY:Edit;
#METER:14;
#RADARVALUES:0.517196,0.570660,0.000000,0.379630,0.101852,391.000000,391.000000,0.000000,41.000000,0.000000,0.000000,0.000000,0.000000,0.000000,0.517196,0.570660,0.000000,0.379630,0.101852,391.000000,391.000000,0.000000,41.000000,0.000000,0.000000,0.000000,0.000000,0.000000;
#CREDIT:led_light (FNF Hard);
#NOTES:
// measure 0
0000
0000
0000
0000
,  // measure 1
0000
0000
0000
0000
,  // measure 2
0000
0000
0000
0000
,  // measure 3
0000
0000
0000
0000
,  // measure 4
0000
0000
0000
0000
,  // measure 5
0000
0000
0000
0000
,  // measure 6
0000
0000
0000
0000
,  // measure 7
0000
0000
0000
0000
,  // measure 8
0000
0000
0000
0000
,  // measure 9
0000
0000
0000
0000
0100
0000
0000
0000
0001
0000
0000
0000
1000
0000
0000
0000
1000
0000
0000
0000
0100
0000
0000
0000
0002
0003
0000
0000
0000
0000
0000
0000
,  // measure 10
0010
0000
1000
0000
0010
0000
0001
1000
0001
0000
0001
0000
0100
0000
0000
0000
,  // measure 11
0000
0100
0001
1000
1000
0100
0001
0010
,  // measure 12
0001
0000
0000
0000
0100
0000
0000
0000
0001
0000
0000
0000
0010
0000
0000
0000
0100
0000
0000
0000
0001
0000
0000
0000
0200
0300
0000
0000
0000
0000
0000
0000
,  // measure 13
0000
0000
0000
0000
0100
0000
0000
0000
0001
0000
0000
0000
1000
0000
0000
0000
1000
0000
0000
0000
0100
0000
0000
0000
0002
0003
0000
0000
0000
0000
0000
0000
,  // measure 14
0010
0000
1000
0000
0010
0000
0001
1000
0001
0000
0001
0000
0100
0000
0000
0000
,  // measure 15
0000
0100
0001
1000
1000
0100
0001
0010
,  // measure 16
0001
0000
0000
0000
0100
0000
0000
0000
0001
0000
0000
0000
0010
0000
0000
0000
0100
0000
0000
0000
0001
0000
0000
0000
0200
0300
0000
0000
0000
0000
0000
0000
,  // measure 17
0000
0010
0001
0001
0010
1000
0001
0100
,  // measure 18
0001
0100
1000
0100
0010
0001
1000
0100
,  // measure 19
0000
0010
0001
0001
0100
1000
0001
0010
,  // measure 20
0001
1000
0100
0100
0001
0010
1000
0100
,  // measure 21
0000
0010
0001
0001
0010
1000
0001
0100
,  // measure 22
0001
0100
1000
0100
0010
0001
1000
0100
,  // measure 23
0000
0010
0001
0001
0100
1000
0001
0010
,  // measure 24
0001
1000
0100
0100
0001
0010
1000
0100
,  // measure 25
0000
0000
0000
0000
1000
0000
0000
0000
0020
0030
0000
0000
0000
0000
0000
0000
0001
0000
0000
0000
0001
0000
0000
0000
0200
0000
0000
0000
0300
0000
0000
0000
,  // measure 26
0020
0030
0000
0000
0000
0000
0000
0000
0001
0000
0000
0000
0000
0000
0000
0000
0010
0000
0000
0000
0000
0000
0000
0000
1000
0000
0000
0000
0001
0000
0000
0000
,  // measure 27
0000
0000
0000
0000
1000
0000
0000
0000
0020
0030
0000
0000
0000
0000
0000
0000
0001
0000
0000
0000
0001
0000
0000
0000
0200
0000
0000
0000
0300
0000
0000
0000
,  // measure 28
2000
0000
3000
0000
0100
0000
0000
0000
0001
0001
0100
0000
0010
0000
0001
0000
,  // measure 29
0000
0000
0000
0000
1000
0000
0000
0000
0020
0030
0000
0000
0000
0000
0000
0000
0001
0000
0000
0000
0001
0000
0000
0000
0200
0000
0000
0000
0300
0000
0000
0000
,  // measure 30
0020
0030
0000
0000
0000
0000
0000
0000
0001
0000
0000
0000
0000
0000
0000
0000
0010
0000
0000
0000
0000
0000
0000
0000
1000
0000
0000
0000
0001
0000
0000
0000
,  // measure 31
0000
0000
0000
0000
1000
0000
0000
0000
0020
0030
0000
0000
0000
0000
0000
0000
0001
0000
0000
0000
0001
0000
0000
0000
0200
0000
0000
0000
0300
0000
0000
0000
,  // measure 32
2000
0000
3000
0000
0100
0000
0000
0000
0001
0001
0100
0000
0010
0000
0001
0000
,  // measure 33
1000
0000
1000
0000
0001
0000
0100
0001
0100
0000
1000
0000
0100
0000
1000
0000
,  // measure 34
0010
0000
0010
0000
0001
0000
0010
0000
0100
0000
1000
0100
1000
0000
1000
0000
,  // measure 35
0001
0000
0001
0000
0001
0000
0010
1000
0010
0000
1000
0000
1000
0000
1000
0000
,  // measure 36
1000
1000
0001
0001
0010
1000
0010
0001
,  // measure 37
1000
0000
1000
0000
0001
0000
0100
0001
0100
0000
1000
0000
0100
0000
1000
0000
,  // measure 38
0010
0000
0010
0000
0001
0000
0010
0000
0100
0000
1000
0100
1000
0000
1000
0000
,  // measure 39
0001
0000
0001
0000
0001
0000
0010
1000
0010
0000
1000
0000
1000
0000
1000
0000
,  // measure 40
1000
1000
0001
0001
0010
1000
0010
0001
,  // measure 41
1000
0000
1000
0000
0001
0000
0100
0001
0100
0000
1000
0000
0100
0000
1000
0000
,  // measure 42
0010
0000
0010
0000
0001
0000
0010
0000
0100
0000
1000
0100
1000
0000
1000
0000
,  // measure 43
0001
0000
0001
0000
0001
0000
0010
1000
0010
0000
1000
0000
1000
0000
1000
0000
,  // measure 44
0010
0001
0010
1000
0100
1000
0010
0001
,  // measure 45
1000
0000
1000
0000
0001
0000
0100
0001
0100
0000
1000
0000
0100
0000
1000
0000
,  // measure 46
0010
0000
0010
0000
0001
0000
0010
0000
0100
0000
1000
0100
1000
0000
1000
0000
,  // measure 47
0001
0000
0001
0000
0001
0000
0010
1000
0010
0000
1000
0000
1000
0000
1000
0000
,  // measure 48
0010
0001
0010
1000
0100
1000
0010
0001
,  // measure 49
0200
0000
0000
0300
1000
0000
0000
0000
0020
0030
0000
0000
0000
0000
0000
0000
0001
0000
0000
0000
0001
0000
0000
0000
0200
0000
0000
0000
0300
0000
0000
0000
,  // measure 50
0020
0030
0000
0000
0000
0000
0000
0000
0001
0000
0000
0000
0000
0000
0000
0000
0010
0000
0000
0000
0000
0000
0000
0000
1000
0000
0000
0000
0001
0000
0000
0000
,  // measure 51
0000
0000
0000
0000
1000
0000
0000
0000
0020
0030
0000
0000
0000
0000
0000
0000
0001
0000
0000
0000
0001
0000
0000
0000
0200
0000
0000
0000
0300
0000
0000
0000
,  // measure 52
2000
0000
3000
0000
0100
0000
0000
0000
0001
0001
0100
0000
0010
0000
0001
0000
,  // measure 53
0000
0000
0000
0000
1000
0000
0000
0000
0020
0030
0000
0000
0000
0000
0000
0000
0001
0000
0000
0000
0001
0000
0000
0000
0200
0000
0000
0000
0300
0000
0000
0000
,  // measure 54
0020
0030
0000
0000
0000
0000
0000
0000
0001
0000
0000
0000
0000
0000
0000
0000
0010
0000
0000
0000
0000
0000
0000
0000
1000
0000
0000
0000
0001
0000
0000
0000
,  // measure 55
0000
0000
0000
0000
1000
0000
0000
0000
0020
0030
0000
0000
0000
0000
0000
0000
0001
0000
0000
0000
0001
0000
0000
0000
0200
0000
0000
0000
0300
0000
0000
0000
,  // measure 56
2000
0000
3000
0000
0100
0000
0000
0000
0001
0001
0100
0000
0010
0000
0001
0000
,  // measure 57
0000
0000
0000
0000
1000
0000
1000
0000
0020
0030
0000
0000
0000
0000
0000
0000
0001
0000
0000
0000
0001
0000
0000
0000
0200
0000
0000
0000
0300
0000
0000
0000
,  // measure 58
0020
0030
0000
0000
0000
0000
0000
0000
0001
0000
0000
0000
0000
0000
0000
0000
0010
0000
0000
0000
0000
0000
0000
0000
1000
0000
0000
0000
0001
0000
0000
0000
,  // measure 59
0000
0000
0000
0000
1000
0000
0000
0000
0020
0030
0000
0000
0000
0000
0000
0000
0001
0000
0000
0000
0001
0000
0000
0000
0200
0000
0000
0000
0300
0000
0000
0000
,  // measure 60
2000
0000
3000
0000
0100
0000
0000
0000
0001
0001
0100
0000
0010
0000
0001
0000
,  // measure 61
0000
0000
0000
0000
1000
0000
1000
0000
0020
0030
0000
0000
0000
0000
0000
0000
0001
0000
0000
0000
0001
0000
0000
0000
0200
0000
0000
0000
0300
0000
0000
0000
,  // measure 62
0020
0030
0000
0000
0000
0000
0000
0000
0001
0000
0000
0000
0000
0000
0000
0000
0010
0000
0000
0000
0000
0000
0000
0000
1000
0000
0000
0000
0001
0000
0000
0000
,  // measure 63
0000
0000
0000
0000
1000
0000
0000
0000
0020
0030
0000
0000
0000
0000
0000
0000
0001
0000
0000
0000
0001
0000
0000
0000
0200
0000
0000
0000
0300
0000
0000
0000
,  // measure 64
2000
0000
3000
0000
0100
0000
0000
0000
0001
0001
0100
0000
0010
0000
0001
0000
;
