#TITLE:Blammed;
#SUBTITLE:[B-Side Remix];
#ARTIST:Rozebud;
#TITLETRANSLIT:;
#SUBTITLETRANSLIT:;
#ARTISTTRANSLIT:;
#GENRE:Friday Night Funkin';
#CREDIT:;
#BANNER:Blammed [B-Side Remix].png;
#BACKGROUND:../bg.png;
#LYRICSPATH:;
#CDTITLE:../cdtitle.png;
#MUSIC:Blammed [B-Side Remix].ogg;
#OFFSET:2.705000;
#SAMPLESTART:44.736000;
#SAMPLELENGTH:15.000000;
#LASTBEATHINT:2.443833;
#SELECTABLE:YES;
#BPMS:0.000000=86.000000
,18.937500=172.000000
;
#STOPS:18.937500=0.719000
;
#BGCHANGES: 1.500=Blammed [B-Side Remix].avi=1.000=0=0=0=StretchNoLoop====,
99999=-nosongbg-=1.000=0=0=0 // don't automatically add -songbackground-
;
#KEYSOUNDS:;
#ATTACKS:;

//---------------dance-single - FNF Hard----------------
#NOTES:
     dance-single:
     :
     Edit:
     18:
     0.823095,0.884721,0.000000,0.010810,0.670212,533.000000,533.000000,0.000000,1.000000,0.000000,0.000000,0.823095,0.884721,0.000000,0.010810,0.670212,533.000000,533.000000,0.000000,1.000000,0.000000,0.000000:
0000
0000
0000
0000
,
0000
0000
0000
0000
,
0000
0000
0000
0000
,
0000
0000
0000
0000
,
0000
0000
0000
0000
0000
0000
0000
0010
,
1000
0000
0001
0000
0100
0000
0100
0000
1000
0000
0000
0000
0001
0000
0100
0100
,
0001
0000
0100
0100
1000
0000
1000
0000
0010
0000
0000
0000
0000
0000
0010
0001
,
1000
0000
0100
1000
0100
0000
0010
0000
1000
0010
0001
0000
0100
0000
1000
0000
,
0010
0000
0001
0000
0100
0000
1000
1000
0010
0000
0000
0000
0000
0000
0100
0000
,
0001
0000
1000
0000
0010
0000
0010
0000
0001
0000
0000
0000
1000
0000
0010
0010
,
1000
0000
0010
0010
0001
0000
0001
0000
0100
0000
0000
0000
0000
0000
0100
1000
,
0001
0000
0010
0001
0010
0000
0100
0000
0001
0100
1000
0000
0010
0000
0001
0000
,
0100
0000
1000
0000
0010
0000
0001
0001
0100
0000
0000
0000
0001
0000
1000
0000
,
0100
0000
0000
0010
0000
0010
1000
0000
0000
0000
0001
0000
0001
0000
1000
0000
,
0100
0000
1000
0000
0010
0000
0010
0010
0010
0000
0100
0000
0001
0000
1000
0000
,
0010
1000
0001
0100
0000
0001
0100
1000
,
0010
0000
1000
0000
0001
0001
0001
0001
0100
0000
0100
0000
1000
0000
0001
0000
,
0010
0000
0000
0010
0000
0010
0100
0000
0010
0000
1000
0000
1000
0000
0001
0000
,
0010
0000
0001
0000
0100
0000
0100
0100
0001
0000
1000
0000
1000
0000
0001
0000
,
0010
0010
0010
0000
1000
0000
0010
0000
0001
0000
1000
0000
0010
0000
0001
0001
,
0100
0000
0001
0000
0100
0100
0100
0100
1000
0000
0001
0000
0000
0000
0100
0100
,
0001
0000
0000
0000
0010
0000
1000
1000
0010
0000
1000
0000
0100
0000
1000
0000
,
0001
0000
1000
0000
0010
0000
0100
0100
1000
0000
0001
0000
0000
0000
0100
0001
,
0100
0000
0000
0000
0010
0010
0010
0000
0100
0000
1000
0000
0001
0000
0100
0000
,
0010
0000
1000
1000
0001
0001
0100
0000
0010
0000
1000
0000
0000
0000
0010
0010
,
1000
0000
0000
0000
0100
0000
0001
0001
0100
0000
0001
0000
0010
0000
0001
0000
,
1000
0000
0001
0000
0100
0000
0010
0010
0001
0000
1000
0000
0000
0000
0010
1000
,
0010
0000
0000
0000
0100
0100
0100
0000
0010
0000
0001
0000
1000
0000
0010
0000
,
0100
0000
0001
0001
1000
1000
0010
0000
0100
0000
0001
0000
0001
0000
1000
0100
,
0001
0000
1000
0100
0001
0100
1000
0010
0001
0000
1000
0010
0001
0000
0001
0000
,
0001
0100
0010
1000
0001
0000
1000
0010
0001
0000
0010
0010
0100
0100
0001
0000
,
0001
0100
0010
1000
0010
0000
1000
1000
0001
0000
0100
0100
1000
0000
0001
0000
,
0010
0000
1000
0000
0010
0000
1000
0000
0001
0000
0100
0000
1000
0000
0001
0010
,
1000
0000
0001
0010
1000
0010
0001
0100
1000
0000
0001
0100
1000
0000
1000
0000
,
1000
0010
0100
0001
1000
0000
0001
0100
1000
0000
0100
0100
0010
0010
1000
0000
,
1000
0010
0100
0001
0100
0000
0001
0001
1000
0000
0010
0010
0001
0000
1000
0000
,
0100
0000
0001
0000
0100
0000
0001
0000
1000
0000
0010
0000
1000
0010
0010
0000
,
0010
0000
0001
1000
0001
0000
0100
0000
1000
0000
0010
0010
0001
0000
0010
0000
,
0001
0000
1000
1000
0010
0000
0100
0100
0010
0010
1000
1000
0001
0000
0010
0000
,
0001
0000
1000
0100
0001
0000
0010
1000
0001
0000
1000
0010
0100
1000
0001
0000
,
0010
0000
1000
0000
0100
0000
1000
1000
0001
0000
0010
0000
0001
0100
0100
0000
,
0100
0000
1000
0001
1000
0000
0010
0000
0001
0000
0100
0100
1000
0000
0100
0000
,
1000
0000
0001
0001
0100
0000
0010
0010
0100
0100
0001
0001
1000
0000
0100
0000
,
1000
0000
0001
0010
1000
0000
0100
0001
1000
0000
0001
0100
0010
0001
1000
0000
,
0100
0000
0000
0000
0001
0000
0000
0000
0010
0000
0000
0000
0001
0000
0001
0000
1000
0000
0000
0000
0100
0000
0000
0000
0002
0000
0000
0000
0100
0000
0100
0003
,
0001
0000
0000
0000
0010
0000
1000
1000
0010
0000
1000
0000
0100
0000
1000
0000
,
0001
0000
1000
0000
0010
0000
0100
0100
1000
0000
0001
0000
0000
0000
0100
0001
,
0100
0000
0000
0000
0010
0010
0010
0000
0100
0000
1000
0000
0001
0000
0100
0000
,
0010
0000
1000
1000
0001
0001
0100
0000
0010
0000
1000
0000
0000
0000
0010
0010
,
1000
0000
0000
0000
0100
0000
0001
0001
0100
0000
0001
0000
0010
0000
0001
0000
,
1000
0000
0001
0000
0100
0000
0010
0010
0001
0000
1000
0000
0000
0000
0010
1000
,
0010
0000
0000
0000
0100
0100
0100
0000
0010
0000
0001
0000
1000
0000
0010
0000
,
0100
0000
0001
0001
1000
1000
0010
0000
0100
0000
0001
0000
0000
0000
0010
0010
,
0001
0000
0000
0000
0010
1000
0010
0010
0100
0000
1000
0000
0010
0000
1000
0000
,
0001
0000
1000
0000
0100
0000
0010
0010
0010
0010
0001
0000
0000
0000
0100
0001
,
0100
0000
0000
0000
0010
0010
0010
0000
0100
0000
1000
0000
0001
0010
1000
0000
,
0100
0000
1000
1000
0001
0001
0100
0000
0010
0000
1000
0000
0000
0000
0100
0100
,
1000
0000
0000
0000
0100
0001
0100
0100
0010
0000
0001
0000
0100
0000
0001
0000
,
1000
0000
0001
0000
0010
0000
0100
0100
0100
0100
1000
0000
0000
0000
0010
1000
,
0010
0000
0000
0000
0100
0100
0100
0000
0010
0000
0001
0000
1000
0100
0001
0000
,
0010
0000
0001
0001
1000
1000
0010
0000
0100
0000
0001
0000
0000
0000
0000
0000
;

//---------------dance-single - ----------------
#NOTES:
     dance-single:
     :
     Hard:
     15:
     0.688744,0.801012,0.140528,0.367536,0.394560,446.000000,433.000000,13.000000,34.000000,0.000000,0.000000,0.688744,0.801012,0.140528,0.367536,0.394560,446.000000,433.000000,13.000000,34.000000,0.000000,0.000000:
0000
0000
0000
0000
,
0000
0000
0000
0000
,
0000
0000
0000
0000
,
0000
0000
0000
0000
,
0000
0000
0000
0000
0000
0000
0000
0100
,
0001
0000
0100
0000
0010
0000
1000
0000
0001
0000
0000
0000
0010
0000
0100
0010
,
0100
0000
1000
0100
1000
0000
0001
0000
0100
0000
0000
0000
0010
0000
1000
0100
,
1000
0000
0001
0000
0100
0000
0001
0000
1000
0100
0010
0000
0100
0000
1000
0000
,
0010
0000
0010
0000
0100
0000
1000
0010
1000
0000
0000
0000
0100
0000
0010
0000
,
0001
0000
0010
0000
0100
0000
1000
0000
0001
0000
0000
0000
0100
0000
0010
0100
,
0010
0000
1000
0010
1000
0000
0001
0000
0010
0000
0000
0000
0100
0000
1000
0010
,
1000
0000
0001
0000
0010
0000
0001
0000
1000
0010
0100
0000
0010
0000
1000
0000
,
0100
0000
0100
0000
0010
0000
1000
0100
2000
0000
3000
0000
1001
0000
0001
0000
,
0100
0000
0000
0010
0000
0010
1000
0000
0100
0000
0010
0000
1000
0000
0010
0000
,
0001
0000
0010
0000
1000
0000
0010
0100
0010
0000
0001
0000
0100
0000
0010
0000
,
1000
1000
0010
0001
1000
1000
0010
0001
,
0100
0000
0010
0000
1000
0100
1000
0100
1000
0000
0001
0000
1000
0000
0001
0000
,
0010
0000
0000
0100
0000
0100
1000
0000
0010
0000
0100
0000
1000
0000
0100
0000
,
0001
0000
0100
0000
1000
0000
0100
0010
0100
0000
0001
0000
0010
0000
0100
0000
,
1000
0100
1000
0000
0001
0100
0001
0000
1000
0000
0010
0000
0100
0000
0001
0010
,
0100
0000
1000
0000
0100
0010
0100
0010
0100
0000
1000
0000
0001
0000
0100
0010
,
1000
0000
0000
0000
0010
0000
0100
0001
2000
0000
0000
0000
3001
0000
0000
0000
,
0011
0000
0000
0000
0010
0000
1000
0010
1000
0000
0010
0000
0001
0000
0010
0100
,
1000
0000
0000
0000
0100
0010
0001
0000
0200
0000
0000
0000
0310
0000
0000
0000
,
0011
0000
0000
0000
0010
1000
0010
0000
1000
0000
0100
0000
0010
0000
0001
1000
,
0100
0000
0000
0000
1000
0000
0001
0010
0200
0000
0000
0000
0310
0000
0000
0000
,
1010
0000
0000
0000
1000
0000
0100
1000
0100
0000
1000
0000
0010
0000
1000
0001
,
0100
0000
0000
0000
0001
1000
0010
0000
0002
0000
0000
0000
1003
0000
0000
0000
,
1010
0000
0000
0000
1000
0100
1000
0000
0100
0000
0001
0000
0200
0000
0000
0000
,
1300
0020
0130
0002
,
0013
0000
0200
0000
0310
0001
0200
0000
,
0320
2030
3200
0320
,
0032
0000
0000
0000
0013
0000
0100
0000
1000
0000
0010
0000
0100
0000
0010
1000
,
0010
0000
1000
0100
0010
0000
0001
0000
0100
0000
0100
0000
0010
0000
1000
0000
,
0001
0010
0001
0010
0001
0000
0100
0000
0010
0000
1000
0000
0100
0010
0100
0000
,
1000
0100
1000
0000
0001
0000
0100
0010
1000
0000
0001
0000
0010
0000
1000
0000
,
0001
0100
1000
0100
0010
0001
2000
0000
,
3020
0230
0302
0023
,
2030
0000
3010
0001
2000
0000
3020
0000
,
0130
0000
0002
0000
0013
0100
2000
0000
,
3100
0000
0000
0000
0020
0000
0000
0000
0032
0000
0000
0000
0013
0100
1000
0000
,
0010
0000
1000
0100
0010
0000
0001
0000
0100
0000
0010
0100
0010
0000
1000
0000
,
0001
0000
0010
0001
0010
0000
0001
0100
0010
1000
0010
0000
1000
0000
0100
0000
,
0010
0000
0100
1000
0001
0000
1000
0001
0010
0000
0100
1000
0010
0100
0010
0000
,
0001
0000
1000
0000
0100
0000
0010
0000
1000
0000
0001
0000
2000
0000
3100
0010
,
0001
0000
0000
0000
0010
0000
0100
1000
0002
0000
0000
0000
1003
0000
0000
0000
,
1010
0000
0000
0000
0010
0000
0001
0010
0001
0000
0010
0000
1000
0000
0010
0100
,
0001
0000
0000
0000
0100
0010
1000
0000
0200
0000
0000
0000
0310
0000
0000
0000
,
1010
0000
0000
0000
0010
0001
0010
0000
0001
0000
0100
0000
0010
0000
1000
0001
,
0100
0000
0000
0000
0001
0000
1000
0010
0200
0000
0000
0000
0310
0000
0000
0000
,
0011
0000
0000
0000
0001
0000
0100
0001
0100
0000
0001
0000
0010
0000
0001
1000
,
0100
0000
0000
0000
1000
0001
0010
0000
2000
0000
0000
0000
3001
0000
0000
0000
,
0011
0000
0000
0000
0001
0100
0001
0000
0100
0000
1000
0000
0100
0000
0001
1000
,
0100
0000
1000
0100
0010
0000
0001
0000
,
1100
0000
0000
0000
0001
0000
0000
0000
0100
0000
0010
0000
0000
0000
1000
0100
,
1000
0000
0001
0100
0010
0000
1000
0000
,
0011
0000
0000
0000
0010
0100
0010
0000
0100
0000
1000
0000
0010
0000
1000
0001
,
0010
0000
0000
0000
0001
0000
0010
0100
2000
0000
0000
0000
3100
0000
0000
0000
,
0011
0000
0000
0000
1000
0000
0010
0100
0010
0000
1000
0000
0000
0000
0001
0010
,
0001
0000
0000
0000
1000
0100
0010
0000
0001
0000
0000
0000
1000
0000
0000
0000
,
1100
0000
0000
0000
0010
0100
0010
0000
0001
0000
0100
0000
0020
0000
0000
0000
,
0000
0000
0000
0030
;

//---------------dance-single - ----------------
#NOTES:
     dance-single:
     :
     Beginner:
     2:
     0.126630,0.166877,0.000000,0.010810,0.000000,82.000000,82.000000,0.000000,1.000000,0.000000,0.000000,0.126630,0.166877,0.000000,0.010810,0.000000,82.000000,82.000000,0.000000,1.000000,0.000000,0.000000:
0000
0000
0000
0000
,
0000
0000
0000
0000
,
0000
0000
0000
0000
,
0000
0000
0000
0000
,
0000
0000
0000
0000
,
0100
0100
0000
0100
,
0000
0100
0000
0000
,
1000
1000
0000
0010
,
0000
0010
0000
0000
,
0100
0100
0000
0100
,
0000
0100
0000
0000
,
0001
0001
0000
0010
,
0000
0010
0000
0100
,
0000
0000
0000
0100
,
0000
0000
0000
0100
,
0000
0100
0000
0100
,
0000
0000
0000
0010
,
0000
0000
0000
0010
,
0000
0000
0000
0010
,
0000
0010
0000
0010
,
0000
0000
0000
1000
,
0000
0000
0000
1000
,
0000
0000
0000
0010
,
0000
0000
0000
0010
,
0000
0000
0000
0001
,
0000
0000
0000
0001
,
0000
0000
0000
0100
,
0000
0000
0000
0100
,
0000
0000
0000
0010
,
0000
0010
0000
0010
,
0000
0000
0000
0010
,
0000
0010
0000
0010
,
0000
0000
0000
1000
,
0000
0001
0000
1000
,
0000
0000
0000
0001
,
0000
1000
0000
0001
,
0000
0000
0000
0010
,
0000
0000
0000
0010
,
0000
0000
0000
0100
,
0000
0000
0000
0100
,
0000
0000
0000
1000
,
0000
0001
0000
1000
,
0000
0000
0000
0001
,
0000
1000
0000
0001
,
0000
0100
0000
0010
,
0000
0000
0000
0010
,
0000
0000
0000
0001
,
0000
0000
0000
0001
,
0000
0000
0000
0100
,
0000
0000
0000
0100
,
0000
0000
0000
1000
,
0000
0000
0000
1000
,
0000
0000
0000
0000
,
0010
0010
0000
0010
,
0000
0010
0000
0000
,
1000
1000
0000
1000
,
0000
1000
0000
0000
,
0100
0100
0000
0100
,
0000
0100
0000
0000
,
0001
0001
0000
0001
,
0000
0001
0000
2000
,
0000
0000
0000
3000
;

//---------------dance-single - ----------------
#NOTES:
     dance-single:
     :
     Easy:
     7:
     0.336650,0.367130,0.162148,0.032430,0.000000,218.000000,203.000000,15.000000,3.000000,0.000000,0.000000,0.336650,0.367130,0.162148,0.032430,0.000000,218.000000,203.000000,15.000000,3.000000,0.000000,0.000000:
0000
0000
0000
0000
,
0000
0000
0000
0000
,
0000
0000
0000
0000
,
0000
0000
0000
0000
,
0000
0000
0000
0000
,
1000
0001
0001
0100
,
0010
1000
0011
0000
,
0100
0010
0010
0001
,
1000
0100
1010
0000
,
0001
1000
1000
0010
,
0100
0001
1100
0000
,
0010
0100
0100
1000
,
0001
0010
0101
0010
,
0010
0010
0000
1000
,
1000
1000
0000
0010
,
0100
0010
0010
0001
,
0001
0020
0030
1000
,
1000
1000
0000
0100
,
0100
0100
0000
1000
,
0001
1000
1000
0010
,
0010
1000
0100
0010
,
0000
0010
0000
0100
,
0100
1000
0101
0000
,
0100
0001
0001
0010
,
0100
0010
0011
0000
,
0100
0100
0000
0010
,
0010
0001
1010
0000
,
0010
1000
1000
0100
,
0010
0100
1100
0001
,
0100
0001
0100
0010
,
1000
0100
1000
0010
,
0100
0010
0100
0001
,
1000
0001
0010
0100
,
0001
0100
1000
0010
,
0001
0010
1000
0001
,
0010
1000
0010
0001
,
0001
1000
0010
1000
,
0100
1000
0100
0010
,
0001
0100
0001
0010
,
0100
0010
0100
1000
,
0001
1000
0010
0100
,
1000
0100
0001
0010
,
1000
0010
0001
1000
,
0010
0001
0010
1000
,
1000
0001
0010
0100
,
0000
0100
0000
0010
,
0010
0001
1010
0000
,
0010
1000
1000
0100
,
0010
0100
1100
0000
,
0010
0010
0000
0100
,
0100
1000
0101
0000
,
0100
0001
0001
0010
,
0100
0010
0011
0001
,
1000
0100
1000
0010
,
0100
0010
1000
0001
,
0010
1000
0010
0001
,
0010
0100
0110
1000
,
0001
0010
0010
0001
,
0100
0010
0101
0000
,
1000
0100
0001
0100
,
1000
0010
0010
2002
,
0000
0000
0000
3003
;

//---------------dance-single - ----------------
#NOTES:
     dance-single:
     :
     Medium:
     12:
     0.560569,0.567383,0.302677,0.086479,0.000000,363.000000,335.000000,28.000000,8.000000,0.000000,0.000000,0.560569,0.567383,0.302677,0.086479,0.000000,363.000000,335.000000,28.000000,8.000000,0.000000,0.000000:
// measure 0
0000
0000
0000
0000
,  // measure 1
0000
0000
0000
0000
,  // measure 2
0000
0000
0000
0000
,  // measure 3
0000
0000
0000
0000
,  // measure 4
0000
0000
0000
0000
0000
0000
0000
0001
,  // measure 5
0001
0000
0100
0000
1001
0000
0010
1000
,  // measure 6
0100
1000
0010
0000
0110
0000
0001
0100
,  // measure 7
0001
0000
1000
1000
0100
0000
0010
0001
,  // measure 8
0100
0001
0010
0000
0110
0000
0000
1000
,  // measure 9
1000
0000
0010
0000
1001
0000
0100
0001
,  // measure 10
0010
0001
0100
0000
0110
0000
1000
0010
,  // measure 11
1000
0000
0001
0001
0010
0000
0100
1000
,  // measure 12
0010
1000
0100
0000
0110
0000
0001
0001
,  // measure 13
0001
0000
0001
0100
0010
0000
0100
0001
,  // measure 14
0010
0100
0001
0000
0110
0000
0001
1000
,  // measure 15
0100
0000
1000
0001
0010
0000
0100
1000
,  // measure 16
0010
0100
1000
0000
0110
0000
1000
1000
,  // measure 17
1000
0000
1000
0010
0100
0000
0010
1000
,  // measure 18
0100
0010
1000
0000
0110
0000
1000
0001
,  // measure 19
0010
0000
0001
1000
0100
0000
0010
0001
,  // measure 20
0100
0010
0001
0000
0110
0000
0010
0010
,  // measure 21
0001
0000
0010
0010
1000
0000
0100
0000
,  // measure 22
0101
0000
0100
0000
1100
1000
0000
0001
,  // measure 23
0100
0000
0010
1000
0100
0000
1000
0000
,  // measure 24
1010
0000
0010
0100
0001
1000
0000
0100
,  // measure 25
0001
0000
0100
0100
1000
0000
0010
0000
,  // measure 26
0011
0000
0010
0000
1010
1000
0000
0001
,  // measure 27
0010
0000
0100
1000
0010
0000
1000
0000
,  // measure 28
1100
0000
0100
0010
0001
1000
0100
0010
,  // measure 29
0100
0010
0001
0010
0100
1000
0001
0100
,  // measure 30
0001
0100
0010
1000
0100
0010
0100
1000
,  // measure 31
0100
1000
0001
0010
0100
1000
0100
0010
,  // measure 32
0100
0010
0001
0100
0010
0000
1000
0100
,  // measure 33
1000
0100
0010
0100
1000
0001
0010
0100
,  // measure 34
1000
0100
0010
0001
0100
0010
1000
0100
,  // measure 35
1000
0100
0010
0001
0100
0001
1000
0010
,  // measure 36
0100
0010
1000
0100
0001
0100
2000
0000
,  // measure 37
3100
2000
3010
2000
,  // measure 38
3100
0000
1000
0010
0100
0000
0002
0000
,  // measure 39
0013
0000
0200
0000
0310
0001
0200
0000
,  // measure 40
0310
0000
2000
0000
3100
0000
1000
0010
,  // measure 41
1000
0010
0100
0010
1000
0001
0100
0010
,  // measure 42
1000
0010
0100
0001
0010
0100
1000
0010
,  // measure 43
1000
0010
0100
0001
0010
0001
1000
0100
,  // measure 44
0010
0100
1000
0100
0010
0001
0100
0100
,  // measure 45
1000
0000
0100
0100
0001
0000
0010
0000
,  // measure 46
1010
0000
0010
0000
0011
0001
0000
1000
,  // measure 47
0010
0000
0100
0001
0010
0000
0001
0000
,  // measure 48
0101
0000
0100
0010
1000
0001
0000
0010
,  // measure 49
1000
0000
0010
0010
0001
0000
0100
0000
,  // measure 50
1100
0000
0100
0000
0101
0001
0000
1000
,  // measure 51
0100
0000
0010
0001
0100
0000
0001
0000
,  // measure 52
0011
0000
0010
0100
1000
0001
1000
1000
,  // measure 53
0100
0000
0010
0001
0100
0000
0001
0000
,  // measure 54
1100
0000
0010
0000
0101
0001
0000
1000
,  // measure 55
0100
0000
1000
0001
0100
0000
0010
0000
,  // measure 56
0110
0000
1000
0100
0010
0000
0001
0001
,  // measure 57
0010
0000
0100
1000
0010
0000
1000
0000
,  // measure 58
0011
0000
0100
0000
1010
1000
0000
0001
,  // measure 59
0010
0000
0001
1000
0010
0000
0100
0000
,  // measure 60
0110
0000
1000
0100
0001
0100
2000
0000
,  // measure 61
0000
0000
0000
3000
;
