#VERSION:0.83;
#TITLE:Black Out;
#SUBTITLE:;
#ARTIST:OBSYDIA;
#TITLETRANSLIT:;
#SUBTITLETRANSLIT:;
#ARTISTTRANSLIT:;
#GENRE:にじさんじ;
#ORIGIN:;
#CREDIT:;
#BANNER:Black Out.png;
#BACKGROUND:../bg.png;
#PREVIEWVID:;
#JACKET:Black Out-jacket.png;
#CDIMAGE:;
#DISCIMAGE:;
#LYRICSPATH:;
#CDTITLE:../cdtitle.png;
#MUSIC:Black Out.ogg;
#OFFSET:1.599000;
#SAMPLESTART:65.600998;
#SAMPLELENGTH:15.000000;
#SELECTABLE:YES;
#BPMS:0.000=150.000;
#STOPS:;
#DELAYS:;
#WARPS:;
#TIMESIGNATURES:0.000=4=4;
#TICKCOUNTS:0.000=4;
#COMBOS:0.000=1;
#SPEEDS:0.000=1.000=0.000=0;
#SCROLLS:0.000=1.000;
#FAKES:;
#LABELS:0.000=Song Start;
#BGCHANGES:5.875=Black Out.avi=1.000=0=0=0=StretchNoLoop====,
99999=-nosongbg-=1.000=0=0=0 // don't automatically add -songbackground-
;
#KEYSOUNDS:;
#ATTACKS:
;

//---------------dance-single - ----------------
#NOTEDATA:;
#CHARTNAME:;
#STEPSTYPE:dance-single;
#DESCRIPTION:;
#CHARTSTYLE:;
#DIFFICULTY:Hard;
#METER:10;
#RADARVALUES:0.382294,0.508803,0.281690,0.158451,0.079225,304.000000,272.000000,32.000000,18.000000,0.000000,0.000000,0.000000,0.000000,0.000000,0.382294,0.508803,0.281690,0.158451,0.079225,304.000000,272.000000,32.000000,18.000000,0.000000,0.000000,0.000000,0.000000,0.000000;
#CREDIT:led_light;
#NOTES:
0000
0000
0000
0000
,
0000
0000
0000
0000
,
0000
0000
0000
0000
,
0000
0000
0000
0000
,
0000
0000
0000
0000
,
0000
0000
0000
0000
,
0000
0000
0000
0000
,
0000
0000
0000
0000
,
0000
0000
0000
0000
,
2001
0000
0000
0000
,
0200
0000
0000
3300
,
0002
0000
0000
0000
,
0020
0000
0000
0033
,
2000
0000
0000
0000
,
0002
0000
0000
3003
,
0200
0000
0000
0000
,
0310
0000
0000
0010
0000
0000
0100
0000
0010
0000
0000
0000
0110
0000
0000
0000
,
0010
0010
1000
0001
0000
0001
0100
0000
,
0010
1000
0010
0000
1000
0100
0010
0000
,
0100
0000
0100
1000
0000
1000
0001
0000
,
0100
0100
0010
0000
0100
0010
0200
0000
,
0301
0000
1001
0000
1000
0100
1000
0000
,
0001
0100
0010
0100
0001
0100
0010
0000
,
1000
0100
0010
0001
0100
0010
1000
0001
,
0010
0100
0000
0000
0010
0000
0000
0000
0100
0010
0000
0000
0100
0000
0000
0000
,
1001
0000
0010
0001
0100
0010
0100
0000
,
0010
0000
1000
0100
0001
0000
0110
0000
,
0100
1000
0010
0000
0100
0010
0100
0000
,
0001
0010
0001
0010
1000
0000
0010
0001
,
1000
0100
1000
0000
0101
0000
0000
0000
,
0001
0100
0001
0000
0001
1000
0100
0010
,
0001
0010
0001
0000
1100
0000
0000
0000
,
1000
0001
0100
0010
1000
1000
1000
0000
,
1200
0000
0000
0000
,
0010
0010
0001
0310
,
1020
0000
0000
0000
,
0100
0000
0001
0130
,
2100
0000
0000
0000
,
3002
0000
0100
0000
,
2003
0000
0100
0000
,
0020
0000
3000
0030
,
0010
0100
0000
0000
0010
0100
0000
0000
0001
1000
0000
0000
0110
0000
0000
0000
,
1001
0000
1000
0000
1100
0000
1000
0100
,
1000
0000
0010
0000
0101
0000
0001
0010
,
1000
0000
1000
0100
0000
0100
0002
0000
,
0010
0000
0010
0000
1003
0020
0000
0030
,
1001
0000
0001
0000
0011
0000
0001
0010
,
0001
0000
0100
0000
1010
0000
1000
0100
,
0001
0000
0100
1000
0000
1000
0020
0000
,
0100
0000
0100
0000
1030
0000
0100
1000
,
0010
0000
0000
1000
0010
0000
0100
0000
0001
0000
0000
0000
0010
0000
0001
0000
,
0100
0000
0000
0001
0100
0000
0010
0000
1000
0000
0000
0000
0100
0000
0010
0000
,
0100
0000
0000
1000
0100
0000
0010
0000
0001
0000
0100
0000
0010
0000
1000
0000
,
0002
0000
0100
0000
0103
0000
0100
1000
,
0100
0000
0000
0001
0100
0000
0001
0000
0010
0000
0000
0000
0100
0000
0001
0000
,
0100
0000
0000
1000
0100
0000
1000
0000
0010
0000
0000
0000
0100
0000
0010
0000
,
1000
0100
1000
0100
0010
0001
0100
0010
,
1000
0100
0100
0001
0100
0100
0010
0000
,
0110
0000
0000
1000
1100
0000
0001
0000
,
0101
0000
0001
1000
0100
0100
0010
0000
,
0110
0000
0000
0000
0000
0000
1000
0000
1100
0000
0000
0000
0010
0001
0000
0000
,
1000
0010
0000
0000
1000
0010
0000
0000
0100
0001
0000
0000
0010
0000
0000
0000
,
0110
0000
0000
0001
0011
0000
1000
0000
,
1100
0000
1000
0001
0100
0010
1000
0000
,
0110
0000
0000
0001
0011
0000
1000
0000
,
0100
0010
0000
0000
0100
0010
0000
0000
0001
0100
0000
0000
0010
0000
0000
0000
,
1001
0000
0000
1001
,
0110
0000
0000
0110
,
1001
0000
0000
0000
;

//---------------dance-single - ----------------
#NOTEDATA:;
#CHARTNAME:;
#STEPSTYPE:dance-single;
#DESCRIPTION:;
#CHARTSTYLE:;
#DIFFICULTY:Medium;
#METER:8;
#RADARVALUES:0.277918,0.389085,0.255282,0.184859,0.004401,221.000000,192.000000,29.000000,21.000000,0.000000,0.000000,0.000000,0.000000,0.000000,0.277918,0.389085,0.255282,0.184859,0.004401,221.000000,192.000000,29.000000,21.000000,0.000000,0.000000,0.000000,0.000000,0.000000;
#CREDIT:led_light;
#NOTES:
0000
0000
0000
0000
,
0000
0000
0000
0000
,
0000
0000
0000
0000
,
0000
0000
0000
0000
,
0000
0000
0000
0000
,
0000
0000
0000
0000
,
0000
0000
0000
0000
,
0000
0000
0000
0000
,
0000
0000
0000
0000
,
0022
0000
0000
0000
,
0000
0000
0000
0033
,
2000
0000
0000
0000
,
0010
0000
0100
3000
,
0002
0000
0000
0000
,
0020
0000
0030
0000
,
2003
0000
0000
0000
,
3001
0000
0000
0001
0000
0000
0100
0000
0001
0000
0000
0000
0001
0000
0000
0000
,
0010
0000
0100
0010
0000
0010
0100
0000
,
1000
0001
1000
0000
0001
0000
1001
0000
,
0001
0000
0100
0010
1000
0000
0001
0000
,
0100
0010
0200
0000
0310
0000
0110
0000
,
0001
0100
0001
0000
1000
0000
1000
0000
,
0100
0010
0001
0000
0010
0100
1000
0000
,
0100
0000
0100
0010
0100
0000
0100
0000
,
0020
1000
0100
0031
,
1001
0000
0000
0000
0001
0100
0010
0000
,
0001
0001
0011
0000
,
1000
0000
0000
0000
1000
0100
0010
0000
,
1000
1000
1010
0001
,
1000
0100
1000
0000
1100
0000
0000
0000
,
0001
0100
0001
0000
0010
0100
0010
0000
,
0001
0010
0001
0000
0011
0000
0000
0000
,
1000
0000
1000
0000
1000
0100
0010
0000
,
0002
0000
0000
0000
,
0200
0000
0000
0303
,
2000
0000
0000
0000
,
0020
0000
0000
3030
,
2002
0000
0000
0000
,
0000
0000
0000
3003
,
0200
0000
0000
0000
,
0020
0000
0030
0300
,
0100
0100
0010
0010
,
0110
0001
0101
0000
,
0100
0001
0011
0000
,
1000
0000
0100
1000
0000
1000
0020
0000
,
0100
0100
2030
3000
,
0100
1000
1010
0000
,
1000
0100
0110
0000
,
0001
0000
0010
0001
0000
0001
0200
0000
,
0010
0010
0301
0000
,
0001
0000
0010
0100
0010
0000
0000
0000
,
1000
0000
0010
0100
0010
0000
0000
0000
,
0001
0000
1000
0100
0010
0000
0001
0000
,
0020
0100
0130
1000
,
0001
0000
1000
0100
0001
0000
0100
0000
,
1000
0000
0001
0100
1000
0000
0100
0000
,
0001
0000
0100
0001
0010
0000
0100
0000
,
2000
0100
0001
3010
,
0110
0000
1100
0000
,
0101
0000
0001
0010
0100
0000
1000
0000
,
0110
0000
0101
0000
,
0010
0010
0100
0010
,
1001
0000
0011
0000
,
0101
0000
0010
1000
0001
0000
0100
0000
,
1001
0000
1100
0000
,
1000
1000
0001
1000
,
0110
0000
0000
1001
,
0110
0000
0000
0110
,
1001
0000
0000
0000
;

//---------------dance-single - ----------------
#NOTEDATA:;
#CHARTNAME:;
#STEPSTYPE:dance-single;
#DESCRIPTION:;
#CHARTSTYLE:;
#DIFFICULTY:Easy;
#METER:6;
#RADARVALUES:0.215040,0.329225,0.255282,0.132042,0.000000,171.000000,142.000000,29.000000,15.000000,0.000000,0.000000,0.000000,0.000000,0.000000,0.215040,0.329225,0.255282,0.132042,0.000000,171.000000,142.000000,29.000000,15.000000,0.000000,0.000000,0.000000,0.000000,0.000000;
#CREDIT:led_light;
#NOTES:
0000
0000
0000
0000
,
0000
0000
0000
0000
,
0000
0000
0000
0000
,
0000
0000
0000
0000
,
0000
0000
0000
0000
,
0000
0000
0000
0000
,
0000
0000
0000
0000
,
0000
0000
0000
0000
,
0000
0000
0000
0000
,
2001
0000
0000
0000
,
0000
0000
0000
0000
,
3002
0000
0000
0000
,
0203
0000
0000
0000
,
0320
0000
0000
0000
,
0000
0000
0000
0000
,
2030
0000
0000
0000
,
3001
0000
0001
1100
,
0001
0000
0000
0001
0000
0000
0010
0000
,
0100
0100
1000
0001
,
1000
0000
1000
0100
,
0010
0010
0002
0003
,
1000
1000
0100
0100
,
0001
0100
0001
0100
,
1000
0001
1000
0001
,
0100
0000
0100
0000
,
0110
0000
0001
0000
,
1000
0001
1100
0000
,
0010
0000
1001
0000
,
0010
0100
1010
0001
,
0010
0100
1001
0000
,
0001
0001
1000
0100
,
0010
0100
0110
0000
,
0100
0100
1000
0001
,
2000
0000
0000
0000
,
0000
0000
0000
0000
,
3020
0000
0000
0000
,
0000
0000
0000
0030
,
1002
0000
0000
0000
,
0000
0000
0000
0000
,
0203
0000
0000
0000
,
0320
0000
0000
0030
,
0010
0100
0010
1100
,
0010
1000
1010
0000
,
0001
0010
0011
0000
,
0100
0000
0000
0010
0000
0000
0200
0000
,
0000
0300
0110
0000
,
0100
1000
1100
0000
,
0001
0100
0101
0000
,
0010
0000
0000
0100
0000
0000
0020
0000
,
0000
0030
0110
0000
,
0001
0010
1000
0000
,
1000
0010
0001
0000
,
1000
0100
0001
0100
,
2000
0001
3001
0000
,
0001
0100
1000
0000
,
1000
0100
0001
0000
,
1000
0100
0001
0010
,
2000
0000
3001
0100
,
0110
0000
1001
0000
,
0110
0000
0001
0010
,
0110
0000
1001
0000
,
0001
0001
0100
0001
,
1001
0000
0110
0000
,
1001
0000
0010
0001
,
1001
0000
0110
0000
,
0010
0010
1000
0010
,
0110
0000
0000
0010
,
1001
0000
0000
0100
,
0110
0000
0000
0000
;

//---------------dance-single - ----------------
#NOTEDATA:;
#CHARTNAME:;
#STEPSTYPE:dance-single;
#DESCRIPTION:;
#CHARTSTYLE:;
#DIFFICULTY:Beginner;
#METER:2;
#RADARVALUES:0.079225,0.179577,0.070423,0.105634,0.000000,63.000000,55.000000,8.000000,12.000000,0.000000,0.000000,0.000000,0.000000,0.000000,0.079225,0.179577,0.070423,0.105634,0.000000,63.000000,55.000000,8.000000,12.000000,0.000000,0.000000,0.000000,0.000000,0.000000;
#CREDIT:led_light;
#NOTES:
0000
0000
0000
0000
,
0000
0000
0000
0000
,
0000
0000
0000
0000
,
0000
0000
0000
0000
,
0000
0000
0000
0000
,
0000
0000
0000
0000
,
0000
0000
0000
0000
,
0000
0000
0000
0000
,
0000
0000
0000
0000
,
2000
0000
0000
0000
,
3000
0000
0000
0000
,
0002
0000
0000
0000
,
0003
0000
0000
0000
,
0200
0000
0000
0000
,
0300
0000
0000
0000
,
0020
0000
0000
0000
,
0030
0000
0000
0000
,
1000
0000
0000
0000
,
1000
0000
0000
0000
,
0001
0000
0000
0000
,
0001
0000
0000
0000
,
1000
0000
1000
0000
,
1000
0000
0000
0000
,
0001
0000
0001
0000
,
0001
0000
0000
0000
,
1001
0000
0000
0000
,
0100
0000
0000
0000
,
1000
0000
0000
0000
,
0100
0000
0000
0000
,
1000
0000
0000
0000
,
1000
0000
0000
0000
,
0001
0000
0000
0000
,
0001
0000
0000
0000
,
0020
0000
0000
0000
,
0000
0000
0030
0000
,
0200
0000
0000
0000
,
0000
0000
0300
0000
,
2000
0000
0000
0000
,
0000
0000
3000
0000
,
0002
0000
0000
0000
,
0000
0000
0003
0000
,
0000
0000
0000
0000
,
0100
0000
0000
0000
,
0100
0000
0000
0000
,
0020
0000
0000
0000
,
0000
0000
0030
0000
,
0001
0000
0000
0000
,
0001
0000
0000
0000
,
2000
0000
0000
0000
,
0000
0000
3000
0000
,
0010
0000
0000
0000
,
0010
0000
0000
0000
,
0100
0000
0100
0000
,
0200
0000
0300
0000
,
1000
0000
0000
0000
,
1000
0000
0000
0000
,
0001
0000
0001
0000
,
0002
0000
0003
0000
,
1001
0000
0000
0000
,
0100
0000
0000
0000
,
1001
0000
0000
0000
,
0010
0000
0010
0000
,
0110
0000
0000
0000
,
0001
0000
0000
0000
,
0110
0000
0000
0000
,
1000
0000
1000
0000
,
1001
0000
0000
0000
,
1001
0000
0000
0000
,
0110
0000
0000
0000
;

//---------------dance-double - ----------------
#NOTEDATA:;
#CHARTNAME:;
#STEPSTYPE:dance-double;
#DESCRIPTION:;
#CHARTSTYLE:;
#DIFFICULTY:Easy;
#METER:5;
#RADARVALUES:0.191147,0.299296,0.246479,0.140845,0.000000,152.000000,124.000000,28.000000,16.000000,0.000000,0.000000,0.000000,0.000000,0.000000,0.191147,0.299296,0.246479,0.140845,0.000000,152.000000,124.000000,28.000000,16.000000,0.000000,0.000000,0.000000,0.000000,0.000000;
#CREDIT:led_light;
#NOTES:
00000000
00000000
00000000
00000000
,
00000000
00000000
00000000
00000000
,
00000000
00000000
00000000
00000000
,
00000000
00000000
00000000
00000000
,
00000000
00000000
00000000
00000000
,
00000000
00000000
00000000
00000000
,
00000000
00000000
00000000
00000000
,
00000000
00000000
00000000
00000000
,
00000000
00000000
00000000
00000000
,
21000000
00000000
00000000
00000000
,
00000000
00000000
00000000
00000000
,
30020000
00000000
00000000
00000000
,
00230000
00000000
00000000
00000000
,
00302000
00000000
00000000
00000000
,
00000000
00000000
00000000
00000000
,
00023000
00000000
00000000
00000000
,
00031000
00000000
00011000
00000000
,
00002000
00000000
00003000
00000000
,
00001000
00010000
00000010
00000000
,
00001000
00000000
00001000
00000110
,
00001000
00000001
00000200
00000300
,
00000010
00000100
00000010
00000000
,
00001000
00000100
00001000
00000000
,
00000001
00000100
00001000
00010000
,
00001000
00000000
00001000
00000000
,
00011000
00000000
00010000
00000000
,
01000000
10000000
11000000
00000000
,
00100000
00000000
00110000
00000000
,
00001000
00010000
00011000
00000000
,
00010000
00000100
00001100
00000000
,
00000010
00000000
00000010
00000000
,
00001000
00010000
00101000
00000000
,
00010000
00010000
01100000
00000000
,
20000000
00000000
00000000
00000000
,
00000000
00000000
00000000
00000000
,
30200000
00000000
00000000
00000000
,
00000000
00000000
00000000
00300000
,
02010000
00000000
00000000
00000000
,
00000000
00000000
00000000
00000000
,
03002000
00000000
00000000
00000000
,
00023000
00000000
00000000
00030000
,
00001000
00000000
00001000
00000000
,
00010000
00001000
00011000
00000000
,
01000000
00100000
01100000
00000000
,
10000000
00000000
00000000
01000000
00000000
00000000
00020000
00000000
,
00000000
00000000
00031000
00000000
,
00001000
00010000
00011000
00000000
,
00000010
00000100
00000110
00000000
,
00000001
00000000
00000000
00000010
00000000
00000000
00002000
00000000
,
00000000
00000000
00013000
00000000
,
00001000
00001000
00001000
00000000
,
00010000
00010000
00010000
00000000
,
00000100
00001000
00000010
00010000
,
00002000
00000000
00003000
00000000
,
00010000
00010000
00010000
00000000
,
01000000
01000000
01000000
00000000
,
10000000
01000000
00010000
01000000
,
20000000
00000000
30000000
00000000
,
10010000
00000000
01100000
00000000
,
11000000
00000000
00100000
00010000
,
00011000
00000000
00001100
00000000
,
00000010
00000010
00000100
00000000
,
00001001
00000000
00000110
00000000
,
00000011
00000000
00000100
00001000
,
00011000
00000000
00110000
00000000
,
01000000
01000000
00100000
00000000
,
10010000
00000000
00000000
00010000
,
00011000
00000000
00000000
00001000
,
00001001
00000000
00000000
00000000
;

//---------------dance-double - ----------------
#NOTEDATA:;
#CHARTNAME:;
#STEPSTYPE:dance-double;
#DESCRIPTION:;
#CHARTSTYLE:;
#DIFFICULTY:Medium;
#METER:8;
#RADARVALUES:0.274145,0.389085,0.237676,0.184859,0.004401,218.000000,191.000000,27.000000,21.000000,0.000000,0.000000,0.000000,0.000000,0.000000,0.274145,0.389085,0.237676,0.184859,0.004401,218.000000,191.000000,27.000000,21.000000,0.000000,0.000000,0.000000,0.000000,0.000000;
#CREDIT:led_light;
#NOTES:
00000000
00000000
00000000
00000000
,
00000000
00000000
00000000
00000000
,
00000000
00000000
00000000
00000000
,
00000000
00000000
00000000
00000000
,
00000000
00000000
00000000
00000000
,
00000000
00000000
00000000
00000000
,
00000000
00000000
00000000
00000000
,
00000000
00000000
00000000
00000000
,
00000000
00000000
00000000
00000000
,
20020000
00000000
00000000
00000000
,
00000000
00000000
00000000
30030000
,
02000000
00000000
00000000
00000000
,
10000000
00000000
03010000
00000000
,
00002000
00000000
00000000
00000000
,
00020000
00000000
00030000
00000000
,
00203000
00000000
00000000
00000000
,
00310000
00000000
00000000
00010000
00000000
00000000
01000000
00000000
00001000
00000000
00000000
00000000
00011000
00000000
00000000
00000000
,
00010000
00000000
00000100
00001000
00000000
00001000
00000100
00000000
,
00001000
00000001
00000100
00000000
00000010
00000000
00000000
00000000
,
00000100
00000000
00000100
00000000
00000001
00001000
00000100
00000000
,
00010000
00001000
00010000
00000000
00002000
00000000
00003000
00000000
,
01000000
00010000
01000000
00000000
00100000
00000000
00100000
00000000
,
10000000
01000000
00010000
00000000
01000000
00010000
00001000
00000000
,
00010000
00000000
00001000
00100000
00001000
00000000
00010000
00000000
,
00000020
00000100
00000001
00001030
,
00001001
00000000
00000000
00000000
00000001
00000010
00001000
00000000
,
00010000
00001000
00011000
00000000
,
00100000
00000000
00000000
00000000
00010000
10000000
00100000
00000000
,
01000000
00010000
01010000
00001000
,
00100000
00010000
00100000
00000000
00110000
00000000
00000000
00000000
,
00001000
00010000
00001000
00000000
00010000
00000100
00010000
00000000
,
00000010
00001000
00000010
00000000
00001010
00000000
00000000
00000000
,
00010000
00000000
00010000
00000000
01000000
10000000
01000000
00000000
,
00200000
00000000
00000000
00000000
,
02000000
00000000
00000000
03300000
,
00020000
00000000
00000000
00000000
,
00002000
00000000
00000000
00033000
,
00000220
00000000
00000000
00000000
,
00000000
00000000
00000000
00000330
,
00002000
00000000
00000000
00000000
,
00000002
00000000
00003000
00000003
,
00001000
00001000
00010000
00010000
,
00001000
00000100
00000110
00000000
,
00000001
00000100
00000110
00000000
,
00001000
00000000
00000100
00001000
00000000
00001000
00020000
00000000
,
00100000
00100000
00032000
00003000
,
00010000
01000000
01100000
00000000
,
10000000
01000000
01100000
00000000
,
00010000
00000000
01000000
00010000
00000000
00010000
00002000
00000000
,
00000010
00000010
00013000
00001000
,
00100000
00000000
00001000
00010000
00001000
00000000
00000000
00000000
,
01000000
00000000
00001000
00010000
00001000
00000000
00000000
00000000
,
00010000
00000000
00100000
01000000
00010000
00000000
10000000
00000000
,
02000000
00100000
03100000
00010000
,
01000000
00000000
00001000
00010000
00001000
00000000
00010000
00000000
,
00000100
00000000
00010000
00001000
00010000
00000000
00001000
00000000
,
00010000
00000000
01000000
00100000
00010000
00000000
10000000
00000000
,
00020000
01000000
10000000
00130000
,
00011000
00000000
00001100
00000000
,
00001001
00000000
00000001
00000100
00001000
00000000
00010000
00000000
,
00011000
00000000
00110000
00000000
,
10000000
10000000
00010000
01000000
,
00011000
00000000
01010000
00000000
,
10010000
00000000
10000000
01000000
00010000
00000000
00001000
00000000
,
00011000
00000000
00001010
00000000
,
00000001
00000001
00001000
00000100
,
00011000
00000000
00000000
01010000
,
10100000
00000000
00000000
00001100
,
00000011
00000000
00000000
00000000
;

//---------------dance-double - ----------------
#NOTEDATA:;
#CHARTNAME:;
#STEPSTYPE:dance-double;
#DESCRIPTION:;
#CHARTSTYLE:;
#DIFFICULTY:Hard;
#METER:11;
#RADARVALUES:0.386066,0.508803,0.264085,0.176056,0.074824,307.000000,277.000000,30.000000,20.000000,0.000000,0.000000,0.000000,0.000000,0.000000,0.386066,0.508803,0.264085,0.176056,0.074824,307.000000,277.000000,30.000000,20.000000,0.000000,0.000000,0.000000,0.000000,0.000000;
#CREDIT:led_light;
#NOTES:
// measure 0
00000000
00000000
00000000
00000000
,  // measure 1
00000000
00000000
00000000
00000000
,  // measure 2
00000000
00000000
00000000
00000000
,  // measure 3
00000000
00000000
00000000
00000000
,  // measure 4
00000000
00000000
00000000
00000000
,  // measure 5
00000000
00000000
00000000
00000000
,  // measure 6
00000000
00000000
00000000
00000000
,  // measure 7
00000000
00000000
00000000
00000000
,  // measure 8
00000000
00000000
00000000
00000000
,  // measure 9
21000000
00000000
00000000
00000000
,  // measure 10
30200000
00000000
00000000
00000000
,  // measure 11
00320000
00000000
00000000
00000000
,  // measure 12
00032000
00000000
00023000
00000000
,  // measure 13
00030200
00000000
00000000
00000000
,  // measure 14
00002300
00000000
00000000
00000000
,  // measure 15
00003020
00000000
00000000
00000000
,  // measure 16
00000130
00000000
00000000
00000100
00000000
00000000
00000001
00000000
00001000
00000000
00000000
00000000
00001001
00000000
00000000
00000000
,  // measure 17
00000100
00000100
00001000
00000100
00000000
00000010
00000001
00000000
,  // measure 18
00000100
00001000
00000100
00000000
00000010
00001000
00000010
00000000
,  // measure 19
00010000
00000000
00010000
00001000
00100000
00001000
00100000
00000000
,  // measure 20
01000000
10000000
01000000
00000000
00100000
01000000
00200000
00000000
,  // measure 21
00310000
00100000
00010000
10000000
00010000
01000000
00100000
00000000
,  // measure 22
00010000
00001000
00010000
00000100
00010000
00001000
00010000
00000000
,  // measure 23
00000010
00000100
00001000
00010000
00000010
00000100
00001000
00010000
,  // measure 24
00001000
00010000
00000000
00000000
01000000
00000000
00000000
00000000
00010000
00001000
00000000
00000000
00010000
00000000
00000000
00000000
,  // measure 25
00011000
00000000
00100000
01000000
10000000
10000000
10000000
00000000
,  // measure 26
01000000
00000000
00010000
01000000
00100000
00000000
01100000
00000000
,  // measure 27
00010000
10000000
00010000
00000000
00100000
00001000
00010000
00000000
,  // measure 28
00001000
00010000
00001000
00010000
00000010
00000000
00010000
00001000
,  // measure 29
00000010
00001000
00000010
00000000
00001100
00000000
00000010
00000000
,  // measure 30
00001000
00000010
00001000
00000000
00010000
01000000
00010000
00001000
,  // measure 31
00100000
00010000
00100000
00000000
00110000
00000000
01000000
00000000
,  // measure 32
00001000
00010000
00000100
00001000
00000010
00000010
00000010
00000000
,  // measure 33
00000210
00000000
00000000
00000000
,  // measure 34
00001000
00001000
00000010
00000301
,  // measure 35
00001002
00000000
00000000
00000000
,  // measure 36
00000010
00000000
00000103
00000010
,  // measure 37
00001020
00000000
00000000
00000000
,  // measure 38
00020030
00000000
00031000
00000000
,  // measure 39
00200000
00000000
00320000
00000000
,  // measure 40
20000000
00000000
00030000
30000000
,  // measure 41
00010000
01000000
00000000
00000000
00010000
01000000
00000000
00000000
00001000
00010000
00000000
00000000
00001000
00000000
00000000
00000000
,  // measure 42
00001100
00000000
00000010
00000000
00000011
00000000
00000001
00000100
,  // measure 43
00000001
00000000
00000100
00000000
00001010
00000000
00000001
00000010
,  // measure 44
00001000
00000000
00010000
00100000
00000000
00100000
02000000
00000000
,  // measure 45
10000000
00000000
10000000
00000000
03010000
00200000
00000000
00300000
,  // measure 46
00110000
00000000
01000000
00000000
11000000
00000000
10000000
00100000
,  // measure 47
10000000
00000000
00100000
00000000
01010000
00000000
10000000
01000000
,  // measure 48
00010000
00000000
00001000
00000100
00000000
00000100
00000020
00000000
,  // measure 49
00000001
00000000
00000001
00000000
00001030
00000000
00000100
00000010
,  // measure 50
00000100
00000000
00000000
00001000
00000100
00000000
00000010
00000000
00000001
00000000
00000000
00000000
00000100
00000000
00000010
00000000
,  // measure 51
00000100
00000000
00000000
00001000
00000100
00000000
00001000
00000000
00010000
00000000
00000000
00000000
00001000
00000000
00100000
00000000
,  // measure 52
00001000
00000000
00000000
00010000
00001000
00000000
01000000
00000000
00010000
00000000
01000000
00000000
00100000
00000000
10000000
00000000
,  // measure 53
00020000
00000000
00100000
00000000
00130000
00000000
01000000
00100000
,  // measure 54
01000000
00000000
00000000
00010000
01000000
00000000
00010000
00000000
00001000
00000000
00000000
00000000
00100000
00000000
00010000
00000000
,  // measure 55
00100000
00000000
00000000
00010000
01000000
00000000
00100000
00000000
10000000
00000000
00000000
00000000
01000000
00000000
00010000
00000000
,  // measure 56
00001000
00010000
00001000
00010000
00000100
00001000
00000001
00000100
,  // measure 57
00001000
00001000
00000010
00001000
00001000
00100000
00010000
00000000
,  // measure 58
01100000
00000000
00000000
00010000
00011000
00000000
01000000
00000000
,  // measure 59
00110000
00000000
01000000
10000000
00010000
01000000
00010000
00000000
,  // measure 60
01100000
00000000
00000000
00010000
00011000
00000000
00010000
00000000
,  // measure 61
00000100
00001000
00000000
00000000
00000100
00001000
00000000
00000000
00000001
00000100
00000000
00000000
00000010
00000000
00000000
00000000
,  // measure 62
00000110
00000000
00000000
00001000
00011000
00000000
00000010
00000000
,  // measure 63
00001100
00000000
00000010
00000001
00001000
00000010
00001000
00000000
,  // measure 64
00000110
00000000
00000000
00001000
00011000
00000000
00001000
00000000
,  // measure 65
00100000
00010000
00000000
00000000
00100000
00010000
00000000
00000000
10000000
00100000
00000000
00000000
01000000
00000000
00000000
00000000
,  // measure 66
10010000
00000000
00000000
11000000
,  // measure 67
00110000
00000000
00000000
00001010
,  // measure 68
00000101
00000000
00000000
00000000
;
