#VERSION:0.83;
#TITLE:Black Out;
#SUBTITLE:(dj-Jo Remix);
#ARTIST:OBSYDIA;
#TITLETRANSLIT:;
#SUBTITLETRANSLIT:;
#ARTISTTRANSLIT:;
#GENRE:にじさんじ;
#ORIGIN:;
#CREDIT:;
#BANNER:Black Out (dj-Jo Remix).png;
#BACKGROUND:Black Out (dj-Jo Remix)-bg.png;
#PREVIEWVID:;
#JACKET:Black Out (dj-Jo Remix)-jacket.png;
#CDIMAGE:;
#DISCIMAGE:;
#LYRICSPATH:;
#CDTITLE:../cdtitle.png;
#MUSIC:Black Out (dj-Jo Remix).ogg;
#OFFSET:-0.348000;
#SAMPLESTART:54.745998;
#SAMPLELENGTH:15.000000;
#SELECTABLE:YES;
#BPMS:0.000=150.000;
#STOPS:;
#DELAYS:;
#WARPS:;
#TIMESIGNATURES:0.000=4=4;
#TICKCOUNTS:0.000=4;
#COMBOS:0.000=1;
#SPEEDS:0.000=1.000=0.000=0;
#SCROLLS:0.000=1.000;
#FAKES:;
#LABELS:0.000=Song Start;
#BGCHANGES:0.000=Black Out (dj-Jo Remix).avi=1.000=0=0=0=StretchNoLoop====,
99999=-nosongbg-=1.000=0=0=0 // don't automatically add -songbackground-
;
#KEYSOUNDS:;
#ATTACKS:
;

//---------------dance-single - ----------------
#NOTEDATA:;
#CHARTNAME:;
#STEPSTYPE:dance-single;
#DESCRIPTION:;
#CHARTSTYLE:;
#DIFFICULTY:Beginner;
#METER:4;
#RADARVALUES:0.144370,0.208662,0.094516,0.087245,0.000000,139.000000,126.000000,13.000000,12.000000,0.000000,0.000000,0.000000,0.000000,0.000000,0.144370,0.208662,0.094516,0.087245,0.000000,139.000000,126.000000,13.000000,12.000000,0.000000,0.000000,0.000000,0.000000,0.000000;
#CREDIT:led_light;
#NOTES:
0000
0000
0000
0000
,
0000
0000
0000
0000
,
0000
0000
0000
0000
,
0000
0000
0000
0000
,
0000
0000
0000
0000
,
2000
0000
0000
0000
,
3000
0000
0000
0000
,
0002
0000
0000
0000
,
0003
0000
0000
0000
,
1001
0000
0000
0000
,
0000
0000
0000
0000
,
1001
0000
0000
0000
,
0000
0000
0000
0000
,
0110
0000
0000
0000
,
0000
0000
0000
0000
,
0110
0000
0000
0000
,
0000
0000
0000
0000
,
0001
0000
0100
0000
,
0001
0000
0000
0000
,
1000
0000
0010
0000
,
1000
0000
0000
0000
,
0001
0000
0001
0000
,
0010
0000
0001
0000
,
1000
0000
0100
0000
,
1000
0000
1000
0000
,
0002
0000
0000
0000
,
0003
0000
0000
0000
,
0200
0000
0000
0000
,
0300
0000
0000
0000
,
0020
0000
0000
0000
,
0030
0000
0000
0000
,
2000
0000
0000
0000
,
3000
0000
0000
0000
,
0010
0000
0000
0000
,
0100
0000
0100
0000
,
0001
0000
0001
0000
,
0010
0000
1000
0000
,
0002
0000
0003
0000
,
0010
0000
0010
0000
,
1000
0000
1000
0000
,
0100
0000
0001
0000
,
2000
0000
3000
0000
,
0010
0010
0010
0000
,
0100
0100
0100
0000
,
0001
0000
1000
0000
,
0002
0000
0003
0000
,
0010
0010
0010
0000
,
0100
0100
0100
0000
,
1000
0000
0000
2002
,
0000
0000
0000
3003
,
1001
0000
0100
0000
,
1000
0000
0100
0000
,
1001
0000
0010
0000
,
0001
0000
0010
0000
,
1001
0000
0100
0000
,
0001
0000
0100
0000
,
1001
0000
0010
0000
,
1000
0000
0010
0000
,
0110
0000
0100
0000
,
0100
0000
0100
0000
,
1001
0000
0001
0000
,
0001
0000
0001
0000
,
0010
0000
0010
0000
,
0100
0000
0100
0000
,
1000
0000
0001
0000
,
2000
0000
3000
0000
,
1001
0000
0100
0100
,
0100
0000
0010
0000
,
0001
0000
1000
0000
,
0001
0000
0001
0000
,
0010
0010
0010
0000
,
0100
0000
1000
0000
,
0001
0000
1000
0000
,
0001
0000
0001
0000
,
0100
0100
0100
0000
,
0001
0001
0001
0000
,
0010
0000
0100
0000
,
0010
0000
0010
0000
,
0100
0100
0100
0000
,
1000
1000
1000
0000
,
0010
0000
0100
0000
,
0010
0000
0010
0000
,
1001
0000
0000
0000
;

//---------------dance-single - ----------------
#NOTEDATA:;
#CHARTNAME:;
#STEPSTYPE:dance-single;
#DESCRIPTION:;
#CHARTSTYLE:;
#DIFFICULTY:Easy;
#METER:6;
#RADARVALUES:0.266930,0.417324,0.305359,0.159950,0.000000,257.000000,215.000000,42.000000,22.000000,0.000000,0.000000,0.000000,0.000000,0.000000,0.266930,0.417324,0.305359,0.159950,0.000000,257.000000,215.000000,42.000000,22.000000,0.000000,0.000000,0.000000,0.000000,0.000000;
#CREDIT:led_light;
#NOTES:
0000
0000
0000
0000
,
0000
0000
0000
0000
,
0000
0000
0000
0000
,
0000
0000
0000
0000
,
0000
0000
0000
0000
,
2000
0000
3000
0000
,
0002
0000
0003
0000
,
0200
0000
0300
0000
,
0010
0000
0110
0000
,
1001
0000
0000
1000
0000
0000
0020
0000
,
0000
0000
0000
0030
,
0110
0000
0000
0100
0000
0000
0002
0000
,
0000
0000
0000
0003
,
1001
0000
0000
0100
0000
0000
0020
0000
,
0000
0000
0000
0030
,
0110
0000
0000
0001
0000
0000
2000
0000
,
0000
0000
0000
3000
,
0001
0000
0001
0000
,
1000
1000
0100
0000
,
1000
0000
1000
0000
,
0001
0001
0100
0000
,
0100
0010
0000
0010
,
1000
1000
0100
0100
,
1000
0001
0000
0001
,
0010
0010
0001
0000
,
2000
0000
0000
0000
,
3010
0000
0100
0000
,
0002
0000
0000
0000
,
0013
0000
0100
0000
,
2000
0000
3001
0000
,
1000
0100
1000
0000
,
0001
0100
0010
1000
,
0002
0000
0000
0000
,
0003
0000
0000
0000
,
1000
1100
0001
0100
,
0001
0011
0100
0001
,
0100
1000
0010
0002
,
0000
0010
0000
0013
,
0001
0011
1000
0010
,
1000
1100
0010
1000
,
0010
0001
0100
2000
,
0000
0100
0000
3100
,
1000
0001
0011
0010
,
0100
1000
1010
0010
,
0100
0100
0001
0010
,
0200
0010
0000
0310
,
0001
1000
1100
0100
,
0010
0001
0101
0100
,
0010
0000
0000
1000
0000
0000
0002
0000
,
0000
0000
0000
0003
,
0110
0000
0101
0000
,
1100
0000
0001
0100
,
0110
0000
0011
0000
,
1010
0000
0001
0010
,
1100
0000
1100
0000
,
0101
0000
1000
0100
,
0011
0000
0011
0000
,
1010
0000
0011
0000
,
2002
3003
0100
0100
,
1000
1000
0001
0001
,
1001
0000
0010
0010
,
0001
0001
1000
0000
,
0100
0010
0100
0010
,
0001
0100
0001
0100
,
0020
2030
3002
0203
,
0320
0000
0130
0000
,
1001
0100
0001
0001
,
0100
0100
1000
0100
,
0110
0001
0000
0001
,
0000
0100
0000
0100
,
1001
0010
1000
1000
,
0010
0010
0001
0010
,
0110
1000
0000
1000
,
0000
0010
0000
0010
,
0110
0001
1000
0100
,
0001
0100
1000
1000
,
0001
0101
0001
0011
,
1000
1100
1000
0010
,
0110
0001
1000
0010
,
0001
0010
1000
1000
,
0001
0011
0001
0101
,
1000
1010
1000
1100
,
1001
0000
0000
0000
;

//---------------dance-single - ----------------
#NOTEDATA:;
#CHARTNAME:;
#STEPSTYPE:dance-single;
#DESCRIPTION:;
#CHARTSTYLE:;
#DIFFICULTY:Medium;
#METER:10;
#RADARVALUES:0.412339,0.476942,0.261736,0.239925,0.039987,397.000000,361.000000,36.000000,33.000000,0.000000,0.000000,0.000000,0.000000,0.000000,0.412339,0.476942,0.261736,0.239925,0.039987,397.000000,361.000000,36.000000,33.000000,0.000000,0.000000,0.000000,0.000000,0.000000;
#CREDIT:led_light;
#NOTES:
0000
0000
0000
0000
,
0000
0000
0000
0000
,
0000
0000
0000
0000
,
0000
0000
0000
0000
,
0000
0000
0000
0000
,
2000
0000
3100
0000
,
0002
0000
0103
0000
,
2000
0000
3010
0000
,
0100
0000
0000
0100
0000
0000
0001
0000
1000
0000
0000
0000
1001
0000
0000
0000
,
1000
0000
0000
1010
0000
0000
0010
0000
0000
0100
0000
0000
0002
0000
0000
0000
,
0000
0000
0000
0000
,
0013
0000
0000
0110
0000
0000
0001
0000
0000
1000
0000
0000
0020
0000
0000
0000
,
0000
0000
0000
0000
,
0130
0000
0000
0101
0000
0000
0001
0000
0000
0010
0000
0000
0200
0000
0000
0000
,
0010
0010
0001
0001
,
1300
0000
0000
1100
0000
0000
0001
0000
0000
0100
0000
0000
0020
0000
0000
0000
,
1000
1000
2000
3030
,
1001
0000
0001
0000
0010
0100
1000
0000
,
0001
0000
1000
0100
0010
0000
0110
0000
,
0001
0000
1000
0000
0010
0100
0001
0000
,
1000
0000
0001
0100
0010
0000
0110
0000
,
0001
1000
0100
0000
0010
0000
0110
0000
,
0001
0010
0001
0000
0100
0010
0100
0000
,
0001
1000
0100
0000
0010
0000
0110
0000
,
0100
0001
0100
0000
1000
0010
1000
0000
,
0002
0000
0000
0003
,
0001
0000
1000
0000
0001
0010
0100
0000
,
2000
0000
0100
3000
,
0010
0000
1000
0000
0100
0010
0001
0000
,
2000
0100
3020
0100
,
1030
0100
0010
0001
,
1000
0100
1000
0000
0010
0100
0010
0000
,
0100
0001
0100
0001
0010
0100
0010
0001
,
1000
1000
0001
0011
,
0001
0010
1000
1010
,
0001
0100
1000
1100
,
0001
0000
0100
1000
0000
0010
0002
0000
,
0010
0010
1003
0001
,
1000
0100
0001
0101
,
1000
0010
0001
0011
,
1000
0000
0010
0001
0000
0100
2000
0000
,
0100
0000
0100
0000
3001
0000
1000
0100
,
0010
0000
0100
0001
0100
0000
0010
0100
,
1000
0000
0010
0100
0010
0000
1000
0001
,
0100
0000
0100
1000
0100
0000
0100
0001
,
0200
0000
1000
0000
0010
0000
0301
0100
,
0010
0000
0100
1000
0100
0000
0010
0100
,
0001
0000
0010
0100
0010
0000
0001
1000
,
0010
0000
0000
0010
0000
0000
0001
0000
0000
0100
0000
0000
0220
0000
0000
0000
,
0000
0000
0000
0330
,
2002
3003
0101
0001
,
1100
0000
1000
0000
0100
0010
0001
0000
,
2002
3003
0011
0001
,
1010
0000
1000
0000
0001
0100
0010
0000
,
2020
3030
0011
0010
,
1010
0000
1000
0000
0100
0010
0100
0000
,
2200
3300
0101
0100
,
1100
0000
1000
0000
0010
0100
0010
0000
,
0110
0100
0001
0001
,
1000
1000
0100
0100
,
0010
0010
0001
0001
,
1000
1000
0010
0000
,
1000
0100
1000
0000
0100
0001
0100
0000
,
0001
0010
0001
0000
0010
1000
0010
0000
,
1000
0100
0010
0001
1000
0100
0010
0001
,
0100
0010
0100
0010
0100
0000
0000
0000
,
1001
0000
0001
0010
0002
0000
0010
0000
,
2003
0000
0100
0000
3001
0100
0010
0000
,
1010
0000
0001
0010
0100
0000
1000
0100
,
0001
0000
1000
0010
0001
0000
0010
0100
,
0110
0000
1000
0100
2000
0000
0100
0000
,
3002
0000
0010
0000
1003
0010
0100
0000
,
0101
0000
1000
0100
0010
0000
0001
0010
,
1000
0000
0001
0100
1000
0000
0100
0010
,
0110
0000
0001
1000
0020
0000
0100
0000
,
2030
0000
0100
0000
3010
0100
0010
1000
,
0100
0000
0001
0100
1000
0100
0010
0010
,
0100
1000
0001
0010
0100
0010
0001
0000
,
1001
0000
1000
0001
0020
0000
0100
0000
,
0032
0000
0100
0000
0013
0100
0010
0001
,
0100
0000
1000
0100
0001
0100
0010
0010
,
0100
0001
1000
0010
0100
0010
1000
0000
,
1001
0000
0000
0000
;

//---------------dance-single - ----------------
#NOTEDATA:;
#CHARTNAME:;
#STEPSTYPE:dance-single;
#DESCRIPTION:;
#CHARTSTYLE:;
#DIFFICULTY:Hard;
#METER:15;
#RADARVALUES:0.629414,0.864457,0.334441,0.356252,0.530743,606.000000,560.000000,46.000000,49.000000,0.000000,0.000000,0.000000,0.000000,0.000000,0.629414,0.864457,0.334441,0.356252,0.530743,606.000000,560.000000,46.000000,49.000000,0.000000,0.000000,0.000000,0.000000,0.000000;
#CREDIT:led_light;
#NOTES:
0000
0000
0000
0000
,
0000
0000
0000
0000
,
0000
0000
0000
0000
,
0000
0000
0000
0000
,
0000
0000
0000
0000
,
2000
0000
0000
0000
,
0002
0000
0000
3003
,
0200
0000
0000
0000
,
0310
0000
0000
0010
0000
0000
0100
0000
0010
0000
0000
0000
0110
0000
0000
0000
,
1000
0000
0000
1100
0000
0000
0010
0000
0000
0011
0000
0000
2002
0000
0000
0000
,
0000
0000
0000
0003
,
3001
0000
0000
0101
0000
0000
0010
0000
0000
1010
0000
0000
0220
0000
0000
0000
,
0000
0000
0000
0300
,
1030
0000
0000
1100
0000
0000
0011
0000
0000
0110
0000
0000
2010
0000
0000
0000
,
0100
0100
0010
0010
,
3100
0000
0000
0101
0000
0000
1100
0000
0000
0110
0000
0000
2002
0000
0000
0000
,
0000
0000
0003
3001
,
0110
0000
0001
1000
0010
0010
1000
0001
,
0100
0000
0100
0000
0010
0000
1000
0000
0100
1000
0000
1000
0100
0000
0010
0000
,
0001
1000
0100
1000
0010
0010
1000
0001
,
0100
0000
0100
0000
0010
0000
0100
0000
0001
1000
0000
1000
0100
0000
0010
0000
,
0001
0100
0101
0000
1000
0100
1000
0001
,
0010
0010
0100
0100
0010
0010
0001
1000
,
0010
0100
0110
0000
1000
0100
0010
0001
,
1000
1000
0001
0001
0100
0010
1000
0000
,
0020
0000
0100
0000
0000
0000
0100
0030
,
1000
0010
0000
0000
0100
0000
0001
0000
1000
0000
0100
0000
1000
0000
0010
0000
,
2000
0100
0000
3001
,
0010
0000
0100
1000
0000
0100
0010
0001
,
1000
0000
0000
1100
0000
0000
1000
0000
0001
0000
0001
0000
0010
0000
0001
0000
,
1000
0010
0100
0001
0100
0010
1000
0001
,
0100
0000
0100
0010
0100
0000
0001
0000
0010
0000
0010
0100
0010
0000
0001
0000
,
1000
0100
1000
0100
0010
0100
0010
0001
1000
0010
0100
0001
0010
0100
1000
0001
,
1000
0100
0000
0000
0100
0001
0000
0000
0001
0010
0000
0000
0110
0000
0000
0000
,
1001
0000
0000
1000
0010
0000
0010
0000
0100
0000
1000
0000
0100
0000
0001
0000
,
1000
0000
0000
0010
0100
0000
0100
0000
0001
0000
0010
0000
0100
0000
0010
0000
,
0001
0000
1000
0100
0001
0000
1000
0000
0010
0001
1000
0000
0020
0000
0000
0000
,
1030
0000
1000
0100
0000
0100
0010
0000
0010
0001
0000
0001
1000
0000
0001
0000
,
0100
0000
0000
0001
0010
0000
0010
0000
0100
0000
0001
0000
0100
0000
1000
0000
,
0001
0000
0000
0010
0100
0000
0100
0000
1000
0000
0010
0000
0100
0000
0010
0000
,
1000
0000
0001
0100
1000
0000
0001
0000
0010
1000
0001
0000
0020
0000
0000
0000
,
0031
0000
0100
0010
0000
0000
0110
0000
0020
0000
0000
1030
0001
0000
0100
0000
,
0010
0000
0100
0010
0000
0010
0100
0000
0001
0000
0010
0000
1000
0000
0010
0000
,
0001
0000
0010
0100
0000
0100
0010
0000
0001
0000
1000
0000
0010
0000
0100
0000
,
0001
0000
0100
0010
0000
0010
1000
0000
0001
0000
0010
0000
0100
0000
0010
0000
,
0001
0000
0001
0100
0000
0100
1000
0000
1000
0010
0000
0010
0001
0000
1000
0000
,
0010
0000
0100
0001
0000
0001
0010
0000
0100
0000
0001
0000
1000
0000
0010
0000
,
0100
0000
0010
0001
0000
0001
1000
0000
0100
0000
0010
0000
0100
0000
1000
0000
,
0001
0000
0000
0101
0000
0000
0010
0000
0000
1100
0000
0000
0220
0000
0000
0000
,
0000
0000
0000
0330
,
2200
0000
3300
0001
0101
0000
0100
0000
,
0110
0000
0000
0000
0000
0000
0010
0000
0010
0000
0010
0000
0100
0000
0000
0001
0000
0000
1000
0000
0000
0000
0000
0000
,
2200
0000
0000
0000
3300
0000
0010
0000
0011
0000
0000
0000
1000
0100
0000
0000
,
1000
0010
0000
0000
0010
1000
0000
0000
0100
0001
0000
0000
0100
0000
0000
0000
,
0011
0000
0100
1000
1010
0000
0010
0000
,
0110
0000
0000
0000
0000
0000
0100
0000
0100
0000
0100
0000
0010
0000
0000
1000
0000
0000
0001
0000
0000
0000
0000
0000
,
0022
0000
0033
0100
1100
0000
0001
0000
,
0110
0000
0000
0000
0010
0001
0000
0000
1000
0100
0000
0000
0010
0000
0000
0000
,
2001
0001
0100
0100
,
0001
0000
0001
0000
3100
1000
0010
0000
,
0120
0100
1000
1000
,
0100
0100
2000
3030
,
0100
1000
0100
1000
0001
0100
0001
0100
,
0010
1000
0010
1000
0001
0010
0001
0010
,
0100
0010
0100
0010
0100
0010
0100
0010
0001
0100
0001
0100
0001
0100
0001
0100
,
0010
1000
0010
0100
0001
0010
0100
1000
0002
0000
0000
0000
0003
0000
0000
0000
,
1001
0000
0000
1000
0001
0000
0001
0000
0200
0000
0310
0000
0200
0000
1300
0000
,
0200
0310
0200
0301
0200
0320
2030
3001
,
1001
0000
0000
0100
0000
0001
0010
0100
1000
0001
0000
1000
0000
1000
0100
0001
,
0100
1000
0000
1000
0000
1000
0100
0010
0001
1000
0000
1000
0000
0010
0100
0001
,
1000
0000
0100
1000
0020
0130
0020
0031
,
0020
0130
0020
1030
0020
0230
0302
1003
,
1001
0000
0000
0010
0000
1000
0100
0010
0001
1000
0000
0001
0000
0001
0010
1000
,
0010
0001
0000
0001
0000
0001
0010
0100
1000
0001
0000
0001
0000
1000
0010
0000
,
0110
0000
0000
0100
0001
0000
0001
0000
2000
0000
3100
0000
2000
0000
3010
0000
,
0200
0000
0310
0000
2000
0000
3010
0000
0100
0001
0100
0001
0010
0100
1000
0000
,
1001
0000
0000
0001
0010
0100
0010
0100
1000
0001
0000
1000
0010
0100
0010
0100
,
0001
1000
0000
0001
0100
0010
1000
0001
1000
0100
0000
1000
0100
0010
0001
0000
,
1001
0000
0000
0100
1000
0000
1000
0000
0002
0000
0103
0000
0002
0000
0013
0000
,
0200
0000
0310
0000
0002
0000
0013
0000
0100
1000
0100
1000
0010
0100
0001
0000
,
1001
0000
0000
1000
0010
0100
0010
0100
0001
1000
0000
0001
0010
0100
0010
0100
,
1000
0001
0000
1000
0100
0010
0001
1000
0001
0100
0000
0001
0100
0010
1000
0000
,
1001
0000
0000
0000
;

//---------------dance-double - ----------------
#NOTEDATA:;
#CHARTNAME:;
#STEPSTYPE:dance-double;
#DESCRIPTION:;
#CHARTSTYLE:;
#DIFFICULTY:Easy;
#METER:6;
#RADARVALUES:0.250311,0.327897,0.276277,0.167220,0.000000,241.000000,203.000000,38.000000,23.000000,0.000000,0.000000,0.000000,0.000000,0.000000,0.250311,0.327897,0.276277,0.167220,0.000000,241.000000,203.000000,38.000000,23.000000,0.000000,0.000000,0.000000,0.000000,0.000000;
#CREDIT:led_light;
#NOTES:
// measure 0
00000000
00000000
00000000
00000000
,  // measure 1
00000000
00000000
00000000
00000000
,  // measure 2
00000000
00000000
00000000
00000000
,  // measure 3
00000000
00000000
00000000
00000000
,  // measure 4
00000000
00000000
00000000
00000000
,  // measure 5
02000000
00000000
03000000
00000000
,  // measure 6
00002000
00000000
00003000
00000000
,  // measure 7
00020000
00000000
00030000
00000000
,  // measure 8
00000020
00000000
00000030
00000000
,  // measure 9
00000110
00000000
00000000
00001000
00000000
00000000
00000002
00000000
,  // measure 10
00000000
00000000
00000000
00000003
,  // measure 11
00001001
00000000
00000000
00000100
00000000
00000000
00000020
00000000
,  // measure 12
00000000
00000000
00000000
00000030
,  // measure 13
00011000
00000000
00000000
00100000
00000000
00000000
00020000
00000000
,  // measure 14
00000000
00000000
00000000
00030000
,  // measure 15
10010000
00000000
00000000
01000000
00000000
00000000
00200000
00000000
,  // measure 16
00000000
00000000
00000000
00300000
,  // measure 17
10000000
00000000
00010000
00000000
,  // measure 18
10000000
01000000
00010000
00000000
,  // measure 19
00001000
00000000
00010000
00000000
,  // measure 20
00001000
00000010
00000001
00000000
,  // measure 21
00000001
00001000
00000000
00001000
,  // measure 22
00000010
00000100
00000010
00000010
,  // measure 23
00010000
00001000
00000000
00001000
,  // measure 24
01000000
01000000
00001000
00000000
,  // measure 25
00020000
00000000
00000000
00000000
,  // measure 26
01030000
00000000
10000000
00000000
,  // measure 27
00020000
00000000
00000000
00000000
,  // measure 28
00130000
00000000
00001000
00000000
,  // measure 29
00020000
00000000
00031000
00000000
,  // measure 30
00000010
00000100
00000010
00000000
,  // measure 31
00000001
00000100
00000010
00001000
,  // measure 32
00000002
00000000
00000000
00000000
,  // measure 33
00000003
00000000
00000000
00000000
,  // measure 34
00001000
00000100
00001000
00001100
,  // measure 35
00010000
00001000
00010000
00011000
,  // measure 36
01000000
10000000
00100000
00020000
,  // measure 37
00000000
00100000
00000000
00130000
,  // measure 38
00010000
01000000
00010000
01010000
,  // measure 39
00001000
00010000
00001000
00011000
,  // measure 40
00000100
00000001
00000010
00002000
,  // measure 41
00000000
00000010
00000000
00003010
,  // measure 42
00000100
00001000
00011000
00000000
,  // measure 43
01000000
00010000
00011000
00000000
,  // measure 44
00100000
00010000
00100000
10000000
,  // measure 45
02000000
00100000
00000000
03100000
,  // measure 46
01000000
00010000
00011000
00000000
,  // measure 47
00000100
00001000
00011000
00000000
,  // measure 48
00000010
00000000
00000000
00000100
00000000
00000000
00000002
00000000
,  // measure 49
00000000
00000000
00000000
00000003
,  // measure 50
00001001
00000000
00001100
00000000
,  // measure 51
00010100
00000000
00011000
00010000
,  // measure 52
01010000
00000000
10100000
00000000
,  // measure 53
00110000
00000000
01100000
00100000
,  // measure 54
10010000
00000000
01010000
00000000
,  // measure 55
01001000
00000000
00011000
00001000
,  // measure 56
00001100
00000000
00000011
00000000
,  // measure 57
00001010
00000000
00000110
00000010
,  // measure 58
00002002
00003003
00000001
00000001
,  // measure 59
00000100
00000100
00000010
00000010
,  // measure 60
00010000
00000000
00001000
00001000
,  // measure 61
01000000
01000000
00010000
00000000
,  // measure 62
10000000
01000000
10000000
01000000
,  // measure 63
00010000
00001000
00010000
00001000
,  // measure 64
00000020
00000230
00002300
00003002
,  // measure 65
00000203
00000000
00000310
00000000
,  // measure 66
00001001
00000001
00001000
00001000
,  // measure 67
00000100
00010000
00001000
00000000
,  // measure 68
00011000
00001000
00000000
00001000
,  // measure 69
00000000
01000000
00000000
01000000
,  // measure 70
10010000
10000000
00010000
00010000
,  // measure 71
00100000
00001000
00010000
00000000
,  // measure 72
00011000
00010000
00000000
00010000
,  // measure 73
00000000
00000010
00000000
00000010
,  // measure 74
00000110
00000001
00001000
00001000
,  // measure 75
00000100
00000100
00000010
00000001
,  // measure 76
00001001
00000010
00000000
00000010
,  // measure 77
00000000
00010000
00000000
00010000
,  // measure 78
01100000
10000000
00010000
00010000
,  // measure 79
00100000
00100000
01000000
10000000
,  // measure 80
10010000
01000000
00000000
01000000
,  // measure 81
00000000
00001000
00000000
00001000
,  // measure 82
00011000
00000000
00000000
00000000
;

//---------------dance-double - ----------------
#NOTEDATA:;
#CHARTNAME:;
#STEPSTYPE:dance-double;
#DESCRIPTION:;
#CHARTSTYLE:;
#DIFFICULTY:Medium;
#METER:10;
#RADARVALUES:0.412339,0.476942,0.276277,0.239925,0.039987,397.000000,359.000000,38.000000,33.000000,0.000000,0.000000,0.000000,0.000000,0.000000,0.412339,0.476942,0.276277,0.239925,0.039987,397.000000,359.000000,38.000000,33.000000,0.000000,0.000000,0.000000,0.000000,0.000000;
#CREDIT:led_light;
#NOTES:
// measure 0
00000000
00000000
00000000
00000000
,  // measure 1
00000000
00000000
00000000
00000000
,  // measure 2
00000000
00000000
00000000
00000000
,  // measure 3
00000000
00000000
00000000
00000000
,  // measure 4
00000000
00000000
00000000
00000000
,  // measure 5
00020000
00000000
01030000
00000000
,  // measure 6
20000000
00000000
31000000
00000000
,  // measure 7
00020000
00000000
00130000
00000000
,  // measure 8
00001000
00000000
00000000
00001000
00000000
00000000
00010000
00000000
00001000
00000000
00000000
00000000
00011000
00000000
00000000
00000000
,  // measure 9
00100000
00000000
00000000
00110000
00000000
00000000
00010000
00000000
00000000
10000000
00000000
00000000
00200000
00000000
00000000
00000000
,  // measure 10
00000000
00000000
00000000
00000000
,  // measure 11
01300000
00000000
00000000
01010000
00000000
00000000
00001000
00000000
00000000
00010000
00000000
00000000
00000020
00000000
00000000
00000000
,  // measure 12
00000000
00000000
00000000
00000000
,  // measure 13
00000130
00000000
00000000
00000110
00000000
00000000
00000001
00000000
00000000
00001000
00000000
00000000
00000200
00000000
00000000
00000000
,  // measure 14
00000010
00000010
00000001
00000001
,  // measure 15
00001300
00000000
00000000
00011000
00000000
00000000
00000010
00000000
00000000
00001000
00000000
00000000
00000002
00000000
00000000
00000000
,  // measure 16
00000010
00000010
00000020
00000033
,  // measure 17
00001001
00000000
00000001
00000000
00001000
00000100
00000010
00000000
,  // measure 18
00000001
00000000
00001000
00000100
00000010
00000000
00000011
00000000
,  // measure 19
00001000
00000000
00000010
00000000
00000100
00001000
00010000
00000000
,  // measure 20
00000010
00000000
00000100
00001000
00010000
00000000
00011000
00000000
,  // measure 21
00001000
00010000
00100000
00000000
10000000
00000000
10010000
00000000
,  // measure 22
00010000
00100000
00010000
00000000
10000000
01000000
10000000
00000000
,  // measure 23
00010000
01000000
00100000
00000000
10000000
00000000
11000000
00000000
,  // measure 24
00010000
10000000
01000000
00000000
00100000
00010000
01000000
00000000
,  // measure 25
00002000
00000000
00000000
00003000
,  // measure 26
00010000
00000000
00001000
00000000
00010000
00001000
00000010
00000000
,  // measure 27
00000002
00000000
00000100
00000003
,  // measure 28
00000010
00000000
00001000
00000000
00000001
00000010
00000100
00000000
,  // measure 29
00020000
00001000
00030200
00001000
,  // measure 30
00010300
00000010
00001000
00000100
,  // measure 31
00000010
00000001
00000010
00000000
00000100
00001000
00000100
00000000
,  // measure 32
00010000
00001000
00010000
00001000
00100000
00010000
01000000
00100000
,  // measure 33
10000000
01000000
00100000
00110000
,  // measure 34
00001000
00010000
01000000
11000000
,  // measure 35
10000000
00100000
00010000
00011000
,  // measure 36
00001000
00000000
00000100
00000001
00000000
00000010
00002000
00000000
,  // measure 37
00000010
00000010
00013000
00001000
,  // measure 38
00010000
00001000
00000100
00000101
,  // measure 39
00000001
00000010
00001000
00011000
,  // measure 40
00010000
00000000
01000000
10000000
00000000
00100000
00020000
00000000
,  // measure 41
00100000
00000000
00100000
00000000
00031000
00000000
00010000
00001000
,  // measure 42
00100000
00000000
00010000
00100000
00010000
00000000
00100000
00010000
,  // measure 43
01000000
00000000
00001000
00010000
00001000
00000000
00010000
00001000
,  // measure 44
00000010
00000000
00000001
00000010
00000001
00000000
00001000
00000100
,  // measure 45
00020000
00000000
00001000
00000000
00001000
00000000
00031000
00010000
,  // measure 46
00000010
00000000
00001000
00000010
00001000
00000000
00000010
00001000
,  // measure 47
00000100
00000000
00010000
00001000
00010000
00000000
00001000
00010000
,  // measure 48
00100000
00000000
00000000
00100000
00000000
00000000
10000000
00000000
00000000
01000000
00000000
00000000
02200000
00000000
00000000
00000000
,  // measure 49
00000000
00000000
00000000
03300000
,  // measure 50
20020000
30030000
01010000
00010000
,  // measure 51
00011000
00000000
00001000
00000000
00010000
00001000
00000010
00000000
,  // measure 52
00000022
00000033
00001100
00001000
,  // measure 53
00011000
00001000
00001010
00000001
,  // measure 54
00002002
00003003
00001010
00001000
,  // measure 55
00011000
00000000
00010000
00000000
00001000
00010000
01000000
00000000
,  // measure 56
22000000
33000000
00110000
00010000
,  // measure 57
00011000
00010000
01010000
10000000
,  // measure 58
11000000
01000000
00100000
00100000
,  // measure 59
00001000
00001000
00010000
00010000
,  // measure 60
00000100
00000100
00001000
00001000
,  // measure 61
00000010
00000010
00000100
00000000
,  // measure 62
00000001
00000100
00000001
00000000
00000100
00000010
00000100
00000000
,  // measure 63
00001000
00010000
00001000
00000000
01000000
00100000
01000000
00000000
,  // measure 64
00010000
00100000
01000000
10000000
00010000
00100000
01000000
10000000
,  // measure 65
00100000
01000000
00100000
01000000
00010000
00000000
00000000
00000000
,  // measure 66
10010000
00000000
00010000
10000000
02000000
00000000
00010000
00000000
,  // measure 67
03200000
00000000
00010000
00000000
01300000
10000000
00010000
00000000
,  // measure 68
10010000
00000000
00010000
01000000
00100000
00000000
10000000
00100000
,  // measure 69
00010000
00000000
00001000
00000100
00000001
00000000
00000100
00000010
,  // measure 70
00000110
00000000
00001000
00000001
00000020
00000000
00001000
00000000
,  // measure 71
00000230
00000000
00001000
00000000
00000310
00000001
00001000
00000000
,  // measure 72
00001001
00000000
00001000
00000010
00000100
00000000
00000001
00000100
,  // measure 73
00001000
00000000
00010000
00100000
10000000
00000000
00100000
01000000
,  // measure 74
01100000
00000000
00010000
10000000
02000000
00000000
00100000
00000000
,  // measure 75
23000000
00000000
00100000
00000000
31000000
00100000
00001000
00010000
,  // measure 76
00001000
00000000
00010000
00000100
00010000
00001000
00010000
00010000
,  // measure 77
00000010
00001000
00000100
00010000
00000010
00000100
00000001
00000000
,  // measure 78
00001001
00000000
00001000
00000001
00000200
00000000
00000010
00000000
,  // measure 79
00000302
00000000
00000010
00000000
00000103
00000010
00010000
00001000
,  // measure 80
00010000
00000000
00001000
01000000
00001000
00010000
00001000
00001000
,  // measure 81
00100000
00010000
01000000
00001000
00100000
01000000
10000000
00000000
,  // measure 82
10010000
00000000
00000000
00000000
;

//---------------dance-double - ----------------
#NOTEDATA:;
#CHARTNAME:;
#STEPSTYPE:dance-double;
#DESCRIPTION:;
#CHARTSTYLE:;
#DIFFICULTY:Hard;
#METER:15;
#RADARVALUES:0.617989,0.864457,0.334441,0.356252,0.516202,595.000000,549.000000,46.000000,49.000000,0.000000,0.000000,0.000000,0.000000,0.000000,0.617989,0.864457,0.334441,0.356252,0.516202,595.000000,549.000000,46.000000,49.000000,0.000000,0.000000,0.000000,0.000000,0.000000;
#CREDIT:led_light;
#NOTES:
// measure 0
00000000
00000000
00000000
00000000
,  // measure 1
00000000
00000000
00000000
00000000
,  // measure 2
00000000
00000000
00000000
00000000
,  // measure 3
00000000
00000000
00000000
00000000
,  // measure 4
00000000
00000000
00000000
00000000
,  // measure 5
00000200
00000000
00000000
00000000
,  // measure 6
00002300
00000000
00000000
00000000
,  // measure 7
00003020
00000000
00000000
00000000
,  // measure 8
00000130
00000000
00000000
00000100
00000000
00000000
00000001
00000000
00001000
00000000
00000000
00000000
00001001
00000000
00000000
00000000
,  // measure 9
00000100
00000000
00000000
00001100
00000000
00000000
00010000
00000000
00000000
00011000
00000000
00000000
00202000
00000000
00000000
00000000
,  // measure 10
00000000
00000000
00000000
00003000
,  // measure 11
00301000
00000000
00000000
00011000
00000000
00000000
01000000
00000000
00000000
01010000
00000000
00000000
02200000
00000000
00000000
00000000
,  // measure 12
00000000
00000000
00000000
03000000
,  // measure 13
10300000
00000000
00000000
11000000
00000000
00000000
00010000
00000000
00000000
00101000
00000000
00000000
00021000
00000000
00000000
00000000
,  // measure 14
00000100
00000100
00001000
00001000
,  // measure 15
00030010
00000000
00000000
00001010
00000000
00000000
00000001
00000000
00000000
00000011
00000000
00000000
00000220
00000000
00000000
00000000
,  // measure 16
00000000
00000000
00000300
00000031
,  // measure 17
00001001
00000000
00000001
00001000
00000100
00001000
00000001
00001000
,  // measure 18
00000010
00000000
00000010
00000000
00000100
00000000
00001000
00000000
00010000
00001000
00000000
00001000
00010000
00000000
00001000
00000000
,  // measure 19
00100000
00010000
10000000
01000000
00100000
01000000
10000000
00010000
,  // measure 20
10000000
00000000
10000000
00000000
01000000
00000000
00100000
00000000
00010000
10000000
00000000
10000000
00010000
00000000
01000000
00000000
,  // measure 21
00100000
10000000
10010000
00000000
00010000
00100000
01000000
00100000
,  // measure 22
00001000
00001000
00010000
00010000
00000100
00000100
00000010
00000001
,  // measure 23
00001000
00000010
00000110
00000000
00000001
00001000
00000100
00000010
,  // measure 24
00000001
00000001
00001000
00001000
00000100
00010000
00001000
00000000
,  // measure 25
00020000
00000000
00001000
00000000
00000000
00000000
00001000
00030000
,  // measure 26
00010000
00000100
00000000
00000000
00010000
00000000
00001000
00000000
01000000
00000000
00100000
00000000
00010000
00000000
00001000
00000000
,  // measure 27
00020000
00001000
00000000
00031000
,  // measure 28
00100000
00000000
01000000
10000000
00000000
01000000
00100000
00010000
,  // measure 29
10000000
00000000
00000000
11000000
00000000
00000000
10000000
00000000
00100000
00000000
00100000
00000000
01000000
00000000
00001000
00000000
,  // measure 30
00010000
00000010
00001000
00000010
00010000
00000100
00001000
00000100
,  // measure 31
00010000
00000000
00001000
00010000
00001000
00000000
00001000
00000000
00100000
00000000
00010000
00100000
00010000
00000000
00010000
00000000
,  // measure 32
10000000
00100000
10000000
00100000
01000000
00010000
01000000
00010000
00100000
00010000
00100000
00001000
00010000
00001000
00010000
00000100
,  // measure 33
00001000
00000001
00000000
00000000
00000001
00000100
00000000
00000000
00000100
00001000
00000000
00000000
00011000
00000000
00000000
00000000
,  // measure 34
01100000
00000000
00000000
10000000
00010000
00000000
00010000
00000000
00100000
00000000
01000000
00000000
10000000
00000000
01000000
00000000
,  // measure 35
00010000
00000000
00000000
00010000
00001000
00000000
00001000
00000000
00000010
00000000
00000001
00000000
00001000
00000000
00000100
00000000
,  // measure 36
00000010
00000000
00000001
00000100
00001000
00000000
00000100
00000000
00001000
00010000
01000000
00000000
20000000
00000000
00000000
00000000
,  // measure 37
31000000
00000000
01000000
00100000
00000000
00100000
00001000
00000000
00001000
00010000
00000000
00010000
00000100
00000000
00010000
00000000
,  // measure 38
00000010
00000000
00000000
00000100
00000001
00000000
00001000
00000000
00000100
00000000
00000010
00000000
00000001
00000000
00000010
00000000
,  // measure 39
00001000
00000000
00000000
00001000
00010000
00000000
00010000
00000000
01000000
00000000
10000000
00000000
00010000
00000000
00100000
00000000
,  // measure 40
01000000
00000000
10000000
00100000
00010000
00000000
00100000
00000000
00010000
00001000
00000010
00000000
00000002
00000000
00000000
00000000
,  // measure 41
00000013
00000000
00000000
00000010
00000100
00000000
00001100
00000000
00000200
00000000
00000000
00010300
00000100
00000000
00001000
00000000
,  // measure 42
00000010
00000000
00010000
00001000
00000000
00001000
00010000
00000000
00100000
00000000
10000000
00000000
01000000
00000000
00010000
00000000
,  // measure 43
00001000
00000000
00010000
00001000
00000000
00001000
00010000
00000000
00001000
00000000
00000010
00000000
00000001
00000000
00001000
00000000
,  // measure 44
00000001
00000000
00001000
00000010
00000000
00000010
00000100
00000000
00000001
00000000
00000100
00000000
00001000
00000000
00000100
00000000
,  // measure 45
00000001
00000000
00000001
00000010
00000000
00000010
00001000
00000000
00001000
00010000
00000000
00010000
00100000
00000000
01100000
00000000
,  // measure 46
01000000
00000000
00001000
00010000
00000000
00010000
00001000
00000000
00000100
00000000
00000001
00000000
00000010
00000000
00001000
00000000
,  // measure 47
00010000
00000000
00001000
00010000
00000000
00010000
00001000
00000000
00010000
00000000
01000000
00000000
10000000
00000000
00010000
00000000
,  // measure 48
10000000
00000000
00000000
10100000
00000000
00000000
00010000
00000000
00000000
00110000
00000000
00000000
00202000
00000000
00000000
00000000
,  // measure 49
00000000
00000000
00000000
00303000
,  // measure 50
00022000
00000000
00033000
00000100
00001100
00000000
00010000
00000000
,  // measure 51
00011000
00000000
00000000
00000000
00000000
00000000
00000010
00000000
00000010
00000000
00000010
00000000
00001000
00000000
00000000
00000001
00000000
00000000
00000100
00000000
00000000
00000000
00000000
00000000
,  // measure 52
00000220
00000000
00000000
00000000
00000330
00000000
00001000
00000000
00011000
00000000
00000000
00000000
01000000
00010000
00000000
00000000
,  // measure 53
10000000
01000000
00000000
00000000
00100000
00010000
00000000
00000000
00100000
00001000
00000000
00000000
00010000
00000000
00000000
00000000
,  // measure 54
00011000
00000000
00000010
00001000
00001010
00000000
00010000
00000000
,  // measure 55
00011000
00000000
00000000
00000000
00000000
00000000
00000100
00000000
00000100
00000000
00000100
00000000
00001000
00000000
00000000
00000001
00000000
00000000
00000010
00000000
00000000
00000000
00000000
00000000
,  // measure 56
00000220
00000000
00000330
00001000
00011000
00000000
00010000
00000000
,  // measure 57
00110000
00000000
00000000
00000000
10000000
00100000
00000000
00000000
00100000
01000000
00000000
00000000
00010000
00000000
00000000
00000000
,  // measure 58
20010000
00010000
01000000
01000000
,  // measure 59
30010000
00000000
00100000
00000000
00001000
00010000
00000010
00000000
,  // measure 60
00000120
00000100
00001000
00001000
,  // measure 61
00000001
00000001
00000200
00000330
,  // measure 62
00000001
00000010
00000001
00000010
00000100
00001000
00000100
00001000
,  // measure 63
00010000
00100000
00010000
00100000
01000000
10000000
01000000
10000000
,  // measure 64
00010000
01000000
00010000
01000000
00010000
01000000
00010000
01000000
00001000
00010000
00001000
00010000
00001000
00010000
00001000
00010000
,  // measure 65
00000010
00001000
00000010
00001000
00000010
00000100
00000010
00000100
00000020
00000000
00000000
00000000
00000030
00000000
00000000
00000000
,  // measure 66
00001001
00000000
00000000
00000001
00000100
00000000
00001000
00000000
00020000
00000000
00030100
00000000
00020000
00000000
00031000
00000000
,  // measure 67
00020000
00130000
00020000
00031000
02000000
03200000
20300000
30010000
,  // measure 68
10010000
00000000
00000000
01000000
00000000
00010000
00100000
01000000
10000000
00010000
00000000
10000000
00000000
10000000
00100000
01000000
,  // measure 69
00010000
00100000
00000000
00100000
00000000
00001000
00010000
00001000
00010000
00000100
00000000
00001000
00000000
00001000
00000010
00000000
,  // measure 70
00000110
00000000
00000100
00001000
00020000
00030010
00020000
00031000
,  // measure 71
00020000
01030000
00020000
00031000
00200000
02300000
23000000
30010000
,  // measure 72
10010000
00000000
00000000
00100000
00000000
00010000
01000000
00100000
10000000
00010000
00000000
10000000
00000000
10000000
01000000
00100000
,  // measure 73
00010000
01000000
00000000
01000000
00000000
00001000
00010000
00001000
00010000
00000010
00000000
00001000
00000000
00001000
00000100
00000000
,  // measure 74
00000110
00000000
00000000
00000010
00000001
00000000
00000001
00000000
00002000
00000000
00003100
00000000
00002000
00000000
00003010
00000000
,  // measure 75
00002000
00000000
00013000
00000000
02000000
00000000
03010000
00000000
10000000
01000000
10000000
01000000
00100000
00000000
00010000
00000000
,  // measure 76
10010000
00000000
00000000
00010000
00100000
00010000
00000000
10000000
00000000
00100000
00000000
01000000
00010000
01000000
00100000
00000000
,  // measure 77
00010000
00001000
00000000
00000100
00000010
00001000
00000001
00000010
00000100
00000010
00000000
00000100
00000000
00001000
00000001
00000000
,  // measure 78
00001001
00000000
00000000
00001000
00000010
00000000
00000010
00000000
00020000
00000000
00130000
00000000
00020000
00000000
00031000
00000000
,  // measure 79
00020000
00000000
01030000
00000000
00020000
00000000
00031000
00000000
00100000
00010000
00100000
00010000
01000000
00100000
10000000
00000000
,  // measure 80
10010000
00000000
00000000
00010000
01000000
00010000
00000000
10000000
00000000
01000000
00000000
00100000
00010000
00100000
01000000
00000000
,  // measure 81
00010000
00001000
00000000
00000010
00000100
00001000
00000000
00000001
00000000
00000100
00000000
00000010
00000100
00001000
00010000
00000000
,  // measure 82
00011000
00000000
00000000
00000000
;
