#TITLE:Birds of time;
#SUBTITLE:;
#ARTIST:Enna Alouette × PrettyPatterns;
#TITLETRANSLIT:;
#SUBTITLETRANSLIT:;
#ARTISTTRANSLIT:;
#GENRE:にじさんじ;
#CREDIT:;
#BANNER:Birds of time.png;
#BACKGROUND:Birds of time-bg.png;
#LYRICSPATH:;
#CDTITLE:../cdtitle.png;
#MUSIC:Birds of time.ogg;
#OFFSET:1.446000;
#SAMPLESTART:40.544998;
#SAMPLELENGTH:15.000000;
#LASTBEATHINT:0.594667;
#SELECTABLE:YES;
#BPMS:0.000000=80.000000
;
#STOPS:
;
#BGCHANGES:1.875=Birds of time.avi=1.000=0=0=0=StretchNoLoop====,
99999=-nosongbg-=1.000=0=0=0 // don't automatically add -songbackground-
;
#KEYSOUNDS:;
#ATTACKS:;

//---------------dance-single - ----------------
#NOTES:
     dance-single:
     :
     Beginner:
     1:
     0.031349,0.045260,0.000000,0.073148,0.000000,24.000000,24.000000,0.000000,8.000000,0.000000,0.000000,0.031349,0.045260,0.000000,0.073148,0.000000,24.000000,24.000000,0.000000,8.000000,0.000000,0.000000:
0000
0000
0000
0000
,
0000
0000
0000
0000
,
0000
0000
0000
0000
,
0000
0000
0000
0000
,
0000
0000
0000
0000
,
2000
0000
3000
0000
,
1000
0000
0000
0000
,
0002
0000
0003
0000
,
0001
0000
0000
0000
,
0001
0000
0000
0000
,
0020
0000
0030
0000
,
0100
0000
0000
0000
,
2000
0000
0000
0000
,
3000
0000
0000
0000
,
0010
0000
0000
0000
,
0010
0000
0000
0000
,
1000
0000
0000
0000
,
1000
0000
0000
0000
,
0100
0000
0000
0000
,
0100
0000
0000
0000
,
0001
0000
0000
0000
,
0001
0000
0000
0000
,
0020
0000
0000
0000
,
0030
0000
0000
0000
,
0002
0000
0000
0000
,
0003
0000
0000
0000
,
0200
0000
0000
0000
,
0300
0000
0000
0000
,
2000
0000
0000
0000
,
3000
0000
0000
0000
,
0010
0000
0000
0000
,
0100
0000
0000
0000
,
0001
0000
0000
0000
,
1000
0000
0000
0000
;

//---------------dance-single - ----------------
#NOTES:
     dance-single:
     :
     Easy:
     2:
     0.075761,0.093264,0.000000,0.219445,0.000000,58.000000,58.000000,0.000000,24.000000,0.000000,0.000000,0.075761,0.093264,0.000000,0.219445,0.000000,58.000000,58.000000,0.000000,24.000000,0.000000,0.000000:
0000
0000
0000
0000
,
0000
0000
0000
0000
,
0000
0000
0000
0000
,
0000
0000
0000
0000
,
0000
0000
0000
0000
,
2000
3000
0002
0003
,
0100
0010
0200
0300
,
0002
0003
2000
3000
,
0010
0100
0020
0030
,
2000
0000
3100
0000
,
0002
0000
0013
0000
,
2000
0000
3010
0000
,
0002
0000
0103
0000
,
2000
0000
0000
0000
,
3001
0000
0001
0000
,
0100
0000
0010
0000
,
1000
0000
1000
0000
,
0001
0000
1000
0000
,
0001
0000
0001
0000
,
0010
0000
0100
0000
,
1000
0000
1000
0000
,
0001
0000
1000
0000
,
0020
0000
2030
0000
,
3200
0000
0300
1000
,
0002
0000
0203
0000
,
0320
0000
0030
0000
,
0200
0000
0302
0000
,
0023
0000
0030
0001
,
2000
0000
3020
0000
,
0230
0000
0300
0000
,
0001
0000
0001
0000
,
1000
0000
0100
0000
,
1000
0000
1000
0000
,
0001
0000
0100
0020
,
0030
0000
0000
0000
;

//---------------dance-single - ----------------
#NOTES:
     dance-single:
     :
     Medium:
     4:
     0.124091,0.176013,0.000000,0.329167,0.000000,95.000000,95.000000,0.000000,36.000000,0.000000,0.000000,0.124091,0.176013,0.000000,0.329167,0.000000,95.000000,95.000000,0.000000,36.000000,0.000000,0.000000:
0000
0000
0000
0000
,
0000
0000
0000
0000
,
0000
0000
0000
0000
,
0000
0000
0000
0000
,
0000
0000
0000
0000
,
0002
1003
2000
3001
,
0100
0010
0100
0000
0020
0000
0130
0000
,
0002
1003
2000
3001
,
0010
0100
0010
0000
0200
0000
0300
0000
,
2000
0000
0001
0100
,
3020
0000
0100
1030
,
0002
0000
1000
0010
,
0203
1000
0010
0002
,
0303
0000
0000
0000
,
2000
0000
3100
1000
0002
0000
0103
0000
,
0001
0000
0010
0000
0100
0000
1000
0001
,
2000
3100
0002
0103
,
2000
3010
0200
0301
,
0002
0000
0013
0001
2000
0000
3010
0000
,
1000
0000
0100
0000
0010
0000
0001
1000
,
0002
0013
2000
3010
,
0002
0103
0020
1030
,
0002
0000
2000
0003
,
0200
0000
0000
0000
3300
0000
0010
0001
,
2000
0000
0002
3000
,
0200
0000
0303
0000
,
0002
0000
0020
0003
,
0200
0000
0000
0000
0330
0000
1000
0001
,
2000
0000
0020
3000
,
0200
0000
0000
0330
,
0001
0000
0001
0010
,
1000
0000
0001
0100
,
1000
0000
1000
0010
,
0001
0000
0000
0000
1000
0000
0100
0020
,
0000
0000
0000
0000
,
0030
0000
0000
0000
;

//---------------dance-single - ----------------
#NOTES:
     dance-single:
     :
     Hard:
     7:
     0.195933,0.272020,0.018287,0.320023,0.050289,150.000000,148.000000,2.000000,35.000000,0.000000,0.000000,0.195933,0.272020,0.018287,0.320023,0.050289,150.000000,148.000000,2.000000,35.000000,0.000000,0.000000:
0000
0000
0000
0000
,
0000
0000
0000
0000
,
0000
0000
0000
0000
,
0000
0000
0000
0000
,
0000
0000
0000
0000
,
2000
0100
3002
0103
,
0001
0010
0001
0010
0200
0000
1300
0000
,
0002
0100
2003
3100
,
1000
0010
0100
0000
0001
1000
0100
0000
,
0020
0000
0130
0000
1000
0010
0100
0002
,
0010
0000
1000
0000
0103
0000
0001
1000
,
0200
0000
0310
0000
0001
0010
0100
0020
,
0031
0000
0000
1000
0000
0001
0000
0100
0000
0000
0020
0000
0000
0000
0000
0000
,
0200
0000
0000
0000
0000
0000
0000
0330
,
2001
0000
0000
0000
3100
0000
1000
0001
0200
0000
0000
0000
0310
0000
0000
0000
,
1000
0000
0100
0000
0010
0000
0000
0000
0001
0000
0100
0010
0000
0100
0010
0000
,
2000
0000
0000
0000
3100
0000
1000
0000
0002
0000
0000
0000
0103
0010
0100
0000
,
0001
0010
0010
0000
1000
0010
0010
0001
,
1002
0000
0000
0000
0013
0000
0001
1000
0020
0000
0000
0000
0130
0000
0000
0000
,
0001
0000
0010
0000
0100
0000
0000
0000
1000
0000
0010
0100
0000
0010
0100
0000
,
0002
0000
0000
0000
0013
0000
0001
0000
2000
0000
0000
0000
3010
0100
0010
0000
,
2000
0100
0100
0000
3002
0100
0100
1003
,
0200
0000
0300
1000
0020
0000
0030
0100
,
0002
0000
0000
0000
0003
0000
1000
0100
,
2000
0000
3010
0100
0020
0000
1030
0001
,
0020
0000
0130
0100
,
0020
0000
0030
0001
0200
0000
0300
0010
,
2000
0000
0000
0000
3000
0000
0001
0010
,
0002
0000
0103
0010
0200
0000
0301
1000
,
0200
0000
0000
0000
0020
0000
0000
0330
,
0001
0001
0100
0100
,
0010
0000
1000
0000
0001
0000
1000
0100
,
1000
1000
0010
0010
,
0100
0000
0001
0000
1000
0000
0001
0020
,
0000
0000
0000
0000
,
0030
0000
0000
0000
;

//---------------dance-single - ----------------
#NOTES:
     dance-single:
     :
     Challenge:
     9:
     0.287368,0.368027,0.036574,0.310880,0.219445,220.000000,216.000000,4.000000,34.000000,0.000000,0.000000,0.287368,0.368027,0.036574,0.310880,0.219445,220.000000,216.000000,4.000000,34.000000,0.000000,0.000000:
0000
0000
0000
0000
,
0000
0000
0000
0000
,
0000
0000
0000
0000
,
0000
0000
0000
0000
,
0000
0000
0000
0000
,
2000
0000
3001
0100
0002
0000
1003
0100
,
1000
0000
0010
0000
1000
0000
0100
0010
0000
0010
0002
0000
1003
0000
0001
0000
,
2000
0000
3001
0010
0002
0000
1003
0010
,
1000
0000
0100
1000
0000
0001
0100
0000
0020
0000
0000
0000
1030
0000
0001
0000
,
2000
0000
0000
0100
0000
0000
3001
0000
1000
0000
0100
0000
1000
0000
0020
0000
,
0100
0000
0001
0000
0100
0000
1030
0100
,
0020
0000
0000
0100
0000
0000
0031
0000
1000
0000
0010
0000
1000
0000
0200
0000
,
0310
0000
0010
0001
0000
1000
0000
0001
0000
0100
0020
0000
0000
0000
0000
0000
,
0200
0000
0000
0000
0000
0000
0000
0330
,
2001
0000
0000
0000
3100
0000
1000
0001
0100
0000
0010
0000
0110
0100
0001
0000
,
1000
0000
0001
0100
0001
0000
1000
0000
0100
0000
0010
0100
0000
1000
0001
0000
,
2000
0000
0000
0000
3100
0000
1000
0000
0010
0000
1000
0000
0100
1000
0001
0000
,
2000
0000
3100
0000
0010
0001
0010
0000
0001
0000
0100
0010
1000
0000
0001
0000
,
1002
0000
0000
0000
0013
0000
0001
1000
0010
0000
0100
0000
0110
0010
1000
0000
,
0001
0000
1000
0010
1000
0000
0001
0000
0010
0000
0100
0010
0000
0001
1000
0000
,
0002
0000
0000
0000
0013
0100
1000
0000
0020
0000
0000
0000
1030
0100
0010
0000
,
0002
0000
0103
0000
0010
1000
0010
0000
0100
0000
0001
0010
0100
0000
1000
0000
,
0002
0000
0000
0010
0000
0000
0010
0000
2003
0000
0000
0100
0000
0000
0100
0000
,
3002
0000
0000
0100
0000
0000
0100
0000
2003
0000
0000
3100
0000
1000
0010
0000
,
0200
0000
0310
0100
0002
0000
0013
0001
,
2000
0000
0100
0000
3001
0000
0100
0010
,
2000
0000
0000
0100
0000
0000
0100
0000
3002
0000
0000
0010
0000
0000
0010
0000
,
2003
0000
0000
0010
0000
0000
0010
0000
3002
0000
0000
0013
0000
0001
0100
0000
,
0020
0000
0130
0010
2000
0000
3100
1000
,
0002
0000
0010
0000
1000
0000
0100
0003
,
1000
0000
0100
0000
0010
0000
0001
0000
0100
0000
0001
1000
0000
0010
0100
0000
,
0010
0100
0010
0000
1000
0000
0100
0000
0001
0000
0100
0010
0000
0100
0010
0000
,
0001
0000
0010
0000
0100
0000
1000
0000
0010
0000
1000
0001
0000
0100
0010
0000
,
0100
0010
0100
0000
0001
0000
0010
0000
1000
0000
0010
0001
0000
0100
0010
0200
,
0000
0000
0000
0000
,
0300
0000
0000
0000
;

//---------------dance-double - ----------------
#NOTES:
     dance-double:
     :
     Easy:
     1:
     0.044411,0.062176,0.000000,0.137153,0.000000,34.000000,34.000000,0.000000,15.000000,0.000000,0.000000,0.044411,0.062176,0.000000,0.137153,0.000000,34.000000,34.000000,0.000000,15.000000,0.000000,0.000000:
00000000
00000000
00000000
00000000
,
00000000
00000000
00000000
00000000
,
00000000
00000000
00000000
00000000
,
00000000
00000000
00000000
00000000
,
00000000
00000000
00000000
00000000
,
00020000
00000000
00030000
00000000
,
00002000
00000000
00003000
00000000
,
00000200
00000000
00000300
00000000
,
00000020
00000000
00000030
00000000
,
00000001
00000000
00000001
00000000
,
00002000
00000000
00003000
00000000
,
00000100
00000000
00000100
00000000
,
00020000
00000000
00000000
00000000
,
00030000
00000000
00000000
00000000
,
00010000
00000000
00010000
00000000
,
00001000
00000000
00000000
00000000
,
01000000
00000000
01000000
00000000
,
00010000
00000000
00000000
00000000
,
10000000
00000000
10000000
00000000
,
01000000
00000000
00000000
00000000
,
00100000
00000000
00100000
00000000
,
00001000
00000000
00000000
00000000
,
00000200
00000000
00000300
00000000
,
00000002
00000000
00000003
00000000
,
00000020
00000000
00000030
00000000
,
00002000
00000000
00003000
00000000
,
00020000
00000000
00030000
00000000
,
00002000
00000000
00003000
00000000
,
00200000
00000000
00300000
00000000
,
02000000
00000000
03000000
00000000
,
10000000
00000000
00000000
00000000
,
00010000
00000000
00000000
00000000
,
00001000
00000000
00000000
00000000
,
00000002
00000000
00000000
00000000
,
00000003
00000000
00000000
00000000
;

//---------------dance-double - ----------------
#NOTES:
     dance-double:
     :
     Medium:
     3:
     0.105804,0.144011,0.000000,0.301736,0.000000,81.000000,81.000000,0.000000,33.000000,0.000000,0.000000,0.105804,0.144011,0.000000,0.301736,0.000000,81.000000,81.000000,0.000000,33.000000,0.000000,0.000000:
// measure 0
00000000
00000000
00000000
00000000
,  // measure 1
00000000
00000000
00000000
00000000
,  // measure 2
00000000
00000000
00000000
00000000
,  // measure 3
00000000
00000000
00000000
00000000
,  // measure 4
00000000
00000000
00000000
00000000
,  // measure 5
00002000
00003000
00020000
00030000
,  // measure 6
00000100
00000100
00000020
00000030
,  // measure 7
00000002
00000003
00000020
00000030
,  // measure 8
00001000
00010000
00002000
00003000
,  // measure 9
00020000
00000000
00031000
01000000
,  // measure 10
00002000
00000000
00013000
00000000
,  // measure 11
00002000
00000000
00013000
00000100
,  // measure 12
00020000
00000000
00002000
00000000
,  // measure 13
00033000
00000000
00000000
00000000
,  // measure 14
00200000
00310000
20000000
31000000
,  // measure 15
10000000
00100000
01000000
00010000
,  // measure 16
00200000
00010000
00302000
00010000
,  // measure 17
01003000
01000000
00001000
00010000
,  // measure 18
00000020
00001030
00000002
00000103
,  // measure 19
00000001
00000010
00000100
00001000
,  // measure 20
00000020
00001000
00020030
00001000
,  // measure 21
00030200
00000010
00001000
00010300
,  // measure 22
00002000
00000000
02003000
00000000
,  // measure 23
00200000
00000000
03300000
10000000
,  // measure 24
00020000
00000000
00230000
00000000
,  // measure 25
00002000
00000000
00303000
00000000
,  // measure 26
00020000
00000000
00030020
00000000
,  // measure 27
00000200
00000000
00000330
00000001
,  // measure 28
00002000
00000000
00003200
00000000
,  // measure 29
00020000
00000000
00000000
00030300
,  // measure 30
00001000
00000000
00010000
00001000
,  // measure 31
00000100
00000001
00000010
00001000
,  // measure 32
00010000
00000000
00001000
00010000
,  // measure 33
01000000
00000000
10000000
00000000
00100000
00000000
00010000
00002000
,  // measure 34
00000000
00000000
00000000
00000000
,  // measure 35
00003000
00000000
00000000
00000000
;

//---------------dance-double - ----------------
#NOTES:
     dance-double:
     :
     Hard:
     6:
     0.178952,0.224016,0.018287,0.320023,0.000000,137.000000,135.000000,2.000000,35.000000,0.000000,0.000000,0.178952,0.224016,0.018287,0.320023,0.000000,137.000000,135.000000,2.000000,35.000000,0.000000,0.000000:
// measure 0
00000000
00000000
00000000
00000000
,  // measure 1
00000000
00000000
00000000
00000000
,  // measure 2
00000000
00000000
00000000
00000000
,  // measure 3
00000000
00000000
00000000
00000000
,  // measure 4
00000000
00000000
00000000
00000000
,  // measure 5
00200000
00010000
00302000
00013000
,  // measure 6
00000010
00001000
00000010
00000000
00000100
00000001
00000010
00000000
,  // measure 7
00000200
00001000
00020300
00031000
,  // measure 8
01000000
00010000
00100000
00000000
02000000
00000000
13000000
00000000
,  // measure 9
00020000
00000000
00100000
00000000
01030000
00010000
00001000
00000000
,  // measure 10
00000020
00000001
00000100
00010000
,  // measure 11
00002030
00000000
00000010
00000000
00003100
00001000
00010000
00000000
,  // measure 12
00200000
00000000
01300000
00000000
10000000
00010000
20000000
00000000
,  // measure 13
00020000
00000000
00000000
00000000
00000000
00000000
00000000
30030000
,  // measure 14
02010000
00000000
03001000
00010000
00002000
00000000
00103000
00000000
,  // measure 15
01000000
00010000
00001000
00000000
00010000
00001000
00000100
00000001
,  // measure 16
00000020
00000000
00001030
00010000
00002000
00000000
00013000
00010000
,  // measure 17
00001000
00000100
00000010
00000000
00001000
00000100
00000010
00000000
,  // measure 18
00001200
00000000
00010300
00001000
00020000
00000000
00030010
00000000
,  // measure 19
00000100
00001000
00010000
00000000
00001000
00010000
01000000
10000000
,  // measure 20
00200000
00000000
00310000
00001000
00020000
00000000
00031000
00001000
,  // measure 21
00000020
00000001
00000031
00000000
00002000
00000010
00003010
00000000
,  // measure 22
00020000
00000000
00030000
00001000
00200000
00000000
00300000
00010000
,  // measure 23
02000000
00000000
00000000
00000000
03000000
00000000
00100000
10000000
,  // measure 24
02000000
00000000
03100000
00001000
00020000
00000000
00031000
00000100
,  // measure 25
00000002
00000000
00000013
00000010
,  // measure 26
00002000
00000000
00003000
00010000
00000200
00000000
00000300
00001000
,  // measure 27
00000020
00000000
00000000
00000000
00000030
00000000
00000100
00000001
,  // measure 28
00000020
00000000
00000130
00010000
00002000
00000000
00013000
00100000
,  // measure 29
20000000
00000000
00000000
00000000
00020000
00000000
00000000
30030000
,  // measure 30
00010000
00100000
01000000
10000000
,  // measure 31
00100000
00100000
00010000
00001000
,  // measure 32
00010000
00000100
00000010
00000001
,  // measure 33
00000100
00000000
00000100
00000000
00001000
00000000
00010000
00002000
,  // measure 34
00000000
00000000
00000000
00000000
,  // measure 35
00003000
00000000
00000000
00000000
;

//---------------dance-double - ----------------
#NOTES:
     dance-double:
     :
     Challenge:
     10:
     0.329167,0.416030,0.036574,0.356598,0.370313,252.000000,248.000000,4.000000,39.000000,0.000000,0.000000,0.329167,0.416030,0.036574,0.356598,0.370313,252.000000,248.000000,4.000000,39.000000,0.000000,0.000000:
// measure 0
00000000
00000000
00000000
00000000
,  // measure 1
00000000
00000000
00000000
00000000
,  // measure 2
00000000
00000000
00000000
00000000
,  // measure 3
00000000
00000000
00000000
00000000
,  // measure 4
00000000
00000000
00000000
00000000
,  // measure 5
00200000
00000000
01300000
00010000
00002000
00000000
00003100
00001000
,  // measure 6
00010000
00000000
00000010
00000000
00010000
00000000
00000100
00001000
00000000
00000100
00000020
00000000
00000031
00000000
00001000
00000000
,  // measure 7
00000020
00000000
00000130
00001000
00020000
00000000
01030000
00010000
,  // measure 8
00001000
00000000
00100000
00010000
00000000
10000000
00010000
00000000
02000000
00000000
00000000
00000000
03100000
00000000
00010000
00000000
,  // measure 9
00002000
00000000
00000000
00000100
00000000
00000000
00003100
00000000
00000001
00000000
00000010
00000000
00001000
00000000
00000010
00000000
,  // measure 10
00000002
00000000
00001000
00000000
00000103
00001000
00000100
00000010
,  // measure 11
00020000
00000000
00000000
00100000
00000000
00000000
00130000
00000000
10000000
00000000
01000000
00000000
00010000
00000000
02000000
00000000
,  // measure 12
13000000
00000000
01000000
00100000
00000000
00010000
00000000
01000000
00000000
00001000
00020000
00000000
00000000
00000000
00000000
00000000
,  // measure 13
00002000
00000000
00000000
00000000
00000000
00000000
00000000
00033000
,  // measure 14
00002001
00000000
00000000
00000000
00003100
00000000
00000010
00000001
00000200
00000000
00000310
00000000
00000110
00000100
00000010
00000000
,  // measure 15
00001000
00000100
00001000
00000100
00010000
00001000
01000000
00000000
00001000
00000000
00010000
00001000
00010000
01000000
10000000
00010000
,  // measure 16
20000000
00000000
00000000
00000000
30010000
00100000
00010000
00000000
01000000
00000000
01000000
00100000
10000000
00010000
10000000
00000000
,  // measure 17
00020000
00000000
01030000
00001000
00010000
01000000
00100000
00000000
02000000
00000000
13000000
00010000
01000000
00100000
10000000
00000000
,  // measure 18
10020000
00000000
00000000
00000000
01030000
00000000
00100000
10000000
02000000
00000000
03100000
00000000
01100000
01000000
00100000
00000000
,  // measure 19
00010000
01000000
00010000
01000000
00001000
00010000
00000100
00000000
00010000
00000000
00001000
00010000
00001000
00000100
00000001
00001000
,  // measure 20
00000002
00000000
00000000
00000000
00001003
00000010
00001000
00000000
00000100
00000000
00000100
00000010
00000001
00001000
00000001
00000000
,  // measure 21
00002000
00000000
00003100
00010000
00001000
00000100
00000010
00000000
00000200
00000000
00000301
00001000
00000100
00000010
00000001
00000000
,  // measure 22
00002000
00000000
00000000
00000100
00000000
00000000
00003100
00010000
00002000
00000000
00000000
01000000
00000000
00000000
01003000
00010000
,  // measure 23
20000000
00000000
00000000
01000000
00000000
00000000
01000000
00000000
30020000
00000000
00000000
01030000
00000000
01000000
00100000
10000000
,  // measure 24
02000000
00000000
00000000
03100000
00000000
01000000
00010000
00000000
00002000
00000000
00000000
00013000
00000000
00001000
00000100
00000000
,  // measure 25
00000020
00000000
00000000
00000100
00000000
00000000
00001030
00000000
00000002
00000000
00000000
00000100
00000000
00000000
00001003
00000000
,  // measure 26
00002000
00000000
00000000
00000010
00000000
00000000
00003010
00010000
00002000
00000000
00000000
00100000
00000000
00000000
00103000
00010000
,  // measure 27
20000000
00000000
00000000
00100000
00000000
00000000
00100000
00000000
30020000
00000000
00000000
00130000
00000000
00100000
01000000
10000000
,  // measure 28
00200000
00000000
00000000
01300000
00000000
00100000
00010000
00000000
00002000
00000000
00000000
00013000
00000000
00001000
00000010
00000000
,  // measure 29
00000200
00000000
00000000
00000010
00000000
00000000
00001300
00000000
00000002
00000000
00000000
00000010
00000000
00000000
00001003
00000000
,  // measure 30
00001000
00000100
00000010
00000000
00000001
00000000
00001000
00000000
00000010
00000000
00000100
00001000
00000000
00010000
00100000
00000000
,  // measure 31
01000000
10000000
01000000
00000000
00010000
00000000
10000000
00000000
01000000
00000000
00010000
01000000
00000000
10000000
00010000
00000000
,  // measure 32
00010000
00100000
01000000
00000000
10000000
00000000
00010000
00000000
01000000
00000000
00100000
00010000
00000000
00001000
00000100
00000000
,  // measure 33
00000010
00000001
00000010
00000000
00001000
00000000
00000001
00000000
00000010
00000000
00001000
00000010
00000000
00000001
00001000
00000002
,  // measure 34
00000000
00000000
00000000
00000000
,  // measure 35
00000003
00000000
00000000
00000000
;
