#TITLE:Bewitched;
#SUBTITLE:(Eng Ver.);
#ARTIST:PIXY;
#TITLETRANSLIT:;
#SUBTITLETRANSLIT:;
#ARTISTTRANSLIT:;
#GENRE:K-Pop;
#CREDIT:;
#BANNER:Bewitched (Eng Ver.).png;
#BACKGROUND:Bewitched (Eng Ver.)-bg.png;
#LYRICSPATH:;
#CDTITLE:../cdtitle.png;
#MUSIC:Bewitched (Eng Ver.).ogg;
#OFFSET:-0.385000;
#SAMPLESTART:57.111000;
#SAMPLELENGTH:15.000000;
#SELECTABLE:YES;
#BPMS:0.000000=110.000000
;
#STOPS:
;
#BGCHANGES:3.000=Bewitched (Eng Ver.).avi=1.000=0=0=0=StretchNoLoop====,
99999=-nosongbg-=1.000=0=0=0 // don't automatically add -songbackground-
;
#KEYSOUNDS:;
#ATTACKS:;

//---------------dance-single - ----------------
#NOTES:
     dance-single:
     :
     Hard:
     11:
     0.391316,0.528053,0.166644,0.312458,0.286420,263.000000,247.000000,16.000000,30.000000,0.000000,0.000000,0.391316,0.528053,0.166644,0.312458,0.286420,263.000000,247.000000,16.000000,30.000000,0.000000,0.000000:
// measure 0
0000
0000
0000
0000
,  // measure 1
0000
0000
0000
0000
,  // measure 2
0000
0000
0000
0000
,  // measure 3
0000
0000
0000
0000
,  // measure 4
0000
0000
0000
0000
,  // measure 5
0000
0000
0000
0000
,  // measure 6
0000
0000
0000
0000
,  // measure 7
0000
0000
0000
0000
,  // measure 8
0000
0000
0000
0000
,  // measure 9
2001
0000
0000
0000
3100
0100
0000
0001
,  // measure 10
0200
0000
0000
0000
0000
0000
0000
0000
1300
0000
0001
0000
0100
0000
0010
0100
,  // measure 11
0020
0000
0000
0000
0130
0000
0001
0000
1000
0000
0000
1000
0000
0000
0100
0000
,  // measure 12
0000
0100
0000
0000
0010
0000
0002
0000
0010
0000
1003
0000
0100
0000
1000
0001
,  // measure 13
2000
0000
0000
0000
0000
0000
0000
0000
0000
0000
0000
0000
3010
0000
0000
0100
0000
0000
0100
0000
0100
0000
0001
0000
,  // measure 14
1000
0010
1000
0001
0000
0010
0100
0000
1000
0002
0000
0000
,  // measure 15
1003
0000
0001
0002
0103
0010
2000
0000
,  // measure 16
3200
0000
0000
0000
0000
0000
0000
0000
1300
0000
0000
0000
0001
0010
0100
1000
,  // measure 17
0002
0000
0000
0000
0013
0100
0010
0100
0010
0000
0001
0000
1000
0010
1000
0000
,  // measure 18
0020
0000
0000
0130
0000
0000
0100
0000
0010
0000
1000
0000
0001
0000
0000
0000
,  // measure 19
2001
0000
0000
0000
3100
0010
0100
0010
0100
0000
1000
0001
0100
0000
1000
0000
,  // measure 20
0200
0000
0000
0310
0000
0000
0020
0000
0230
0000
0302
0000
1003
0000
0001
0000
,  // measure 21
0010
0100
0010
0010
0100
0000
0110
0001
,  // measure 22
0100
0000
0010
0000
0100
0000
0100
0000
0010
0000
0000
0000
0110
0100
0010
0000
,  // measure 23
1000
0001
0010
0000
0100
1000
0001
0000
0010
0001
0100
0001
1000
0100
0010
0001
,  // measure 24
0200
0010
0010
0010
,  // measure 25
0010
0010
0020
0330
,  // measure 26
1001
0000
0000
0000
0101
0000
0000
0000
1100
0000
0000
0000
0001
0000
0100
0001
,  // measure 27
0000
0001
0000
0000
1000
0000
0100
1000
0000
1000
0000
1000
0010
0100
0000
0100
,  // measure 28
0010
0000
0000
0000
1010
0000
0000
0000
0011
0000
0000
0000
1000
0000
0100
1000
,  // measure 29
0000
1000
0000
0000
0001
0000
0100
0001
0000
0001
0000
0001
0100
0010
1000
0001
,  // measure 30
0100
0000
0000
0000
1001
0000
0001
0010
0000
0002
0000
0003
0101
0000
0010
0000
,  // measure 31
1000
0002
0023
0230
1300
0000
1000
0001
,  // measure 32
1000
0010
0001
0010
1000
0100
1000
0001
,  // measure 33
1000
0000
0100
0000
0001
0000
0100
0000
1000
0000
0010
1000
0001
0000
0010
0100
,  // measure 34
2000
0000
3000
0000
1001
0000
0001
0000
0010
0000
0001
0000
0100
0000
0001
1000
,  // measure 35
0100
1000
0010
1000
0100
0010
0001
1001
,  // measure 36
0100
0000
1010
0001
0010
0100
0010
0001
,  // measure 37
2000
0000
0000
3020
0000
0000
0032
0000
0000
0203
0000
0000
1300
0000
0000
0000
,  // measure 38
0001
0000
1000
0010
1000
0000
0001
0010
0002
0000
0000
0000
0103
0000
0000
0000
,  // measure 39
0001
0000
1000
0100
1000
0000
0001
0100
0002
0000
0000
0000
0103
0010
1000
0000
,  // measure 40
0001
0010
0110
0001
0100
0001
1000
0100
,  // measure 41
0010
0000
0001
0000
0101
0000
0010
0000
1000
0000
0100
0010
0100
0000
1000
0001
,  // measure 42
2000
3000
0000
0000
;

//---------------dance-single - ----------------
#NOTES:
     dance-single:
     :
     Medium:
     7:
     0.249966,0.330033,0.145814,0.187475,0.010415,168.000000,154.000000,14.000000,18.000000,0.000000,0.000000,0.249966,0.330033,0.145814,0.187475,0.010415,168.000000,154.000000,14.000000,18.000000,0.000000,0.000000:
0000
0000
0000
0000
,
0000
0000
0000
0000
,
0000
0000
0000
0000
,
0000
0000
0000
0000
,
0000
0000
0000
0000
,
0000
0000
0000
0000
,
0000
0000
0000
0000
,
0000
0000
0000
0000
,
0000
0000
0000
0000
,
2001
0000
0000
0000
3100
0100
0000
1000
,
0020
0000
0000
0000
0130
0001
1000
0000
,
0002
0000
0023
0000
,
0100
0000
0000
0000
0031
0100
0010
0000
,
2000
0000
0000
0000
3100
0010
0100
0000
,
1000
0001
0100
0000
0100
0000
0002
0000
,
2003
0000
3200
0000
,
0020
0000
0330
0000
,
2001
0000
3001
0010
0001
0000
0001
0100
,
0002
0010
0100
1003
,
1001
0000
1000
0100
1000
0000
1000
0010
,
2000
0100
0010
3001
,
1000
0100
0001
0100
1000
0000
1100
0000
,
0001
0100
1000
0100
0001
0000
0101
0000
,
0001
0010
0001
0000
0100
0010
0100
0010
,
0200
0000
0010
0000
,
0010
0000
0020
0330
,
1000
0000
0011
0000
1100
0000
1000
0001
,
0100
0000
0001
0010
0100
0000
0010
0000
,
0001
0000
1100
0000
0011
0000
0001
1000
,
0010
0000
1000
0100
0010
0000
0200
0000
,
1300
1001
0001
1000
,
0010
0200
0010
0000
0310
0000
1000
0000
,
0001
0010
0100
0000
1000
0000
0001
0000
,
1000
0010
0100
0000
0001
0000
1000
0001
,
1000
2100
0001
0100
,
0010
0000
0100
0000
3001
0000
0100
0010
,
1000
1001
0001
0010
,
0100
0000
0000
0100
0000
0000
1000
0000
0000
1000
0000
0000
0001
0000
0000
0000
,
1000
0100
0010
0001
1000
0000
1100
0000
,
0001
0100
0010
1000
0001
0000
0101
0000
,
0001
0010
0100
0010
0000
0010
1000
0010
,
0001
0100
0010
0100
0000
0100
1000
0100
,
0002
0003
0000
0000
;

//---------------dance-single - ----------------
#NOTES:
     dance-single:
     :
     Easy:
     4:
     0.156229,0.242025,0.104153,0.197890,0.000000,105.000000,95.000000,10.000000,19.000000,0.000000,0.000000,0.156229,0.242025,0.104153,0.197890,0.000000,105.000000,95.000000,10.000000,19.000000,0.000000,0.000000:
0000
0000
0000
0000
,
0000
0000
0000
0000
,
0000
0000
0000
0000
,
0000
0000
0000
0000
,
0000
0000
0000
0000
,
0000
0000
0000
0000
,
0000
0000
0000
0000
,
0000
0000
0000
0000
,
0000
0000
0000
0000
,
2001
0000
3100
0000
,
0002
0000
0103
0000
,
2000
0000
3020
0000
,
0100
0000
2000
3030
,
0002
0000
0013
0000
,
0100
0100
0100
0000
,
2000
0000
0001
0000
,
3020
0000
0130
0000
,
1002
0010
0010
0010
,
0010
0000
0100
1003
,
2001
0100
0100
0100
,
0010
0000
0100
3001
,
0001
0100
1000
0000
,
1000
0100
0001
0000
,
1000
1000
0001
0100
,
0020
0000
0000
0000
,
0000
0000
0000
0030
,
0100
0001
1100
0000
,
0110
0000
0110
1000
,
0010
1000
0011
0000
,
0110
0000
0110
0002
,
0103
0001
1000
0100
,
1000
0002
1003
1000
,
0001
0100
0000
0100
,
1000
0100
0000
0001
,
1000
1000
0001
0001
,
1000
0001
0100
0220
,
0330
0001
0010
0010
,
0200
2300
0002
3003
,
1000
0010
0001
0000
,
0001
0010
1000
0000
,
0001
0010
0000
0010
,
1000
0010
0000
0001
,
2000
3000
0000
0000
;

//---------------dance-single - ----------------
#NOTES:
     dance-single:
     :
     Beginner:
     1:
     0.055052,0.109360,0.031246,0.010415,0.000000,37.000000,34.000000,3.000000,1.000000,0.000000,0.000000,0.055052,0.109360,0.031246,0.010415,0.000000,37.000000,34.000000,3.000000,1.000000,0.000000,0.000000:
0000
0000
0000
0000
,
0000
0000
0000
0000
,
0000
0000
0000
0000
,
0000
0000
0000
0000
,
0000
0000
0000
0000
,
0000
0000
0000
0000
,
0000
0000
0000
0000
,
0000
0000
0000
0000
,
0000
0000
0000
0000
,
1001
0000
0000
0000
,
0100
0000
0000
0000
,
0010
0000
0000
0000
,
0000
0000
0000
0000
,
1000
0000
0000
0000
,
0001
0000
0000
0000
,
1000
0000
0000
0000
,
0000
0000
0000
0000
,
0010
0000
0010
0000
,
0010
0000
0000
0000
,
0001
0000
0001
0000
,
0001
0000
0000
0000
,
0100
0000
0000
0000
,
0100
0000
0000
0000
,
1000
0000
0001
0000
,
2000
0000
0000
0000
,
0000
0000
3000
0000
,
1001
0000
0000
0000
,
0001
0000
0000
0000
,
1001
0000
0000
0000
,
1000
0000
0000
0000
,
0010
0000
0000
0000
,
0010
0000
0000
0000
,
0100
0000
0000
0000
,
0001
0000
0000
0000
,
1000
0000
0000
0000
,
0100
0000
0000
0000
,
0010
0000
0000
0000
,
0001
0000
0000
0000
,
0010
0000
0000
0000
,
0010
0000
0000
0000
,
0100
0000
0000
0000
,
1000
0000
0000
0000
,
0001
0000
0000
0000
;

//---------------dance-double - ----------------
#NOTES:
     dance-double:
     :
     Easy:
     4:
     0.151765,0.220022,0.114568,0.166644,0.000000,102.000000,91.000000,11.000000,16.000000,0.000000,0.000000,0.151765,0.220022,0.114568,0.166644,0.000000,102.000000,91.000000,11.000000,16.000000,0.000000,0.000000:
00000000
00000000
00000000
00000000
,
00000000
00000000
00000000
00000000
,
00000000
00000000
00000000
00000000
,
00000000
00000000
00000000
00000000
,
00000000
00000000
00000000
00000000
,
00000000
00000000
00000000
00000000
,
00000000
00000000
00000000
00000000
,
00000000
00000000
00000000
00000000
,
00000000
00000000
00000000
00000000
,
00021000
00000000
00031000
00000000
,
00000020
00000000
00001030
00000000
,
00020000
00000000
00030200
00000000
,
00000010
00000000
00002000
00003300
,
00000002
00000000
00000103
00000000
,
00000010
00000010
00000010
00000000
,
00002000
00000000
00000100
00000000
,
00003020
00000000
00010030
00000000
,
00012000
00010000
00010000
00000000
,
00010000
00000000
00010000
00003000
,
00021000
00001000
00001000
00000000
,
00001000
00000000
00001000
00030000
,
00010000
01000000
10000000
00000000
,
10000000
00100000
00010000
00000000
,
00001000
00001000
00000100
00000100
,
00000002
00000000
00000000
00000000
,
00000000
00000000
00000000
00000003
,
00001000
00000100
00000110
00000000
,
00001010
00000000
00011000
00000000
,
00010000
00100000
01100000
00000000
,
01010000
00000000
00011000
00020000
,
00031000
00001000
00010000
00000100
,
00001000
00000002
00000103
00000100
,
00000010
00010000
00001000
00000000
,
01000000
00001000
00010000
00000000
,
00001000
00001000
00010000
00010000
,
00001000
00100000
01000000
22000000
,
33000000
00010000
01000000
01000000
,
00001000
00100000
00001000
00011000
,
00100000
00100000
00100000
00000000
,
01000000
01000000
01000000
00000000
,
00100000
00001000
00010000
00000000
,
00000100
00010000
00001000
00000000
,
00020000
00030000
00000000
00000000
;

//---------------dance-double - ----------------
#NOTES:
     dance-double:
     :
     Medium:
     7:
     0.232111,0.308031,0.145814,0.187475,0.010415,156.000000,142.000000,14.000000,18.000000,0.000000,0.000000,0.232111,0.308031,0.145814,0.187475,0.010415,156.000000,142.000000,14.000000,18.000000,0.000000,0.000000:
00000000
00000000
00000000
00000000
,
00000000
00000000
00000000
00000000
,
00000000
00000000
00000000
00000000
,
00000000
00000000
00000000
00000000
,
00000000
00000000
00000000
00000000
,
00000000
00000000
00000000
00000000
,
00000000
00000000
00000000
00000000
,
00000000
00000000
00000000
00000000
,
00000000
00000000
00000000
00000000
,
20010000
00000000
00000000
00000000
31000000
01000000
00000000
00100000
,
00020000
00000000
00000000
00000000
01030000
00001000
00010000
00000000
,
00002000
00000000
00023000
00000000
,
00000100
00000000
00000000
00000000
00030010
00001000
00000001
00000000
,
00002000
00000000
00000000
00000000
00003100
00000010
00000100
00000000
,
00010000
00001000
00010000
00000000
00001000
00000000
00020000
00000000
,
02030000
00000000
23000000
00000000
,
00020000
00000000
30030000
00000000
,
20010000
00000000
30010000
00100000
00010000
00000000
10000000
00000000
,
00200000
00300000
01000000
00001000
,
00011000
00000000
00001000
00010000
00001000
00000000
00010000
00000000
,
00000200
00000300
00000010
00000010
,
00000001
00001000
00000001
00000000
00000100
00000000
00001010
00000000
,
00010000
00001000
00010000
00000000
01000000
00000000
10010000
00000000
,
00010000
00100000
00010000
00000000
00010000
01000000
00001000
00000000
,
00020000
00000000
00001000
00000000
,
00001000
00000000
00002000
00033000
,
00010000
00000000
00001100
00000000
00011000
00000000
00000010
00001000
,
00000001
00000000
00000001
00001000
00000100
00000000
00010000
00000000
,
00001000
00000000
00110000
00000000
00011000
00000000
01000000
00010000
,
10000000
00000000
10000000
00010000
00100000
00000000
00002000
00000000
,
00013000
00011000
00000100
00010000
,
00001000
00020000
00001000
00000000
00030010
00000000
00001000
00000000
,
00000001
00000010
00000100
00000000
00001000
00000000
00000010
00000000
,
00000100
00001000
00010000
00000000
01000000
00000000
00010000
00001000
,
00010000
00021000
00000100
00001000
,
00000010
00000000
00001000
00000000
00030100
00000000
00010000
00001000
,
01000000
10010000
00010000
00100000
,
01000000
00000000
00000000
01000000
00000000
00000000
10000000
00000000
00000000
10000000
00000000
00000000
00010000
00000000
00000000
00000000
,
00100000
00010000
00100000
00000000
00001000
00000000
00011000
00000000
,
01000000
00010000
01000000
00000000
00100000
00000000
10010000
00000000
,
10000000
01000000
00100000
00000000
00010000
00000000
01000000
00000000
,
00100000
00010000
00001000
00000000
00000010
00000000
00001000
00010000
,
00002000
00003000
00000000
00000000
;

//---------------dance-double - ----------------
#NOTES:
     dance-double:
     :
     Hard:
     11:
     0.388340,0.506051,0.177059,0.312458,0.276004,261.000000,244.000000,17.000000,30.000000,0.000000,0.000000,0.388340,0.506051,0.177059,0.312458,0.276004,261.000000,244.000000,17.000000,30.000000,0.000000,0.000000:
00000000
00000000
00000000
00000000
,
00000000
00000000
00000000
00000000
,
00000000
00000000
00000000
00000000
,
00000000
00000000
00000000
00000000
,
00000000
00000000
00000000
00000000
,
00000000
00000000
00000000
00000000
,
00000000
00000000
00000000
00000000
,
00000000
00000000
00000000
00000000
,
00000000
00000000
00000000
00000000
,
00210000
00000000
00000000
00000000
00301000
00010000
00000000
00000010
,
00002000
00000000
00000000
00000000
00000000
00000000
00000000
00000000
00003001
00000000
00000010
00000000
00000100
00000000
00001000
00000001
,
00002000
00000000
00000000
00000000
00003100
00000000
00010000
00000000
00001000
00000000
00000000
00001000
00000000
00000000
01000000
00000000
,
00000000
01000000
00000000
00000000
00100000
00000000
20000000
00000000
31000000
00000000
00100000
00000000
00010000
00000000
10000000
00010000
,
20000000
00000000
00000000
00000000
00000000
00000000
00000000
00000000
00000000
00000000
00000000
00000000
31000000
00000000
00000000
00010000
00000000
00000000
00001000
00000000
00001000
00000000
00001000
00000000
,
00010000
00000100
00001000
00000001
00000000
00000001
00000100
00000000
00000100
00000020
00000000
00000000
,
00001030
00000000
00000001
00000002
00000013
00001000
00020000
00000000
,
00032000
00000000
00000000
00000000
00000000
00000000
00000000
00000000
00013000
00000000
00000000
00000000
01000000
00100000
01000000
00100000
,
00020000
00000000
00000000
00000000
10030000
00010000
01000000
00000000
00100000
00000000
10000000
00000000
00010000
00100000
00010000
00000000
,
02000000
00000000
00000000
03001000
00000000
00000000
00001000
00000000
00010000
00000000
00000100
00000000
00001000
00000000
00000000
00000000
,
00001002
00000000
00000000
00000000
00000103
00000010
00000100
00000010
00001000
00000000
00000001
00001000
00000100
00000000
00000010
00000000
,
00000002
00000000
00000000
00000013
00000000
00000000
00000020
00000000
00000230
00000000
00002300
00000000
00003001
00000000
00000000
00000000
,
00000001
00000100
00001000
00010000
00001000
00000000
00011000
00010000
,
00001000
00010000
01000000
10000000
00010000
00000000
10010000
00100000
,
10000000
00010000
01000000
00000000
00010000
10000000
01000000
00000000
00100000
00010000
00100000
00010000
01000000
00010000
01000000
00001000
,
00020000
00001000
00001000
00001000
,
00001000
00001000
00002000
00033000
,
00110000
00000000
00000000
00000000
00011000
00000000
00000000
00000000
01010000
00000000
00000000
00000000
00100000
00000000
10000000
01000000
,
00000000
01000000
00000000
00000000
00100000
00000000
00010000
01000000
00000000
01000000
00000000
01000000
00001000
00010000
00000000
00010000
,
00001000
00000000
00000000
00000000
00011000
00000000
00000000
00000000
00001010
00000000
00000000
00000000
00000100
00000000
00000001
00000010
,
00000000
00000010
00000000
00000000
00000100
00000000
00001000
00000010
00000000
00000010
00000000
00000010
00010000
00001000
00010000
00001000
,
00010000
00000000
00000000
00000000
00011000
00000000
00001000
00100000
00000000
00020000
00000000
00030000
01010000
00000000
00100000
00000000
,
10000000
00020000
00230000
02300000
13000000
00000000
10010000
00010000
,
10000000
00100000
00010000
00100000
01000000
00010000
00100000
00001000
,
00010000
00000000
00000100
00000000
00000001
00000000
00000100
00000000
00001000
00000000
00000010
00001000
00000001
00000000
00000010
00000100
,
00002000
00000000
00003000
00000000
00001001
00000000
00000010
00000000
00010000
00000000
00000010
00000000
00001000
00000000
00000100
00010000
,
00001000
01000000
00001000
00010000
00001000
00100000
00010000
10010000
,
01000000
00000000
10100000
00010000
00100000
01000000
00100000
00010000
,
20000000
00000000
00000000
30200000
00000000
00000000
00320000
00000000
00000000
00032000
00000000
00000000
00013000
00000000
00000000
00000000
,
00000100
00000000
00010000
00001000
00010000
00000000
00000010
00001000
00000020
00000000
00000000
00000000
00000130
00000000
00000000
00000000
,
00001000
00000000
01000000
00010000
01000000
00000000
00001000
00010000
00002000
00000000
00000000
00000000
00103000
01000000
10000000
00000000
,
00010000
00100000
01100000
00010000
01000000
00001000
00010000
00000100
,
00001000
00000000
00000010
00000000
00000110
00000000
00000001
00000000
00001000
00000000
00000100
00001000
00000100
00000000
00010000
00001000
,
00020000
00030000
00000000
00000000
;
