#TITLE:紅牡丹;
#SUBTITLE:;
#ARTIST:DJ NAGAI feat. a☆ru;
#TITLETRANSLIT:Benibotan;
#SUBTITLETRANSLIT:;
#ARTISTTRANSLIT:;
#GENRE:BEMANI;
#CREDIT:;
#BANNER:Benibotan.png;
#BACKGROUND:Benibotan-bg.png;
#LYRICSPATH:;
#CDTITLE:../cdtitle.png;
#MUSIC:Benibotan.ogg;
#OFFSET:0.283000;
#SAMPLESTART:38.168999;
#SAMPLELENGTH:15.000000;
#SELECTABLE:YES;
#BPMS:0.000000=181.000000
;
#STOPS:
;
#BGCHANGES:0.500=Benibotan.avi=1.000=0=0=0=StretchNoLoop====,
99999=-nosongbg-=1.000=0=0=0 // don't automatically add -songbackground-
;
#KEYSOUNDS:;
#ATTACKS:;

//---------------dance-single - ----------------
#NOTES:
     dance-single:
     :
     Hard:
     13:
     0.646258,0.676397,0.238095,0.256410,0.009158,494.000000,468.000000,26.000000,28.000000,0.000000,0.000000,0.646258,0.676397,0.238095,0.256410,0.009158,494.000000,468.000000,26.000000,28.000000,0.000000,0.000000:
0000
0000
0000
0000
,
0000
0000
0000
0000
,
0000
0000
0000
0000
,
0000
0000
0000
0000
,
1000
0100
0001
0010
1000
0000
1001
0000
,
1000
0100
0010
0100
0001
0100
0010
0100
,
1000
0001
0001
1000
1000
0001
1001
0000
,
0001
0100
0010
0100
1000
0100
0010
0100
,
0001
1000
1000
0001
0001
1000
1001
0000
,
1000
0100
0001
0100
1000
0010
0001
0010
,
1000
0001
0001
1000
1000
0001
1001
0000
,
1000
0100
0001
0100
0010
0001
0100
0010
,
1000
0100
0001
0010
1000
0000
1001
0000
,
0100
0000
0100
0010
0001
0000
0001
1000
,
0010
0000
0010
0100
0001
0000
0001
0000
,
1000
0000
0100
1000
0001
1000
0010
1000
,
0001
0010
0100
1000
0001
0000
1001
0000
,
0010
0000
0010
0100
0001
0000
0001
1000
,
0100
0000
0100
0010
0001
0000
0001
0000
,
0100
0000
0010
0100
0010
1000
0100
0010
,
0001
1000
0010
1000
0020
0000
0030
0000
,
0100
0001
0100
0010
1000
0001
0001
0000
,
0010
0001
0010
0100
1000
0001
0001
0000
,
0100
0000
0010
0000
1000
0000
0001
2000
,
0000
3100
1000
0001
0100
0000
0200
0000
,
0310
1000
0010
0100
0001
1000
1000
0000
,
0100
1000
0100
0010
0001
1000
1000
0000
,
0001
0100
0010
1000
0100
0010
0001
0100
,
0010
0000
0000
1000
0000
0000
0001
0000
1001
0000
0000
0000
0000
0000
0000
0000
,
1000
0100
0010
0001
1000
0000
1000
0100
,
0010
0001
1000
0001
0100
0001
1000
0100
,
0010
0000
0001
0000
1000
0100
1000
0010
,
0000
0100
0001
0100
0001
0000
0000
0000
,
0001
0100
0010
1000
0001
0000
0001
0100
,
0010
1000
0001
1000
0100
1000
0001
0100
,
0020
0000
0031
0020
0000
1030
0100
0000
,
1000
0100
0001
0010
1000
0000
1001
0000
,
0001
0010
0100
1000
0001
0010
0100
1000
,
0001
0100
0010
1000
0001
0100
0010
1000
,
0001
0010
0100
1000
0001
0010
0100
1000
,
0001
0000
0000
1000
0000
0000
1001
0000
0000
0000
0100
0000
0010
0000
0000
0000
,
1000
0010
0100
0001
1000
0010
0100
0001
,
1000
0100
0010
0001
0100
0010
1000
0100
,
0020
0000
0030
2002
0000
0000
3003
0100
,
2200
0000
3300
0220
0000
0330
0110
0000
,
0001
0010
0100
0010
1000
0010
0100
0010
,
0001
1000
1000
0001
0001
1000
1001
0000
,
1000
0010
0100
0010
0001
0010
0100
0010
,
1000
0001
0001
1000
1000
0001
1001
0000
,
0001
0010
1000
0010
0001
0100
1000
0100
,
0001
1000
1000
0001
0001
1000
1001
0001
,
1001
0000
0100
0101
0000
0010
1000
0100
,
1100
0000
0000
1001
0000
0000
1001
0000
,
0020
0000
0000
0000
,
0230
0010
0320
0000
,
0032
0203
2300
0000
,
3200
0320
2030
0100
,
3200
0320
0031
0000
,
1000
1000
0100
0100
,
0001
0000
0001
0000
0010
0000
0010
1000
,
0002
0000
0013
0200
0000
1300
0001
0000
,
1000
0010
0001
0100
1000
0000
0002
0000
,
1003
0100
0010
0001
1000
0001
1000
0100
,
0010
0001
1000
0001
0100
0001
1000
0100
,
0010
0001
0100
0001
1000
0100
1000
0010
,
0000
0100
0001
0100
0001
0000
0100
0000
,
0001
0100
0010
1000
0001
1000
0001
0100
,
0010
1000
0001
1000
0100
1000
0001
0100
,
0020
0000
0031
0020
0000
1030
0100
0000
,
1000
0100
0001
0010
1000
0000
1001
0000
,
1000
0100
0010
0100
0001
0100
0010
0100
,
1000
0001
0001
1000
1000
0001
1001
0000
,
0001
0100
0010
0100
1000
0100
0010
0100
,
0001
1000
1000
0001
0001
1000
1001
0000
,
1000
0100
0001
0100
1000
0010
0001
0010
,
1000
0001
0001
1000
1000
0001
1001
0000
,
1000
0100
0001
0100
0010
0001
0100
0010
,
1000
0100
0001
0010
1000
0000
1001
0000
;

//---------------dance-double - ----------------
#NOTES:
     dance-double:
     :
     Hard:
     13:
     0.620094,0.640797,0.155678,0.238095,0.009158,474.000000,457.000000,17.000000,26.000000,0.000000,0.000000,0.620094,0.640797,0.155678,0.238095,0.009158,474.000000,457.000000,17.000000,26.000000,0.000000,0.000000:
// measure 0
00000000
00000000
00000000
00000000
,  // measure 1
00000000
00000000
00000000
00000000
,  // measure 2
00000000
00000000
00000000
00000000
,  // measure 3
00000000
00000000
00000000
00000000
,  // measure 4
00010000
00001000
00000100
00000010
00000001
00000000
00001001
00000000
,  // measure 5
00000001
00000100
00000010
00000100
00001000
00000100
00000010
00000100
,  // measure 6
00000001
00000010
00000010
00000100
00000100
00000010
00000001
00000000
,  // measure 7
00000100
00000001
00000100
00000010
00000100
00001000
00000100
00000010
,  // measure 8
00010000
00001000
00001000
00100000
00100000
00010000
10000000
00000000
,  // measure 9
01000000
00010000
00001000
00010000
00100000
10000000
00100000
00010000
,  // measure 10
00001000
00100000
00100000
01000000
01000000
10000000
00010000
00000000
,  // measure 11
10000000
00100000
01000000
00001000
00010000
00000100
00001000
00000010
,  // measure 12
00000100
00000001
00000010
00000100
00001000
00000000
00001001
00000000
,  // measure 13
00000100
00000000
00000100
00000001
00001000
00000000
00001000
00000001
,  // measure 14
00000010
00000000
00000010
00001000
00010000
00000000
01000000
00000000
,  // measure 15
10000000
00000000
10000000
01000000
00010000
01000000
00100000
00001000
,  // measure 16
00010000
00001000
01000000
00100000
10000000
00000000
10010000
00000000
,  // measure 17
01000000
00000000
01000000
10000000
00010000
00000000
00010000
10000000
,  // measure 18
00100000
00000000
00100000
00010000
00001000
00000000
00000100
00000000
,  // measure 19
00000001
00000000
00000001
00000100
00000010
00010000
00001000
00100000
,  // measure 20
00010000
10000000
01000000
10000000
00020000
00000000
00030000
00000000
,  // measure 21
10000000
00010000
01000000
00100000
20000000
00000000
30000000
00000000
,  // measure 22
00010000
10000000
01000000
00100000
00020000
00000000
00030000
00000000
,  // measure 23
00010000
00000000
10000000
00000000
00100000
00000000
00010000
00002000
,  // measure 24
00000000
00003100
00000010
00000100
00000010
00000000
00000200
00000000
,  // measure 25
00000301
00001000
00000100
00000010
00000002
00000000
00000003
00000000
,  // measure 26
00001000
00000001
00000100
00000010
00002000
00000000
00003001
00000010
,  // measure 27
00000100
00001000
00000010
00010000
00001000
00100000
00010000
01000000
,  // measure 28
00100000
00000000
00000000
10000000
00000000
00000000
00010000
00000000
10010000
00000000
00000000
00000000
00000000
00000000
00000000
00000000
,  // measure 29
10000000
01000000
00100000
00010000
10000000
00000000
10000000
01000000
,  // measure 30
00100000
00001000
00010000
00000010
00001000
00000001
00000010
00000100
,  // measure 31
00001000
00000000
00000001
00000000
00001000
00000010
00001000
00000100
,  // measure 32
00000000
00000010
00000001
00000010
00000001
00000000
00000000
00000000
,  // measure 33
00000001
00000100
00000010
00001000
00000001
00000000
00000001
00000100
,  // measure 34
00000010
00010000
00001000
00100000
00010000
10000000
00100000
01000000
,  // measure 35
20000000
00000000
31000000
00020000
00000000
10030000
01000000
00000000
,  // measure 36
00100000
00010000
01000000
00100000
10000000
00000000
10010000
00000000
,  // measure 37
10000000
01000000
00100000
00010000
10000000
01000000
00100000
00010000
,  // measure 38
10000000
00100000
01000000
00010000
10000000
00100000
01000000
00010000
,  // measure 39
10000000
01000000
00100000
00001000
00010000
00000100
00000010
00000001
,  // measure 40
00001000
00000000
00000000
00000001
00000000
00000000
00001001
00000000
00000000
00000000
00000010
00000000
00000100
00000000
00000000
00000000
,  // measure 41
00000001
00000100
00000010
00001000
00000001
00000100
00000010
00001000
,  // measure 42
00000001
00000010
00000100
00010000
00001000
01000000
00100000
10000000
,  // measure 43
00020000
00000000
00030000
02020000
00000000
00000000
03030000
00100000
,  // measure 44
20200000
00000000
30300000
02200000
00000000
03300000
01100000
00000000
,  // measure 45
10000000
01000000
00100000
01000000
00010000
01000000
00100000
01000000
,  // measure 46
10000000
00100000
00100000
01000000
01000000
00100000
10000000
00000000
,  // measure 47
01000000
10000000
01000000
00100000
01000000
00010000
01000000
00100000
,  // measure 48
00001000
00010000
00010000
00000010
00000010
00001000
00000001
00000000
,  // measure 49
00000100
00000100
00001000
00001000
00010000
00010000
00001000
00001000
,  // measure 50
00000010
00000001
00000010
00001000
00010000
00000010
00000100
00000001
,  // measure 51
00001001
00000000
00000100
00001100
00000000
00010000
00001000
01000000
,  // measure 52
01010000
00000000
00000000
10010000
00000000
00000000
10010000
00000000
,  // measure 53
02000000
00000000
00000000
00000000
,  // measure 54
23000000
00000000
30020000
00000000
,  // measure 55
10030000
00100000
00020000
00000000
,  // measure 56
00032000
00000000
00023000
00000000
,  // measure 57
00031000
00000010
00000001
00000000
,  // measure 58
00000100
00000100
00000001
00000001
,  // measure 59
00000010
00000000
00000010
00000000
00001000
00000000
00001000
00010000
,  // measure 60
00200000
00000000
10300000
00020000
00000000
00000000
01030000
00000000
,  // measure 61
10000000
01000000
00010000
00100000
10000000
00000000
00000000
00000000
,  // measure 62
10000000
01000000
00100000
00010000
10000000
00010000
10000000
01000000
,  // measure 63
00100000
00001000
00010000
00000010
00001000
00000001
00000010
00000100
,  // measure 64
00001000
00000001
00000100
00000001
00001000
00000010
00001000
00000100
,  // measure 65
00000000
00000010
00000001
00000010
00000001
00000000
00000100
00000000
,  // measure 66
00000001
00000100
00000010
00001000
00000001
00001000
00000001
00000100
,  // measure 67
00000010
00010000
00001000
00100000
00010000
10000000
00100000
01000000
,  // measure 68
20000000
00000000
31000000
00020000
00000000
10030000
01000000
00000000
,  // measure 69
00100000
00010000
01000000
00100000
10000000
00000000
10010000
00000000
,  // measure 70
10000000
00100000
01000000
00100000
00010000
00100000
01000000
00100000
,  // measure 71
10000000
01000000
01000000
00100000
00100000
01000000
10000000
00000000
,  // measure 72
00100000
10000000
00100000
01000000
00100000
00010000
00100000
01000000
,  // measure 73
00001000
00010000
00010000
00000100
00000100
00001000
00000001
00000000
,  // measure 74
00000010
00001000
00010000
00001000
00000100
00000001
00000100
00001000
,  // measure 75
00010000
00000100
00000100
00000010
00000010
00000001
00001000
00000000
,  // measure 76
00000001
00000100
00000010
00010000
00001000
00100000
00010000
01000000
,  // measure 77
00100000
10000000
01000000
00100000
00010000
00000000
10010000
00000000
;

//---------------dance-double - ----------------
#NOTES:
     dance-double:
     :
     Easy:
     6:
     0.306122,0.355998,0.109890,0.054945,0.000000,234.000000,222.000000,12.000000,6.000000,0.000000,0.000000,0.306122,0.355998,0.109890,0.054945,0.000000,234.000000,222.000000,12.000000,6.000000,0.000000,0.000000:
00000000
00000000
00000000
00000000
,
00000000
00000000
00000000
00000000
,
00000000
00000000
00000000
00000000
,
00000000
00000000
00000000
00000000
,
00001000
00000001
00001001
00000000
,
00001000
00000100
00000010
00000001
,
00001000
00000001
00001000
00000000
,
00000001
00000100
00000010
00001000
,
00000001
00001000
00000001
00000000
,
00001000
00000100
00010000
00001000
,
01000000
00010000
10000000
00000000
,
00010000
01000000
00100000
10000000
,
00010000
10000000
00010000
10010000
,
01000000
00000000
01000000
00000000
,
10000000
00000000
10000000
00000000
,
00100000
00000000
00100000
00000000
,
01000000
00001000
00010000
00000000
,
00000100
00000000
00000100
00000000
,
00001000
00000000
00001000
00000000
,
00000010
00000000
00000010
00000000
,
00000100
00000001
00001000
00000000
,
00000001
00000100
00001000
00000000
,
00001000
00000100
00000001
00000000
,
00000001
00000100
00001000
00000100
,
00001000
00010000
01000000
00000000
,
10000000
01000000
00010000
00000000
,
00010000
01000000
10000000
00000000
,
10000000
01000000
00010000
01000000
,
00010000
00001000
00011000
00000000
,
00010000
00000100
00010000
00001000
,
00010000
00000010
00010000
00000000
,
00001000
00000010
00000001
00000010
,
00000100
00000000
00010000
00000000
,
00001000
01000000
00001000
00010000
,
00001000
00100000
00001000
00000000
,
00020000
00000000
00230000
00000000
,
10300000
00010000
10010000
00000000
,
10000000
01000000
00100000
00000000
,
00010000
01000000
00100000
00000000
,
10000000
01000000
00100000
00000000
,
10010000
00000000
00000000
00000000
,
00001000
00000100
00000010
00000000
,
00000001
00000100
00000010
00010000
,
00001000
00000000
00011000
00000000
,
00100000
00000000
01100000
00000000
,
00010000
01000000
00100000
10000000
,
00010000
10000000
00010000
00000000
,
10000000
01000000
00100000
00010000
,
10000000
00010000
10000000
00000000
,
00010000
01000000
00001000
00010000
,
00000100
00001000
00000001
00001000
,
00000001
00000000
00001001
00000000
,
00000100
00000000
00000110
00000000
,
00000000
00000000
00000000
00000000
,
00000001
00000000
00000100
00000000
,
00001000
00000000
00000000
00000000
,
00010000
00000000
01000000
00000000
,
10000000
00000000
00000000
00000000
,
00010000
10000000
00010000
00000000
,
10000000
00010000
10000000
00000000
,
00200000
00000000
02300000
00000000
,
03001000
00010000
00011000
00000000
,
00001000
01000000
00001000
00010000
,
00001000
00100000
00001000
00010000
,
00100000
10000000
00100000
01000000
,
00001000
00001000
00010000
00000000
,
00010000
00000100
00010000
00001000
,
00010000
00000010
00010000
00001000
,
00002000
00000000
00003020
00000000
,
00000031
00001000
00001001
00000000
,
00001000
00000100
00000010
00000001
,
00001000
00000001
00001000
00000000
,
00000001
00000100
00000010
00001000
,
00000001
00001000
00000001
00000000
,
00001000
00000100
00010000
00001000
,
01000000
00010000
10000000
00000000
,
00010000
01000000
00100000
10000000
,
00010000
10000000
00010000
10010000
;

//---------------dance-double - ----------------
#NOTES:
     dance-double:
     :
     Medium:
     9:
     0.416013,0.462798,0.073260,0.137363,0.000000,318.000000,310.000000,8.000000,15.000000,0.000000,0.000000,0.416013,0.462798,0.073260,0.137363,0.000000,318.000000,310.000000,8.000000,15.000000,0.000000,0.000000:
00000000
00000000
00000000
00000000
,
00000000
00000000
00000000
00000000
,
00000000
00000000
00000000
00000000
,
00000000
00000000
00000000
00000000
,
01000000
00100000
01100000
00000000
,
10000000
00100000
10000000
00000000
00010000
00100000
00010000
00000000
,
01000000
00000000
01000000
00000000
00001000
00010000
00001000
00000000
,
00010000
00000100
00010000
00000000
00000010
00001000
00000010
00000000
,
00000100
00000000
00000001
00000000
00000100
00000001
00000010
00000000
,
00000001
00000010
00000001
00000000
00001000
00000010
00001000
00000000
,
00000100
00000000
00000100
00000000
00010000
00001000
00010000
00000000
,
00001000
01000000
00001000
00000000
00100000
00010000
00100000
00000000
,
01000000
10000000
00100000
01100000
,
00010000
01000000
00100000
00000000
,
10000000
01000000
00100000
00000000
,
00001000
00010000
00000010
00001000
,
00000100
00000010
00000001
00000000
,
00001000
00000100
00000010
00000000
,
00000001
00000100
00000010
00000000
,
00010000
00001000
00100000
00010000
,
01000000
00100000
10000000
00000000
,
10000000
00000000
01000000
00010000
01000000
00000000
00010000
00000000
,
00001000
00000000
00010000
00001000
00010000
00000000
00000000
00000000
,
00001000
00000000
00000010
00000000
00000001
00000000
00001000
00000100
,
00000000
00000100
00001000
00000000
00000001
00000000
00000000
00000000
,
00000001
00000000
00000100
00001000
00000100
00000000
00001000
00000000
,
00010000
00000000
00001000
00010000
00001000
00000000
00010000
00000000
,
00100000
10000000
00010000
00100000
,
01000000
10000000
10010000
00000000
,
00010000
00000000
01000000
10000000
01000000
00000000
00010000
00000000
,
10000000
00000000
01000000
00010000
01000000
00000000
00100000
00000000
,
00001000
00000000
00010000
00000000
00001000
00000000
00000100
00000001
,
00000000
00000001
00000100
00000000
00000010
00000000
00000000
00000000
,
00001000
00000000
00000100
00000001
00000100
00000000
00001000
00000000
,
00000001
00000000
00000100
00001000
00000100
00000000
00000010
00000000
,
00010000
00000000
00001000
00020000
00000000
00000000
02030000
00000000
,
13000000
00100000
01100000
00000000
,
10000000
01000000
00100000
00010000
,
10000000
00100000
01000000
00010000
,
00001000
00000100
00000010
00000001
,
00001001
00000000
00000000
00000000
,
00000001
00000100
00000010
00001000
,
00000001
00000010
00000100
00001000
,
00000002
00000000
00000000
00000203
00000000
00000000
00000310
00000000
,
00002000
00000000
00000000
00003200
00000000
00000000
00000310
00000000
,
00000001
00000010
00000001
00000000
00001000
00000010
00001000
00000000
,
00000100
00000000
00000100
00000000
00010000
00001000
00010000
00000000
,
00001000
01000000
00001000
00000000
00100000
00010000
00100000
00000000
,
01000000
00000000
10000000
00000000
01000000
10000000
00100000
00000000
,
10000000
00100000
10000000
00000000
00010000
00100000
00010000
00000000
,
01000000
00000000
01000000
00000000
00001000
00010000
00001000
00010000
,
00002000
00000000
00000000
00023000
00000000
00000000
01030000
00000000
,
00020000
00000000
00000000
00032000
00000000
00000000
00003100
00000000
,
00000020
00000000
00000000
00000000
,
00001030
00000000
00000001
00000000
,
00000100
00001000
00010000
00000000
,
00100000
00000000
10000000
00000000
,
01000000
00010000
00001000
00000000
,
00000010
00000001
00000100
00000000
,
00000010
00001000
00000100
00000000
,
00200000
00000000
00000000
00320000
00000000
00000000
01030000
00000000
,
00100000
10000000
10010000
00000000
,
00010000
00000000
01000000
10000000
01000000
00000000
00010000
00000000
,
10000000
00000000
01000000
00010000
01000000
00000000
00100000
00000000
,
00001000
00000000
00010000
00000000
00001000
00000000
00000100
00000001
,
00000000
00000001
00000100
00000000
00000010
00000000
00000010
00000000
,
00001000
00000000
00000100
00000001
00000100
00000000
00001000
00000000
,
00000001
00000000
00000100
00001000
00000100
00000000
00000010
00000000
,
00010000
00000000
00001000
00020000
00000000
00000000
02030000
00000000
,
13000000
00010000
10010000
00000000
,
10000000
00100000
10000000
00000000
00010000
00100000
00010000
00000000
,
01000000
00000000
01000000
00000000
00001000
00010000
00001000
00000000
,
00010000
00000100
00010000
00000000
00000010
00001000
00000010
00000000
,
00000100
00000000
00000001
00000000
00000100
00000001
00000010
00000000
,
00000001
00000010
00000001
00000000
00001000
00000010
00001000
00000000
,
00000100
00000000
00000100
00000000
00010000
00001000
00010000
00000000
,
00001000
01000000
00001000
00000000
00100000
00010000
00100000
00000000
,
01000000
10000000
00100000
01100000
;

//---------------dance-single - ----------------
#NOTES:
     dance-single:
     :
     Beginner:
     3:
     0.151753,0.249199,0.100733,0.000000,0.000000,116.000000,105.000000,11.000000,0.000000,0.000000,0.000000,0.151753,0.249199,0.100733,0.000000,0.000000,116.000000,105.000000,11.000000,0.000000,0.000000,0.000000:
0000
0000
0000
0000
,
0000
0000
0000
0000
,
0000
0000
0000
0000
,
0000
0000
0000
0000
,
1001
0000
0000
0000
,
1000
0000
1000
0000
,
1000
0000
0000
0000
,
0001
0000
0001
0000
,
0001
0000
0000
0000
,
0100
0000
0100
0000
,
0100
0000
0000
0000
,
0010
0000
0010
0000
,
0010
0000
0000
0000
,
1000
0000
0000
0000
,
1000
0000
0000
0000
,
0010
0000
0000
0000
,
0100
0000
0000
0000
,
0001
0000
0000
0000
,
0001
0000
0000
0000
,
0010
0000
0000
0000
,
0100
0000
0000
0000
,
1000
0000
0000
0000
,
0001
0000
0000
0000
,
1000
0000
0000
0000
,
0100
0000
0000
0000
,
0010
0000
0000
0000
,
0001
0000
0000
0000
,
1000
0000
0000
0000
,
1001
0000
0000
0000
,
0100
0100
0100
0000
,
0010
0010
0010
0000
,
1000
0000
0001
0000
,
1000
0000
1000
0000
,
0100
0100
0100
0000
,
0010
0010
0010
0000
,
0001
0000
1000
0000
,
1001
0000
0000
0000
,
0100
0000
0000
0000
,
0100
0000
0000
0000
,
0100
0000
0000
0000
,
0110
0000
0000
0000
,
0010
0000
0000
0000
,
0010
0000
0000
0000
,
0110
0000
0000
0000
,
1001
0000
0000
0000
,
0001
0000
0001
0000
,
0001
0000
0000
0000
,
1000
0000
1000
0000
,
1000
0000
0000
0000
,
0100
0000
0100
0000
,
0100
0000
0000
0000
,
0110
0000
0000
0000
,
1001
0000
0000
0000
,
0000
0000
0000
0000
,
0001
0000
0000
0000
,
0000
0000
0000
0000
,
0001
0000
0000
0000
,
0000
0000
0000
0000
,
0100
0000
0000
0000
,
0100
0000
0000
0000
,
0010
0000
0000
0000
,
1001
0000
0000
0000
,
0100
0100
0100
0000
,
0010
0010
0010
0000
,
0001
0000
1000
0000
,
0001
0000
0001
0000
,
0100
0100
0100
0000
,
0010
0010
0010
0000
,
1000
0000
0001
0000
,
1001
0000
0000
0000
,
1000
0000
1000
0000
,
1000
0000
0000
0000
,
0001
0000
0001
0000
,
0001
0000
0000
0000
,
0100
0000
0100
0000
,
0100
0000
0000
0000
,
0010
0000
0010
0000
,
0010
0000
0000
1001
;

//---------------dance-single - ----------------
#NOTES:
     dance-single:
     :
     Easy:
     6:
     0.306122,0.355998,0.109890,0.054945,0.000000,234.000000,222.000000,12.000000,6.000000,0.000000,0.000000,0.306122,0.355998,0.109890,0.054945,0.000000,234.000000,222.000000,12.000000,6.000000,0.000000,0.000000:
0000
0000
0000
0000
,
0000
0000
0000
0000
,
0000
0000
0000
0000
,
0000
0000
0000
0000
,
1000
0001
1001
0000
,
1000
0100
0010
0001
,
1000
0001
1000
0000
,
0001
0100
0010
1000
,
0001
1000
0001
0000
,
0100
0010
1000
0001
,
0010
0100
0010
0000
,
0100
0010
0001
1000
,
0010
0100
0001
1001
,
0100
0000
0100
0000
,
0010
0000
0010
0000
,
0100
0000
0100
0000
,
0010
0001
1000
0000
,
0010
0000
0010
0000
,
0100
0000
0100
0000
,
0010
0000
0010
0000
,
0100
0001
1000
0000
,
0100
0010
0001
0000
,
0100
0010
1000
0000
,
0100
0010
0001
0010
,
0100
1000
0001
0000
,
0100
0010
1000
0000
,
0100
0010
0001
0000
,
0100
0010
1000
0100
,
0010
0001
1001
0000
,
1000
0010
0001
0010
,
1000
0010
0001
0000
,
0010
1000
0100
0010
,
0001
0000
1000
0000
,
0001
0010
1000
0010
,
0001
0010
1000
0000
,
0020
0000
0230
0000
,
1300
0001
1001
0000
,
1000
0100
0001
0000
,
1000
0100
0001
0000
,
1000
0100
0001
0000
,
1001
0000
0000
0000
,
0001
0100
1000
0000
,
0001
0100
1000
0100
,
0001
0000
1001
0000
,
0010
0000
0110
0000
,
0001
0100
0010
1000
,
0001
1000
0001
0000
,
1000
0100
0010
0001
,
1000
0001
1000
0000
,
0100
0010
0001
1000
,
0010
0100
0010
0100
,
0001
0000
1001
0000
,
0010
0000
0110
0000
,
0000
0000
0000
0000
,
0100
0000
0010
0000
,
0001
0000
0000
0000
,
0100
0000
0010
0000
,
1000
0000
0000
0000
,
0001
1000
0001
0000
,
1000
0001
1000
0000
,
0002
0000
0023
0000
,
0130
1000
1001
0000
,
0001
0010
1000
0010
,
0001
0010
1000
0010
,
0001
0001
0100
0010
,
1000
1000
0001
0000
,
1000
0010
0001
0010
,
1000
0010
0001
0010
,
0020
0000
0230
0000
,
0301
1000
1001
0000
,
1000
0100
0010
0001
,
1000
0001
1000
0000
,
0001
0100
0010
1000
,
0001
1000
0001
0000
,
0100
0010
1000
0001
,
0010
0100
0010
0000
,
0100
0010
0001
1000
,
0010
0100
0001
1001
;

//---------------dance-single - ----------------
#NOTES:
     dance-single:
     :
     Medium:
     9:
     0.422554,0.498397,0.091575,0.146520,0.000000,323.000000,313.000000,10.000000,16.000000,0.000000,0.000000,0.422554,0.498397,0.091575,0.146520,0.000000,323.000000,313.000000,10.000000,16.000000,0.000000,0.000000:
0000
0000
0000
0000
,
0000
0000
0000
0000
,
0000
0000
0000
0000
,
0000
0000
0000
0000
,
0001
1000
1001
0000
,
1000
0010
1000
0000
0001
0010
0001
0000
,
0100
0000
0100
0000
0010
1000
0010
0000
,
1000
0100
1000
0000
0001
0100
0001
0000
,
0010
0000
0010
0000
0100
1000
0100
0000
,
0010
0001
1000
0000
0010
1000
0001
0000
,
0010
0000
0010
0000
0100
1000
0010
0000
,
0100
0001
1000
0000
0100
1000
0001
0000
,
0100
0010
1000
1001
,
0001
0100
0010
0000
,
1000
0100
0010
0000
,
0001
0100
1000
1000
,
0010
0010
0001
0000
,
1000
0100
0010
0000
,
0001
0100
0010
0000
,
1000
0100
0001
0001
,
0010
0010
1000
0000
,
1000
0000
0100
0010
0100
0000
0010
0000
,
0001
0000
0100
0010
0100
0000
0010
0000
,
1000
0000
0001
0000
0010
0000
0100
1000
,
0000
1000
0100
0000
0010
0000
0000
0000
,
0001
0000
0100
0010
0100
0000
0010
0000
,
1000
0000
0100
0010
0100
0000
0010
0000
,
0001
1000
0010
0100
,
0001
1000
1001
0000
,
1000
0000
0100
0001
0100
0000
1000
0000
,
0010
0000
0001
0010
0001
0000
0010
0000
,
1000
0000
0100
0000
0010
0000
0001
1000
,
0000
1000
0001
0000
0100
0000
0000
0000
,
0001
0000
0100
1000
0100
0000
0001
0000
,
0010
0000
1000
0010
1000
0000
0010
0000
,
0002
0000
0000
0203
0000
0000
0310
0000
,
1000
0001
1001
0000
,
1000
0100
0010
0001
,
1000
0100
0010
0001
,
1000
0010
0100
0001
,
1001
0000
0000
0000
,
0001
0010
0100
1000
,
0001
0100
0010
1000
,
0001
0000
0000
1000
0000
0000
1001
0000
,
0100
0000
0000
0010
0000
0000
0110
0000
,
1000
0100
1000
0000
0001
0100
0001
0000
,
0010
0000
0010
0000
0100
1000
0100
0000
,
1000
0010
1000
0000
0001
0010
0001
0000
,
0100
0000
0100
0000
0010
1000
0010
0000
,
0100
0001
1000
0000
0100
1000
0001
0000
,
0100
0001
1000
0000
0100
0010
0100
0010
,
0200
0000
0000
2300
0000
0000
3010
0000
,
0200
0000
0000
0302
0000
0000
0013
0000
,
0200
0000
0000
0000
,
2300
0000
3002
0000
,
1003
0010
0002
0000
,
2003
0000
3002
0000
,
1003
0100
0001
0000
,
1000
1000
0001
0001
,
1000
0000
1000
0000
0001
0000
0001
0100
,
0020
0000
0000
2030
0000
0000
3100
0000
,
0010
0001
1001
0000
,
0001
0000
0100
1000
0100
0000
0001
0000
,
0010
0000
1000
0010
1000
0000
0010
0000
,
0001
0000
0100
0000
0010
0000
1000
0001
,
0000
0001
1000
0000
0100
0000
0100
0000
,
1000
0000
0100
0001
0100
0000
1000
0000
,
0010
0000
0001
0010
0001
0000
0010
0000
,
2000
0000
0000
3200
0000
0000
0310
0000
,
0001
1000
1001
0000
,
1000
0010
1000
0000
0001
0010
0001
0000
,
0100
0000
0100
0000
0010
1000
0010
0000
,
1000
0100
1000
0000
0001
0100
0001
0000
,
0010
0000
0010
0000
0100
1000
0100
0000
,
0010
0001
1000
0000
0010
1000
0001
0000
,
0010
0000
0010
0000
0100
1000
0010
0000
,
0100
0001
1000
0000
0100
1000
0001
0000
,
0100
0010
1000
1001
;
