#VERSION:0.83;
#TITLE:ビビットストリーム;
#SUBTITLE:;
#ARTIST:DJ TOTTO;
#TITLETRANSLIT:BeBeatStream;
#SUBTITLETRANSLIT:;
#ARTISTTRANSLIT:;
#GENRE:BEMANI;
#ORIGIN:;
#CREDIT:;
#BANNER:BeBeatStream.png;
#BACKGROUND:BeBeatStream-bg.png;
#PREVIEWVID:;
#JACKET:BeBeatStream-jacket.png;
#CDIMAGE:;
#DISCIMAGE:;
#LYRICSPATH:;
#CDTITLE:../cdtitle.png;
#MUSIC:BeBeatStream.ogg;
#OFFSET:-1.414000;
#SAMPLESTART:23.584000;
#SAMPLELENGTH:15.000000;
#SELECTABLE:YES;
#BPMS:0.000=184.000;
#STOPS:;
#DELAYS:;
#WARPS:;
#TIMESIGNATURES:0.000=4=4;
#TICKCOUNTS:0.000=4;
#COMBOS:0.000=1;
#SPEEDS:0.000=1.000=0.000=0;
#SCROLLS:0.000=1.000;
#FAKES:;
#LABELS:0.000=Song Start;
#BGCHANGES:0.000=BeBeatStream.avi=1.000=0=0=0=StretchNoLoop====,
99999=-nosongbg-=1.000=0=0=0 // don't automatically add -songbackground-
;
#KEYSOUNDS:;
#ATTACKS:
;

//---------------dance-single - ----------------
#NOTEDATA:;
#CHARTNAME:;
#STEPSTYPE:dance-single;
#DESCRIPTION:;
#CHARTSTYLE:;
#DIFFICULTY:Beginner;
#METER:4;
#RADARVALUES:0.148780,0.250601,0.025197,0.067191,0.000000,124.000000,121.000000,3.000000,8.000000,0.000000,0.000000,0.000000,0.000000,0.000000,0.148780,0.250601,0.025197,0.067191,0.000000,124.000000,121.000000,3.000000,8.000000,0.000000,0.000000,0.000000,0.000000,0.000000;
#CREDIT:led_light;
#NOTES:
// measure 0
0000
0000
0000
0000
,  // measure 1
0000
0000
0000
0000
,  // measure 2
0000
0000
0000
0000
,  // measure 3
0000
0000
0000
0000
,  // measure 4
0000
0000
0000
0000
,  // measure 5
0000
0000
0000
0000
,  // measure 6
0000
0000
0000
0000
,  // measure 7
0000
0000
0000
0000
,  // measure 8
0000
0000
0000
0000
,  // measure 9
0100
0000
0000
0000
,  // measure 10
0100
0000
0000
0000
,  // measure 11
0010
0000
0000
0000
,  // measure 12
0010
0000
0000
0000
,  // measure 13
0001
0000
0001
0000
,  // measure 14
0001
0000
0001
0000
,  // measure 15
1000
1000
1000
0000
,  // measure 16
1001
0000
0000
0000
,  // measure 17
1000
0000
0001
0000
,  // measure 18
1000
1000
1000
0000
,  // measure 19
0010
0000
0100
0000
,  // measure 20
0010
0010
0010
0000
,  // measure 21
1000
0000
0001
0000
,  // measure 22
0010
0010
0010
0000
,  // measure 23
0100
0000
1000
0000
,  // measure 24
0002
0000
0003
0000
,  // measure 25
1000
0000
0001
0000
,  // measure 26
1000
1000
1000
0000
,  // measure 27
0100
0000
0010
0000
,  // measure 28
0100
0100
0100
0000
,  // measure 29
1000
0000
0001
0000
,  // measure 30
0100
0100
0100
0000
,  // measure 31
0010
0000
1000
0000
,  // measure 32
0100
0000
0010
0010
,  // measure 33
0020
0000
0000
0000
,  // measure 34
0030
0000
0000
0000
,  // measure 35
0002
0000
0000
0000
,  // measure 36
0003
0000
0000
0000
,  // measure 37
2000
0000
0000
0000
,  // measure 38
3000
0000
0000
0000
,  // measure 39
0200
0000
0000
0000
,  // measure 40
0300
0000
0000
0000
,  // measure 41
0010
0000
0000
0010
,  // measure 42
0000
0000
0010
0000
,  // measure 43
0001
0000
0000
0001
,  // measure 44
0000
0000
0001
0000
,  // measure 45
0100
0000
0000
0100
,  // measure 46
0000
0000
0100
0000
,  // measure 47
0010
0000
0000
0010
,  // measure 48
0000
0000
0000
0000
,  // measure 49
1000
0000
0000
0000
,  // measure 50
0001
0000
1000
0000
,  // measure 51
0001
0000
0000
0000
,  // measure 52
0010
0000
0001
0000
,  // measure 53
0010
0000
0000
0000
,  // measure 54
0100
0000
1000
0000
,  // measure 55
0100
0000
0000
0000
,  // measure 56
0010
0000
0001
0000
,  // measure 57
1000
0000
0000
0000
,  // measure 58
0001
0000
1000
0000
,  // measure 59
0001
0000
0000
0000
,  // measure 60
0100
0000
0001
0000
,  // measure 61
0100
0000
0000
0000
,  // measure 62
0010
0000
1000
0000
,  // measure 63
0010
0000
0000
0000
,  // measure 64
0100
0000
0001
0000
,  // measure 65
2000
0000
0000
0000
,  // measure 66
3000
0000
0000
0000
,  // measure 67
1001
0000
0000
0000
,  // measure 68
0000
0000
0000
0000
,  // measure 69
0010
0000
0000
0000
,  // measure 70
0010
0000
0000
0000
,  // measure 71
0001
0000
1000
0000
,  // measure 72
1001
0000
0000
0000
,  // measure 73
1000
0000
0001
0000
,  // measure 74
1000
1000
1000
0000
,  // measure 75
0100
0000
0010
0000
,  // measure 76
0100
0100
0100
0000
,  // measure 77
1000
0000
0001
0000
,  // measure 78
0100
0100
0100
0000
,  // measure 79
0010
0000
1000
0000
,  // measure 80
0100
0000
0010
0010
,  // measure 81
0020
0000
0000
0000
,  // measure 82
0030
0000
0000
0000
,  // measure 83
0001
0000
1000
0000
,  // measure 84
0010
0000
0200
0000
,  // measure 85
0000
0300
0000
0000
;

//---------------dance-single - ----------------
#NOTEDATA:;
#CHARTNAME:;
#STEPSTYPE:dance-single;
#DESCRIPTION:;
#CHARTSTYLE:;
#DIFFICULTY:Hard;
#METER:12;
#RADARVALUES:0.568722,0.644401,0.537526,0.377948,0.000000,474.000000,410.000000,64.000000,45.000000,0.000000,0.000000,0.000000,0.000000,0.000000,0.568722,0.644401,0.537526,0.377948,0.000000,474.000000,410.000000,64.000000,45.000000,0.000000,0.000000,0.000000,0.000000,0.000000;
#CREDIT:led_light;
#NOTES:
// measure 0
0000
0000
0000
0000
,  // measure 1
0000
0000
0000
0000
,  // measure 2
0000
0000
0000
0000
,  // measure 3
0000
0000
0000
0000
,  // measure 4
0000
0000
0000
0000
,  // measure 5
0000
0000
0000
0000
,  // measure 6
0000
0000
0000
0000
,  // measure 7
0000
0000
0000
0000
,  // measure 8
0000
0000
0000
0000
,  // measure 9
0010
0010
0100
0100
,  // measure 10
1000
1000
0001
0001
,  // measure 11
0100
1000
0010
0001
,  // measure 12
0100
1000
0010
0001
,  // measure 13
0100
0010
0100
1000
0100
0001
0100
0010
,  // measure 14
1000
0001
0010
0100
1000
0100
0010
0001
,  // measure 15
1000
0100
0010
0100
1000
0010
0001
0010
,  // measure 16
1000
2000
0001
3002
1000
2003
0200
3000
,  // measure 17
0310
0000
0011
0000
1100
0100
1000
0001
,  // measure 18
0100
0010
1000
0010
0100
0001
1000
0100
,  // measure 19
0010
0000
1100
0000
1001
0001
0100
0010
,  // measure 20
1000
0001
1000
0010
0100
1000
0100
0001
,  // measure 21
1000
0000
1010
0000
0011
0100
1000
0001
,  // measure 22
0010
0001
1000
0100
1000
0001
0010
0100
,  // measure 23
1000
1000
0010
0010
0100
0001
0100
0201
,  // measure 24
0000
0000
0310
1000
0001
0100
0010
0010
,  // measure 25
0010
0000
1010
0000
0101
0100
0001
1000
,  // measure 26
0100
0010
0001
0010
0100
1000
0001
0100
,  // measure 27
0010
0000
0101
0000
1001
1000
0100
0010
,  // measure 28
0001
1000
0001
0010
0100
0001
0100
1000
,  // measure 29
0001
0000
0011
0000
1010
0100
0001
1000
,  // measure 30
0010
1000
0001
0100
0001
1000
0010
0100
,  // measure 31
0002
0000
0023
0000
0130
1000
0100
1200
,  // measure 32
0000
0320
0000
0031
1000
0001
0100
0010
,  // measure 33
2010
0000
3100
0010
0001
0000
0201
0000
,  // measure 34
0310
1000
0100
0000
1001
0000
0101
0000
,  // measure 35
0120
0000
1030
0100
0001
0000
0120
0000
,  // measure 36
0031
0100
1000
0000
1010
0000
1100
0000
,  // measure 37
0012
0000
0103
0010
1000
0000
1200
0000
,  // measure 38
0310
0001
0100
0000
1001
0000
1100
0000
,  // measure 39
0120
0000
0031
0100
1000
0000
0120
0000
,  // measure 40
1030
0100
0110
0000
0001
0100
0110
0000
,  // measure 41
1000
0010
1000
0010
1010
0000
0001
0010
,  // measure 42
0001
0010
0011
0000
0110
0000
1100
0000
,  // measure 43
1000
0100
1000
0100
1100
0000
0001
0100
,  // measure 44
0001
0100
0101
0000
0110
0000
1010
0000
,  // measure 45
0001
0100
0010
0000
1000
0100
0010
0000
,  // measure 46
0001
0010
0100
0000
1000
0010
0100
0000
,  // measure 47
0001
0100
0010
0100
0001
0010
1000
0010
,  // measure 48
0001
0002
1000
2003
0010
3020
0200
0030
,  // measure 49
0302
0103
0101
0000
,  // measure 50
0100
1000
0100
0001
0010
0100
1000
0001
,  // measure 51
0200
0301
0101
0000
,  // measure 52
0020
0000
2030
0000
3001
0010
0100
0100
,  // measure 53
2000
3100
1100
0000
,  // measure 54
0100
0001
0100
1000
0010
0100
0001
1000
,  // measure 55
0200
1300
1100
0000
,  // measure 56
0010
0010
0001
0001
0100
0010
1000
1000
,  // measure 57
0002
0103
0101
0100
,  // measure 58
0010
0001
0010
0100
0001
0010
0100
1000
,  // measure 59
0002
0000
0013
0000
0011
0010
0100
0000
,  // measure 60
0200
0000
0320
0000
0031
1000
0001
0001
,  // measure 61
2000
3100
1100
0100
,  // measure 62
0010
1000
0010
0100
1000
0010
0100
0001
,  // measure 63
2000
0000
3010
0000
1010
0010
0100
1001
,  // measure 64
0000
1001
0001
0010
1000
0100
0001
0000
,  // measure 65
0220
0000
0000
0000
,  // measure 66
0000
0000
0000
0330
,  // measure 67
1001
0000
0000
0000
,  // measure 68
0000
0000
0000
0000
,  // measure 69
1100
0000
0000
0000
,  // measure 70
0101
0000
0000
0000
,  // measure 71
1010
0000
0011
0000
,  // measure 72
0220
0000
0000
0330
,  // measure 73
0010
0000
0011
0000
1100
0100
1000
0001
,  // measure 74
0100
0010
1000
0010
0100
0001
1000
0100
,  // measure 75
0010
0000
1100
0000
1001
0001
0100
0010
,  // measure 76
1000
0001
1000
0010
0100
1000
0100
0001
,  // measure 77
1000
0000
1010
0000
0011
0100
1000
0001
,  // measure 78
0010
0001
1000
0100
1000
0001
0010
0100
,  // measure 79
2000
0000
3020
0000
0130
0001
0100
0201
,  // measure 80
0000
0320
0000
1030
0001
1000
0100
0010
,  // measure 81
2002
0000
0000
0000
,  // measure 82
0000
0000
0000
3003
,  // measure 83
0100
0100
0010
0010
1000
0001
0000
0102
,  // measure 84
0000
1003
0100
0020
0000
0000
0000
0000
,  // measure 85
0000
0030
0000
0000
;

//---------------dance-single - ----------------
#NOTEDATA:;
#CHARTNAME:;
#STEPSTYPE:dance-single;
#DESCRIPTION:;
#CHARTSTYLE:;
#DIFFICULTY:Easy;
#METER:7;
#RADARVALUES:0.321556,0.393801,0.142780,0.520728,0.000000,268.000000,251.000000,17.000000,62.000000,0.000000,0.000000,0.000000,0.000000,0.000000,0.321556,0.393801,0.142780,0.520728,0.000000,268.000000,251.000000,17.000000,62.000000,0.000000,0.000000,0.000000,0.000000,0.000000;
#CREDIT:led_light;
#NOTES:
// measure 0
0000
0000
0000
0000
,  // measure 1
0000
0000
0000
0000
,  // measure 2
0000
0000
0000
0000
,  // measure 3
0000
0000
0000
0000
,  // measure 4
0000
0000
0000
0000
,  // measure 5
0000
0000
0000
0000
,  // measure 6
0000
0000
0000
0000
,  // measure 7
0000
0000
0000
0000
,  // measure 8
0000
0000
0000
0000
,  // measure 9
1000
0100
0001
0000
,  // measure 10
0001
0100
1000
0000
,  // measure 11
1000
0010
0001
0000
,  // measure 12
0001
0010
1000
0000
,  // measure 13
1000
0100
1000
0100
,  // measure 14
0001
0100
0001
0100
,  // measure 15
1000
0100
0010
0001
,  // measure 16
2000
0000
0000
3000
,  // measure 17
1001
0100
0010
0001
,  // measure 18
0200
1300
0200
0301
,  // measure 19
1000
0100
0010
0001
,  // measure 20
0020
1030
0020
0031
,  // measure 21
1000
0100
1000
0010
,  // measure 22
0002
0013
2000
3100
,  // measure 23
0010
0001
0100
1000
,  // measure 24
0020
0000
0100
0130
,  // measure 25
1001
0100
0010
1000
,  // measure 26
0200
0301
0200
1300
,  // measure 27
0001
0100
0010
1000
,  // measure 28
0020
0031
0020
1030
,  // measure 29
0001
0100
0001
0010
,  // measure 30
2000
3010
0002
0103
,  // measure 31
0010
0010
1000
1000
,  // measure 32
0001
0010
0100
1000
,  // measure 33
0002
0100
0103
2000
,  // measure 34
0010
3010
0001
0010
,  // measure 35
2000
0100
3100
0002
,  // measure 36
0010
0013
0011
1100
,  // measure 37
2000
0100
3100
0002
,  // measure 38
0010
0013
1000
0010
,  // measure 39
0002
0100
0103
2000
,  // measure 40
0010
3010
1010
0101
,  // measure 41
1000
0100
0001
0001
,  // measure 42
0010
1000
0100
0100
,  // measure 43
0001
0100
1000
1000
,  // measure 44
0010
0001
0100
0100
,  // measure 45
0001
0100
0001
0100
,  // measure 46
1000
0100
1000
0100
,  // measure 47
0001
0100
0010
1000
,  // measure 48
0002
0000
0000
0003
,  // measure 49
1000
1000
1010
0000
,  // measure 50
0002
0023
0230
2300
,  // measure 51
3001
0001
0011
0000
,  // measure 52
0200
2300
3200
0320
,  // measure 53
0031
0001
0011
0000
,  // measure 54
2000
3020
0230
0302
,  // measure 55
1003
1000
1010
0000
,  // measure 56
0200
0302
2003
3200
,  // measure 57
0310
0010
0110
0000
,  // measure 58
2000
3020
0032
0203
,  // measure 59
0310
0010
1001
0000
,  // measure 60
0020
0032
2003
3020
,  // measure 61
0130
0100
0110
0000
,  // measure 62
2000
3200
0302
0023
,  // measure 63
0130
0000
0100
0000
1000
0000
0000
1001
,  // measure 64
0000
0001
0010
0100
,  // measure 65
0020
0000
0000
0000
,  // measure 66
0000
0000
0000
0030
,  // measure 67
0110
0000
0000
0000
,  // measure 68
0000
0000
0000
0000
,  // measure 69
0100
0000
0000
0000
,  // measure 70
0100
0000
0000
0000
,  // measure 71
0010
0000
0010
0000
,  // measure 72
0220
0000
0000
0330
,  // measure 73
1001
0100
0010
0001
,  // measure 74
0200
1300
0200
0301
,  // measure 75
1000
0100
0010
0001
,  // measure 76
0020
1030
0020
0031
,  // measure 77
1000
0100
1000
0010
,  // measure 78
0002
0013
2000
3100
,  // measure 79
0010
0010
0001
0001
,  // measure 80
1000
0010
0100
0001
,  // measure 81
0020
0000
0000
0000
,  // measure 82
0000
0000
0000
0030
,  // measure 83
0100
0000
0100
0000
0100
0000
0000
0010
,  // measure 84
0000
0001
0000
2000
0000
0000
0000
0000
,  // measure 85
0000
3000
0000
0000
;

//---------------dance-single - ----------------
#NOTEDATA:;
#CHARTNAME:;
#STEPSTYPE:dance-single;
#DESCRIPTION:;
#CHARTSTYLE:;
#DIFFICULTY:Medium;
#METER:10;
#RADARVALUES:0.443939,0.537001,0.251965,0.663509,0.000000,370.000000,340.000000,30.000000,79.000000,0.000000,0.000000,0.000000,0.000000,0.000000,0.443939,0.537001,0.251965,0.663509,0.000000,370.000000,340.000000,30.000000,79.000000,0.000000,0.000000,0.000000,0.000000,0.000000;
#CREDIT:led_light;
#NOTES:
// measure 0
0000
0000
0000
0000
,  // measure 1
0000
0000
0000
0000
,  // measure 2
0000
0000
0000
0000
,  // measure 3
0000
0000
0000
0000
,  // measure 4
0000
0000
0000
0000
,  // measure 5
0000
0000
0000
0000
,  // measure 6
0000
0000
0000
0000
,  // measure 7
0000
0000
0000
0000
,  // measure 8
0000
0000
0000
0000
,  // measure 9
1000
0100
0001
0100
,  // measure 10
1000
0100
0001
0100
,  // measure 11
1000
0010
0001
0010
,  // measure 12
1000
0010
0001
0010
,  // measure 13
1000
0100
1000
0000
0100
0001
0100
0000
,  // measure 14
0001
0010
0001
0000
0010
1000
0010
0000
,  // measure 15
1000
0100
1000
0100
0010
0001
0010
0001
,  // measure 16
2000
3020
0230
0302
,  // measure 17
1003
0000
1001
0000
0100
0010
0100
0010
,  // measure 18
0000
0001
0000
2000
0000
3001
1000
0001
,  // measure 19
0010
0000
0110
0000
1000
0001
1000
0001
,  // measure 20
0000
0100
0000
0020
0000
2030
0000
3001
,  // measure 21
0100
0000
1010
0000
0001
0010
0001
0010
,  // measure 22
0000
0001
0000
2000
0000
3100
1000
0100
,  // measure 23
0010
0001
1000
0100
1000
0001
0000
2000
,  // measure 24
0000
0000
3000
1000
0001
0100
0010
1000
,  // measure 25
0001
0000
1001
0000
0100
0010
0100
0010
,  // measure 26
0000
1000
0000
0002
0000
1003
0001
1000
,  // measure 27
0010
0000
0110
0000
0001
1000
0001
1000
,  // measure 28
0000
0100
0000
0020
0000
0032
0000
1003
,  // measure 29
0100
0000
0011
0000
1000
0010
1000
0010
,  // measure 30
0000
1000
0000
0002
0000
0103
0001
0100
,  // measure 31
0020
0000
2030
0000
3001
1000
0100
0020
,  // measure 32
0000
0032
0000
1003
0001
0100
0001
1000
,  // measure 33
0020
0000
0130
0001
0000
0001
0200
0000
,  // measure 34
0310
1000
0000
1000
0020
0000
2030
0000
,  // measure 35
3200
0000
0310
0001
0000
0001
0020
0000
,  // measure 36
0130
1000
0000
1000
0002
0000
0203
0000
,  // measure 37
0320
0000
1030
0001
0000
0001
2000
0000
,  // measure 38
3100
1000
0000
1000
0002
0000
0203
0000
,  // measure 39
2300
0000
3100
0010
0000
0010
2000
0000
,  // measure 40
3001
0010
0010
0000
1000
0010
0010
0000
,  // measure 41
1002
0000
0103
0010
1000
0000
2001
0000
,  // measure 42
3100
0010
0001
0000
0100
0000
0100
0000
,  // measure 43
0210
0000
0310
1000
0001
0000
0210
0000
,  // measure 44
0310
0001
1000
0000
0110
0000
0110
0000
,  // measure 45
0001
0100
0001
0000
0100
1000
0100
0000
,  // measure 46
1000
0010
1000
0000
0010
0001
0010
0000
,  // measure 47
0001
0100
0001
0100
0010
1000
0010
1000
,  // measure 48
0002
0000
0000
0003
,  // measure 49
2000
3100
1100
0000
,  // measure 50
1000
0100
1000
0100
0020
0000
0032
0000
,  // measure 51
2003
3100
1100
0000
,  // measure 52
0200
2300
3020
0230
,  // measure 53
0302
0103
0101
0000
,  // measure 54
0001
0100
0001
0100
0020
0000
2030
0000
,  // measure 55
3002
0103
0101
0000
,  // measure 56
0200
0302
2003
3200
,  // measure 57
0320
0031
0011
0100
,  // measure 58
0010
0001
0010
0001
2000
0000
3200
0000
,  // measure 59
0320
0031
0011
0100
,  // measure 60
0020
0032
0203
0320
,  // measure 61
2030
3010
1010
0100
,  // measure 62
0010
1000
0010
1000
0002
0000
0203
0000
,  // measure 63
0320
0000
1030
0000
1000
0001
0000
1001
,  // measure 64
0000
0001
1000
0000
0100
0010
0100
0000
,  // measure 65
2002
0000
0000
0000
,  // measure 66
0000
0000
0000
3003
,  // measure 67
0110
0000
0000
0000
,  // measure 68
0000
0000
0000
0000
,  // measure 69
1001
0000
0000
0000
,  // measure 70
1001
0000
0000
0000
,  // measure 71
0110
0000
0110
0000
,  // measure 72
2002
0000
0000
3003
,  // measure 73
1000
0000
1001
0000
0100
0010
0100
0010
,  // measure 74
0000
0001
0000
2000
0000
3001
1000
0001
,  // measure 75
0010
0000
0110
0000
1000
0001
1000
0001
,  // measure 76
0000
0100
0000
0020
0000
2030
0000
3001
,  // measure 77
0100
0000
1010
0000
0001
0010
0001
0010
,  // measure 78
0000
0001
0000
2000
0000
3100
1000
0100
,  // measure 79
0020
0000
0032
0000
1003
0001
0100
0020
,  // measure 80
0000
2030
0000
3001
1000
0100
1000
0001
,  // measure 81
0020
0000
0000
0000
,  // measure 82
0000
0000
0000
0030
,  // measure 83
0010
0000
0100
0000
1000
0001
0000
0200
,  // measure 84
0000
0310
1000
0002
0000
0000
0000
0000
,  // measure 85
0000
0003
0000
0000
;

//---------------dance-single - ----------------
#NOTEDATA:;
#CHARTNAME:;
#STEPSTYPE:dance-single;
#DESCRIPTION:;
#CHARTSTYLE:;
#DIFFICULTY:Challenge;
#METER:16;
#RADARVALUES:0.818287,1.002402,0.503931,0.554324,0.428341,682.000000,622.000000,60.000000,66.000000,0.000000,0.000000,0.000000,0.000000,0.000000,0.818287,1.002402,0.503931,0.554324,0.428341,682.000000,622.000000,60.000000,66.000000,0.000000,0.000000,0.000000,0.000000,0.000000;
#CREDIT:led_light;
#NOTES:
// measure 0
0000
0000
0000
0000
,  // measure 1
0000
0000
0000
0000
,  // measure 2
0000
0000
0000
0000
,  // measure 3
0000
0000
0000
0000
,  // measure 4
0000
0000
0000
0000
,  // measure 5
0000
0000
1001
0000
0001
0100
0010
1000
,  // measure 6
0000
0001
0000
0020
0000
0130
1000
0100
,  // measure 7
0000
0000
0110
0000
0001
1000
0010
0100
,  // measure 8
0000
0001
0000
0020
0000
0230
0000
1300
,  // measure 9
0010
0010
0010
0010
,  // measure 10
0100
0100
0100
0100
,  // measure 11
1001
0100
0100
0100
,  // measure 12
0010
0010
0010
0010
,  // measure 13
0001
0100
1000
0100
0001
0100
1000
0100
,  // measure 14
0010
0001
0010
1000
0010
0001
0010
1000
,  // measure 15
0001
0010
0001
0010
0100
1000
0100
1000
0100
0010
0001
1000
0010
0100
0001
1000
,  // measure 16
0200
0000
0310
0001
2000
0000
3020
0000
0230
0000
0302
0000
1003
0001
1000
0001
,  // measure 17
1000
0000
0000
0000
1100
0000
0000
0000
0011
0000
0001
1000
0010
0000
0100
0000
,  // measure 18
0001
0000
1000
0001
0010
0000
0100
1000
0001
0000
0100
0000
0010
0000
1000
0000
,  // measure 19
0001
0000
0000
0000
0011
0000
0000
0000
1100
0000
0010
0001
1000
0000
0010
0000
,  // measure 20
0100
0000
0001
0000
0010
0000
0100
1000
0100
0000
0010
0001
0010
0000
0001
1000
,  // measure 21
0001
0000
0000
0000
0101
0000
0000
0000
1010
0000
0001
1000
0100
0000
0010
0000
,  // measure 22
0100
0000
0001
0000
0100
0000
1000
0001
1000
0000
0001
0000
0100
0000
0010
0000
,  // measure 23
1000
0001
1000
0000
0010
0000
0100
0000
0001
0000
1000
0000
0100
0000
1002
0000
,  // measure 24
0200
0000
0003
0000
0310
0000
1000
0100
1000
0100
0010
0000
0100
0000
1000
0000
,  // measure 25
1001
0000
0000
0000
0011
0000
0000
0000
1100
0000
1000
0001
0100
0000
0010
0000
,  // measure 26
1000
0000
0001
1000
0100
0000
0010
0001
1000
0000
0010
0000
0100
0000
0001
0000
,  // measure 27
1000
0000
0000
0000
1100
0000
0000
0000
0011
0000
0100
1000
0001
0000
0100
0000
,  // measure 28
0010
0000
1000
0000
0100
0000
0010
0001
0010
0000
0100
1000
0100
0000
1000
0001
,  // measure 29
1000
0000
0000
0000
1010
0000
0000
0000
0101
0000
1000
0001
0010
0000
0100
0000
,  // measure 30
0010
0000
1000
0000
0010
0000
0001
1000
0001
0000
1000
0000
0010
0000
0100
0000
,  // measure 31
0001
0001
1000
1000
0001
0010
0100
0210
,  // measure 32
1300
0000
0120
0000
0031
0000
1000
0010
0100
0010
0100
0001
1000
0000
0001
0000
,  // measure 33
1002
1000
1003
0020
0100
0130
0002
1000
,  // measure 34
1003
0200
0010
0310
0011
0001
1001
0000
,  // measure 35
0020
0100
0130
0002
0010
0013
0200
1000
,  // measure 36
1300
0002
1000
1003
1010
0000
0101
0000
,  // measure 37
1002
1000
1003
0200
0010
0310
0002
1000
,  // measure 38
1003
0020
0100
0130
0101
0001
1001
0000
,  // measure 39
0200
0010
0310
0002
0100
0103
0020
1000
,  // measure 40
1030
0100
1000
0100
1000
0000
0000
0000
0001
0010
0001
0010
0001
0000
0000
0000
,  // measure 41
2000
0100
3100
0002
1000
1003
0020
0001
,  // measure 42
0031
2000
0010
3010
0110
0100
1001
0000
,  // measure 43
0002
0010
0013
2000
0001
3001
0200
1000
,  // measure 44
1300
0002
0100
0103
0110
0000
1001
0000
,  // measure 45
1000
0010
0001
0010
1000
0010
0001
0010
,  // measure 46
0100
1000
0100
0001
0100
1000
0100
0001
,  // measure 47
1000
0010
1000
0010
0100
0001
0100
0001
1000
0010
0100
0001
0010
0100
1000
0001
,  // measure 48
0020
0000
0130
1000
0002
0000
0203
0000
0320
0000
2030
0000
3001
1000
0001
1000
,  // measure 49
0002
0000
1003
0000
1001
0000
0100
1000
,  // measure 50
0001
0010
0001
1000
0010
0000
0100
0000
0001
0100
0001
0000
1000
0100
1000
0000
,  // measure 51
0002
0000
0103
0000
0110
1000
0001
0000
,  // measure 52
1000
0100
1000
0100
0010
0100
0010
0100
0010
0001
0010
0001
1000
0001
1000
0001
,  // measure 53
0200
0000
0310
0000
1001
0000
0010
0100
,  // measure 54
1000
0001
1000
0001
0100
0000
0010
0000
0100
0001
0100
0000
0001
0010
0001
0000
,  // measure 55
2000
0000
3100
0000
0110
0001
1000
0000
,  // measure 56
0200
0000
0310
0001
2000
0000
3020
0000
0230
0000
0302
0000
1003
0001
1000
0001
,  // measure 57
2000
0000
3001
0000
1001
0000
0010
0001
,  // measure 58
1000
0100
1000
0001
0100
0000
0010
0000
1000
0010
1000
0000
0001
0010
0001
0000
,  // measure 59
2000
0000
3010
0000
0110
0001
1000
0000
,  // measure 60
0001
0010
0001
0010
0100
0010
0100
0010
0100
1000
0100
1000
0001
1000
0001
1000
,  // measure 61
0020
0000
0130
0000
1001
0000
0100
0010
,  // measure 62
0001
1000
0001
1000
0010
0000
0100
0000
0010
1000
0010
0000
1000
0100
1000
0000
,  // measure 63
0002
0000
0013
0000
0110
1000
0001
0110
,  // measure 64
0000
0000
0110
0000
0001
0100
0010
1000
0001
0000
1001
0000
0010
0000
0000
0000
,  // measure 65
0120
0000
0100
0000
0130
1000
0100
0010
,  // measure 66
0000
0001
0000
2000
0000
3001
0100
0010
,  // measure 67
0100
0000
1001
0000
0001
0010
0100
0010
,  // measure 68
0000
1001
0000
1020
0000
0230
0000
0301
,  // measure 69
1000
0000
1001
0000
0100
0010
0001
1000
,  // measure 70
0010
0100
0001
0200
0000
0310
1000
0001
,  // measure 71
1000
0100
1000
0000
0001
0000
0000
0000
0110
0000
0001
0000
0000
0000
1000
0000
,  // measure 72
0020
0000
0000
0000
0030
0000
0100
0001
1000
0001
0100
0000
0010
0000
1000
0000
,  // measure 73
1001
0000
0000
0000
1100
0000
0000
0000
0011
0000
0001
1000
0010
0000
0100
0000
,  // measure 74
0001
0000
1000
0001
0010
0000
0100
1000
0001
0000
0100
0000
0010
0000
1000
0000
,  // measure 75
0001
0000
0000
0000
0011
0000
0000
0000
1100
0000
0010
0001
1000
0000
0010
0000
,  // measure 76
0100
0000
0001
0000
0010
0000
0100
1000
0100
0000
0010
0001
0010
0000
0001
1000
,  // measure 77
0001
0000
0000
0000
0101
0000
0000
0000
1010
0000
0001
1000
0100
0000
0010
0000
,  // measure 78
0100
0000
0001
0000
0100
0000
1000
0001
1000
0000
0001
0000
0100
0000
0010
0000
,  // measure 79
1000
1000
0001
0001
1000
0100
0010
0120
,  // measure 80
0031
0000
0210
0000
1300
0000
0001
0100
0010
0100
0010
1000
0001
0000
1000
0000
,  // measure 81
2002
0000
0000
0000
,  // measure 82
0000
0000
0000
3003
,  // measure 83
0001
0001
0100
0100
0010
1000
0100
0120
,  // measure 84
0000
0031
1000
2002
0000
0000
0000
0000
,  // measure 85
0000
3003
0000
0000
;
