#TITLE:戦い(VSトレーナー);
#SUBTITLE:;
#ARTIST:宮崎慎二;
#TITLETRANSLIT:Battle (VS Trainer);
#SUBTITLETRANSLIT:;
#ARTISTTRANSLIT:Miyazaki Shinji;
#GENRE:Anime/Game;
#CREDIT:;
#BANNER:Battle (VS Trainer).png;
#BACKGROUND:Battle (VS Trainer)-bg.png;
#LYRICSPATH:;
#CDTITLE:../cdtitle.png;
#MUSIC:Battle (VS Trainer).ogg;
#OFFSET:0.815000;
#SAMPLESTART:0.544000;
#SAMPLELENGTH:15.000000;
#SELECTABLE:YES;
#BPMS:0.000000=176.000000
;
#STOPS:
;
#BGCHANGES:-99.000=../bg.avi=1.000=0=0=1=====,
99999=-nosongbg-=1.000=0=0=0 // don't automatically add -songbackground-
;
#KEYSOUNDS:;
#ATTACKS:;

//---------------dance-single - ----------------
#NOTES:
     dance-single:
     :
     Beginner:
     1:
     0.071714,0.209246,0.048269,0.000000,0.000000,52.000000,47.000000,5.000000,0.000000,0.000000,0.000000,0.071714,0.209246,0.048269,0.000000,0.000000,52.000000,47.000000,5.000000,0.000000,0.000000,0.000000:
0000
0000
0000
0000
,
0000
0000
0000
0000
,
0000
0000
0000
0000
,
0010
0000
0000
0000
,
0000
0000
0000
0000
,
0010
0000
0000
0000
,
0000
0000
0000
0000
,
0100
0000
0000
0000
,
0000
0000
0000
0000
,
0100
0000
0000
0000
,
0000
0000
0000
0000
,
0001
0000
0000
0000
,
0000
0000
0000
0000
,
1000
0000
0000
0000
,
0000
0000
0000
0000
,
0001
0000
0000
0000
,
0000
0000
0000
0000
,
1000
0000
0000
0000
,
0000
0000
0000
0000
,
0001
0000
0000
0000
,
0000
0000
0000
0000
,
0100
0000
0000
0000
,
0000
0000
0000
0000
,
1000
0000
0000
0000
,
0000
0000
0000
0000
,
0100
0000
0000
0000
,
0000
0000
0000
0000
,
0010
0000
0000
0000
,
0000
0000
0000
0000
,
0010
0000
0000
0000
,
0000
0000
0000
0000
,
0010
0000
0000
0000
,
0000
0000
0000
0000
,
0010
0000
0000
0000
,
0010
0000
0000
0000
,
0100
0000
0100
0000
,
0000
0000
0000
0000
,
0000
0000
0001
0000
,
0001
0000
0000
0000
,
1000
0000
0000
0000
,
0001
0000
0000
0000
,
0001
0000
0000
0000
,
0010
0000
0000
0000
,
0000
0000
0000
0000
,
0100
0000
0000
0000
,
0000
0000
0000
0000
,
1000
0000
0000
0000
,
0000
0000
0000
0000
,
0001
0000
0000
0000
,
0000
0000
0000
0000
,
0110
0000
0000
0000
,
0110
0000
0000
0000
,
1001
0000
0000
0000
,
1001
0000
0000
0000
,
0010
0000
0000
0000
,
0010
0000
0000
0000
,
1000
0000
0000
0000
,
1000
0000
0000
0000
,
0100
0000
0000
0000
,
0100
0000
0000
0000
,
0010
0000
0000
0000
,
0010
0000
0000
0000
,
0001
0000
0000
0000
,
0000
0000
0000
0000
,
1000
0000
0000
0000
,
0000
0000
0000
0000
,
0001
0000
0000
0000
,
0000
0000
0000
0000
,
1000
0000
0000
0000
,
0000
0000
0000
0000
,
0001
0000
0000
0000
,
1000
0000
0000
0000
,
0000
1001
0000
0000
;

//---------------dance-single - ----------------
#NOTES:
     dance-single:
     :
     Easy:
     5:
     0.220659,0.281891,0.028961,0.038615,0.000000,160.000000,157.000000,3.000000,4.000000,0.000000,0.000000,0.220659,0.281891,0.028961,0.038615,0.000000,160.000000,157.000000,3.000000,4.000000,0.000000,0.000000:
0000
0000
0000
0000
,
0000
0000
0000
0000
,
0000
0000
0000
0000
,
1001
0000
0001
0000
,
1000
0100
0001
0000
,
1000
0000
0001
0000
,
1000
0010
0001
0010
,
1001
0000
1000
0000
,
0001
0100
1000
0000
,
0001
0000
1000
0000
,
0001
0010
1000
0010
,
0001
0000
0010
0000
,
0001
0000
0100
0000
,
1000
0000
0010
0000
,
1000
1000
0100
0000
,
0001
0000
0100
0000
,
0001
0000
0010
0000
,
1000
0000
0100
0000
,
1000
0000
0010
0010
,
0001
0000
0001
0000
,
1000
0000
1000
0000
,
0010
0000
0001
0000
,
0100
0000
1000
0000
,
0100
0000
0100
0000
,
0010
0000
0010
0000
,
1000
0000
0100
0000
,
0001
0000
0010
0000
,
1000
0000
0001
0000
,
1000
0000
0010
0000
,
0001
0000
1000
0000
,
0001
0000
0010
0000
,
1000
0000
0001
0000
,
1000
0000
0100
0000
,
0001
0000
1000
0000
,
0001
0000
0100
0000
,
1000
1000
0001
0000
,
0100
0000
1000
0000
,
0010
0000
0001
0001
,
1000
0000
0010
0000
,
0001
0000
0100
0000
,
1000
0000
1000
0000
,
1000
0001
1000
0000
,
0001
0000
0010
0000
,
0001
0000
0100
0000
,
1000
0000
0010
0000
,
1000
0000
0100
0100
,
0001
0000
0010
0000
,
0001
0000
0100
0000
,
1000
0000
0010
0000
,
1000
0000
0100
0100
,
0010
0000
0000
0010
0000
0000
0010
0000
,
0001
0000
0000
0001
0000
0000
0001
0000
,
0100
0000
0000
0100
0000
0000
0100
0000
,
1000
0000
0000
1000
0000
0000
0000
0000
,
1000
0000
0001
0000
,
1000
0000
0100
0000
,
0001
0000
1000
0000
,
0001
0000
0100
0000
,
1000
0000
0001
0000
,
1000
0000
0010
0000
,
0001
0000
1000
0000
,
0001
0000
0010
0000
,
1000
0000
0100
0000
,
1000
0000
0010
0000
,
0001
0000
0100
0000
,
0001
0001
0010
0000
,
1000
0000
0010
0000
,
1000
0000
0100
0000
,
0001
0000
0010
0000
,
0001
0000
0100
0100
,
1000
0000
0000
0002
0000
0000
0000
0000
,
2003
0000
0000
0000
,
3001
2002
0000
0000
,
3003
0000
0000
0000
;

//---------------dance-single - ----------------
#NOTES:
     dance-single:
     :
     Hard:
     12:
     0.568196,0.599019,0.222038,0.154461,0.000000,412.000000,389.000000,23.000000,16.000000,0.000000,0.000000,0.568196,0.599019,0.222038,0.154461,0.000000,412.000000,389.000000,23.000000,16.000000,0.000000,0.000000:
0000
0000
0000
0000
,
0000
0000
0000
0000
,
0000
0000
0000
0000
,
0110
0000
0001
0010
0000
1000
0010
0000
,
0001
0100
0010
1000
0100
0010
0100
0000
,
1000
0000
0010
0100
0000
0010
0100
0000
,
1000
0100
0001
0010
1000
0000
1001
0000
,
0110
0000
1000
0010
0000
0001
0010
0000
,
1000
0100
0010
0001
0100
0010
0100
0000
,
0001
0000
0010
0100
0000
0010
0100
0000
,
0001
0100
1000
0010
0001
0000
0110
0000
,
0101
0000
0100
0002
0010
0000
1000
0000
,
0100
0000
1003
0000
0100
0010
0100
0000
,
1000
0001
1000
0001
0100
0001
0100
0001
,
1000
0100
0010
0001
0100
0010
1000
0100
,
0010
0000
0001
0200
0010
0000
1000
0000
,
0001
0000
0310
0000
1000
0100
1000
0000
,
0100
0000
0100
0000
0100
0010
1000
0010
,
0001
0010
0100
1000
0001
1000
0010
0100
,
0001
0000
0100
1000
0100
0000
0001
0000
,
2000
3100
0002
0013
,
1000
0000
1000
0100
0001
0000
0001
0100
,
1000
0000
1000
0010
0001
0010
1000
0100
,
1000
0000
0100
0001
0100
0000
1000
0000
,
0002
0103
2000
3010
,
0001
0100
1000
0100
0001
0000
1000
0100
,
0020
0000
0130
1000
0001
0100
0001
1000
,
0100
0000
0100
0000
1000
0100
1000
0100
,
0010
0001
0100
0010
1000
0100
0010
0001
,
0100
0000
0100
0000
1000
0010
1000
0000
,
0001
0000
0010
0001
0100
0001
1000
0001
,
1000
0000
0100
0000
0001
0010
0001
0000
,
0100
0000
0100
0010
1000
0001
0100
0010
,
1000
0100
0001
0010
,
1000
0000
0100
0000
0001
0100
1000
0100
,
1000
0000
0001
0000
0110
0002
1000
0000
,
0010
1000
0100
1000
,
0013
0100
1000
0000
0001
0000
1000
0000
,
0110
2000
0001
0000
0100
0000
0001
0000
,
0010
0000
0001
0000
3100
0010
0001
0000
,
1000
0010
1000
0000
0001
0010
0001
0000
,
0100
0010
1000
0001
1000
0010
0100
0000
,
1001
0000
0100
0020
1000
0000
0100
0000
,
0001
0000
0130
0000
0001
0100
1000
0000
,
0010
0000
1000
0000
0100
1000
0100
0000
,
0010
0001
0100
0010
,
1001
0000
0100
0020
0001
0000
0100
0000
,
1000
0000
0130
0000
1000
0100
0001
0000
,
0010
0000
0001
0000
0100
0001
0100
0000
,
0010
0000
0010
1000
0001
0010
0100
1000
,
1010
0000
0000
0011
0000
0000
0110
0000
,
1100
0000
0000
1001
0000
0000
0101
0000
,
0011
0000
0000
1010
0000
0000
0110
0000
,
0101
0000
0000
1001
0000
0000
0000
0000
,
0010
0000
0010
0000
0001
0010
0001
0010
,
0100
1000
0010
0100
0001
0010
0100
1000
,
0010
0000
0010
0000
0001
0100
0001
0000
,
1000
0000
0100
1000
0010
1000
0001
1000
,
0001
0000
0010
0000
1000
0100
1000
0000
,
0010
0000
0010
0100
0001
1000
0010
0100
,
0001
0010
1000
0100
,
0001
0000
0010
0000
1000
0010
0001
0010
,
1010
0000
0010
2000
0100
0000
0001
0000
,
0010
0000
3001
0000
0010
0100
0010
0000
,
0001
1000
0001
1000
0010
1000
0010
1000
,
0001
0010
0100
1000
0010
0100
0001
0010
,
0100
0000
1000
0020
0100
0000
0001
0000
,
1000
0000
0130
0000
0001
0010
0001
0000
,
0010
0000
0010
0000
0010
0100
0001
0100
,
1000
0100
0010
0001
1000
0001
0100
0010
,
1000
0100
0000
0120
0000
0000
0000
0000
,
0130
0010
0001
1000
0010
0100
0001
1000
,
0100
2002
0000
0000
,
3003
0000
0000
0000
;

//---------------dance-single - ----------------
#NOTES:
     dance-single:
     :
     Medium:
     9:
     0.379257,0.387601,0.106192,0.212384,0.000000,275.000000,264.000000,11.000000,22.000000,0.000000,0.000000,0.379257,0.387601,0.106192,0.212384,0.000000,275.000000,264.000000,11.000000,22.000000,0.000000,0.000000:
0000
0000
0000
0000
,
0000
0000
0000
0000
,
0000
0000
0000
0000
,
1001
0100
0010
0000
,
0100
1000
0010
0001
,
0100
0000
0010
0000
,
0001
0100
1000
1000
,
1001
0010
0100
0000
,
0010
0001
0100
1000
,
0010
0000
0100
0000
,
1000
0010
0001
0001
,
2001
3000
0002
0003
,
1000
0100
0001
0100
,
1000
1000
0010
0010
,
0001
0000
0100
0000
1000
0010
1000
0000
,
0002
0003
2000
3000
,
1000
0010
0001
0010
,
1000
1000
0001
0001
,
1000
0000
0100
0000
0001
0010
1000
0000
,
0002
0100
0000
0103
,
2000
0010
0000
3010
,
0001
0002
0103
0200
,
1300
2000
3010
0010
,
2000
0100
0000
3100
,
0002
0010
0000
0013
,
0100
0010
0100
0100
,
0010
0001
0100
0100
,
0010
0010
1000
1000
,
0100
0000
0100
0000
0001
0010
0001
0000
,
0010
0010
0100
0100
,
0001
0000
0001
0000
1000
0100
1000
0000
,
0010
0010
0100
0100
,
1000
0000
1000
0000
0001
0100
0001
0000
,
0010
1000
0100
0001
,
0010
0000
1000
0000
0100
0001
0001
0000
,
0100
1000
0102
0000
,
1000
1000
0100
0100
,
1003
0100
0010
0001
,
2010
0000
0001
0001
,
0010
0010
3001
0010
,
1100
0000
0101
0000
,
1001
2002
0000
3003
,
0100
0000
0010
0000
1000
0100
0010
0000
,
0100
0010
0001
0001
,
1000
0000
0010
0000
0001
0010
0001
0000
,
0010
0100
0001
1000
,
0010
0000
0100
0000
0001
0010
0100
0000
,
0010
0100
1000
1000
,
0001
0000
0100
0000
1000
0100
1000
0000
,
0100
0010
1000
0001
,
1000
0000
0000
1000
0000
0000
0100
0000
,
0001
0000
0000
0001
0000
0000
0010
0000
,
1000
0000
0000
1000
0000
0000
0100
0000
,
0001
0000
0000
0001
0000
0000
0000
0000
,
0100
0100
0001
0001
,
0010
0000
0010
0000
1000
0100
1000
0000
,
0100
0100
0010
0010
,
1000
0000
1000
0000
0001
0010
0001
0000
,
0100
0100
0010
0010
,
0001
0000
0001
0000
1000
0010
1000
0000
,
0100
0001
0010
1000
,
0100
0000
0001
0000
0010
1000
1000
0000
,
1002
0003
2000
3000
,
0001
0010
1000
0010
,
0001
0001
0100
0100
,
1000
0000
0010
0000
0001
0100
0001
0000
,
2000
3000
0002
0003
,
0001
0100
1000
0100
,
0001
0001
1000
1000
,
0001
0000
0010
0000
1000
0100
0001
0000
,
0100
0100
0000
0020
0000
0000
0000
0000
,
1030
0010
0001
0100
,
1000
2002
0000
0000
,
3003
0000
0000
0000
;

//---------------dance-double - ----------------
#NOTES:
     dance-double:
     :
     Easy:
     5:
     0.219279,0.246655,0.028961,0.038615,0.000000,159.000000,156.000000,3.000000,4.000000,0.000000,0.000000,0.219279,0.246655,0.028961,0.038615,0.000000,159.000000,156.000000,3.000000,4.000000,0.000000,0.000000:
// measure 0
00000000
00000000
00000000
00000000
,  // measure 1
00000000
00000000
00000000
00000000
,  // measure 2
00000000
00000000
00000000
00000000
,  // measure 3
00011000
00000000
00001000
00000000
,  // measure 4
00100000
00010000
01000000
00000000
,  // measure 5
10000000
00000000
01000000
00000000
,  // measure 6
00100000
00010000
00100000
00000000
,  // measure 7
00011000
00000000
00010000
00000000
,  // measure 8
00000010
00001000
00000100
00000000
,  // measure 9
00000001
00000000
00000100
00000000
,  // measure 10
00000010
00001000
00000010
00000000
,  // measure 11
00000001
00000000
00001000
00000000
,  // measure 12
00001000
00000000
00000001
00000000
,  // measure 13
00000100
00000000
00000010
00000000
,  // measure 14
00010000
00010000
00010000
00000000
,  // measure 15
01000000
00000000
00100000
00000000
,  // measure 16
10000000
00000000
10000000
00000000
,  // measure 17
01000000
00000000
00100000
00000000
,  // measure 18
10000000
00000000
00010000
00010000
,  // measure 19
00001000
00000000
00001000
00000000
,  // measure 20
00010000
00000000
00000100
00000000
,  // measure 21
00000010
00000000
00000001
00000000
,  // measure 22
00000100
00000000
00001000
00000000
,  // measure 23
00010000
00000000
00010000
00000000
,  // measure 24
00001000
00000000
01000000
00000000
,  // measure 25
00100000
00000000
10000000
00000000
,  // measure 26
01000000
00000000
00010000
00000000
,  // measure 27
01000000
00000000
10000000
00000000
,  // measure 28
01000000
00000000
00010000
00000000
,  // measure 29
00001000
00000000
00100000
00000000
,  // measure 30
00001000
00000000
00010000
00001000
,  // measure 31
00000100
00000000
00000001
00000000
,  // measure 32
00000100
00000000
00001000
00000000
,  // measure 33
00010000
00000000
00000010
00000000
,  // measure 34
00010000
00000000
00001000
00010000
,  // measure 35
00100000
00100000
01000000
00000000
,  // measure 36
00010000
00000000
00001000
00000000
,  // measure 37
00000010
00000000
00000100
00000100
,  // measure 38
00000010
00000000
00001000
00000000
,  // measure 39
00010000
00000000
01000000
00000000
,  // measure 40
00100000
00000000
00100000
00000000
,  // measure 41
00010000
00001000
00010000
00000000
,  // measure 42
00001000
00000000
00000010
00000000
,  // measure 43
00000001
00000000
00000100
00000000
,  // measure 44
00000001
00000000
00000010
00000000
,  // measure 45
00001000
00000000
00001000
00000000
,  // measure 46
00010000
00000000
01000000
00000000
,  // measure 47
10000000
00000000
00100000
00000000
,  // measure 48
10000000
00000000
01000000
00000000
,  // measure 49
00010000
00000000
00010000
10000000
,  // measure 50
00100000
00000000
00000000
00100000
00000000
00000000
00100000
00000000
,  // measure 51
00010000
00000000
00000000
00010000
00000000
00000000
00010000
00000000
,  // measure 52
00001000
00000000
00000000
00001000
00000000
00000000
00001000
00000000
,  // measure 53
00000010
00000000
00000000
00000010
00000000
00000000
00000000
00000000
,  // measure 54
00000010
00000000
00000001
00000000
,  // measure 55
00000010
00000000
00001000
00000000
,  // measure 56
00010000
00000000
00000100
00000000
,  // measure 57
00010000
00000000
00010000
00000000
,  // measure 58
00100000
00000000
10000000
00000000
,  // measure 59
00100000
00000000
00010000
00000000
,  // measure 60
00001000
00000000
01000000
00000000
,  // measure 61
00001000
00000000
00010000
00000000
,  // measure 62
10000000
00000000
00010000
00000000
,  // measure 63
00010000
00000000
10000000
00000000
,  // measure 64
00100000
00000000
01000000
00000000
,  // measure 65
00001000
00001000
00001000
00000000
,  // measure 66
00000010
00000000
00000100
00000000
,  // measure 67
00000001
00000000
00000001
00000000
,  // measure 68
00000010
00000000
00000100
00000000
,  // measure 69
00000001
00000000
00001000
00001000
,  // measure 70
00010000
00000000
00000000
00002000
00000000
00000000
00000000
00000000
,  // measure 71
00023000
00000000
00000000
00000000
,  // measure 72
00031000
00022000
00000000
00000000
,  // measure 73
00033000
00000000
00000000
00000000
;

//---------------dance-double - ----------------
#NOTES:
     dance-double:
     :
     Medium:
     9:
     0.365466,0.387601,0.106192,0.212384,0.000000,265.000000,254.000000,11.000000,22.000000,0.000000,0.000000,0.365466,0.387601,0.106192,0.212384,0.000000,265.000000,254.000000,11.000000,22.000000,0.000000,0.000000:
// measure 0
00000000
00000000
00000000
00000000
,  // measure 1
00000000
00000000
00000000
00000000
,  // measure 2
00000000
00000000
00000000
00000000
,  // measure 3
00011000
00100000
01000000
00000000
,  // measure 4
00010000
01000000
10000000
00100000
,  // measure 5
00010000
00010000
10000000
00000000
,  // measure 6
10000000
01000000
00010000
00010000
,  // measure 7
00011000
00000100
00000010
00000000
,  // measure 8
00001000
00000010
00000001
00000100
,  // measure 9
00001000
00001000
00000001
00000000
,  // measure 10
00000001
00000010
00001000
00001000
,  // measure 11
00021000
00030000
00000200
00000300
,  // measure 12
00001000
00000010
00000001
00000100
,  // measure 13
00001000
00001000
00010000
00010000
,  // measure 14
01000000
10000000
00100000
00010000
,  // measure 15
20000000
30000000
00020000
00030000
,  // measure 16
00100000
10000000
01000000
01000000
,  // measure 17
00010000
00001000
00010000
00001000
,  // measure 18
00000100
00000010
00001000
00000001
,  // measure 19
00000020
00001000
00000000
00001030
,  // measure 20
00020000
00100000
00000000
00130000
,  // measure 21
10000000
20000000
30010000
00020000
,  // measure 22
00031000
00002000
00003001
00000001
,  // measure 23
00000200
00001000
00000000
00001300
,  // measure 24
00020000
01000000
00000000
01030000
,  // measure 25
10000000
01000000
00010000
00100000
,  // measure 26
10000000
01000000
00010000
00001000
,  // measure 27
00000010
00000010
00000001
00000001
,  // measure 28
00000100
00000000
00000100
00000000
00000010
00001000
00000010
00000000
,  // measure 29
00010000
00010000
00001000
00001000
,  // measure 30
00100000
00000000
00010000
00000000
01000000
00010000
01000000
00000000
,  // measure 31
00100000
00100000
10000000
10000000
,  // measure 32
01000000
00000000
01000000
00000000
00100000
00010000
00100000
00000000
,  // measure 33
00001000
00001000
00010000
00010000
,  // measure 34
00000010
00000000
00001000
00000000
00000100
00001000
00000100
00000000
,  // measure 35
00000001
00001000
00012000
00000000
,  // measure 36
01000000
00000000
00100000
00000000
,  // measure 37
01003000
01000000
10000000
00010000
,  // measure 38
00021000
00000000
00000010
00000000
,  // measure 39
00000100
00000000
00030010
00000010
,  // measure 40
00000110
00000000
00001001
00000000
,  // measure 41
00011000
00022000
00000000
00033000
,  // measure 42
00001000
00000010
00000001
00000100
,  // measure 43
00001000
00000100
00000001
00000001
,  // measure 44
00000100
00000010
00001000
00001000
,  // measure 45
00010000
00010000
00001000
00000010
,  // measure 46
00010000
01000000
10000000
00100000
,  // measure 47
00010000
00100000
10000000
10000000
,  // measure 48
00100000
01000000
00010000
00010000
,  // measure 49
00001000
00001000
00010000
01000000
,  // measure 50
10000000
00000000
00000000
00010000
00000000
00000000
00001000
00000000
,  // measure 51
00000001
00000000
00000000
00001000
00000000
00000000
00010000
00000000
,  // measure 52
10000000
00000000
00000000
00010000
00000000
00000000
00001000
00000000
,  // measure 53
00000001
00000000
00000000
00001000
00000000
00000000
00000000
00000000
,  // measure 54
01000000
01000000
10000000
10000000
,  // measure 55
00100000
00000000
00100000
00000000
01000000
00010000
01000000
00000000
,  // measure 56
00001000
00001000
00010000
00010000
,  // measure 57
00000100
00000000
00001000
00000000
00000010
00001000
00000010
00000000
,  // measure 58
00000100
00000100
00000001
00000001
,  // measure 59
00000010
00000000
00000010
00000000
00000100
00001000
00000100
00000000
,  // measure 60
00010000
00010000
00001000
00001000
,  // measure 61
01000000
00000000
00010000
00000000
00100000
00010000
00100000
00000000
,  // measure 62
00012000
00003000
00200000
00300000
,  // measure 63
00010000
01000000
10000000
00100000
,  // measure 64
00010000
00010000
00001000
00001000
,  // measure 65
00000010
00000001
00000100
00001000
,  // measure 66
00000002
00000003
00002000
00003000
,  // measure 67
00000100
00000001
00000010
00000010
,  // measure 68
00001000
00010000
00001000
00010000
,  // measure 69
00100000
01000000
00010000
10000000
,  // measure 70
01000000
01000000
00000000
00020000
00000000
00000000
00000000
00000000
,  // measure 71
00031000
00000010
00010000
01000000
,  // measure 72
00001000
00022000
00000000
00000000
,  // measure 73
00033000
00000000
00000000
00000000
;

//---------------dance-double - ----------------
#NOTES:
     dance-double:
     :
     Hard:
     12:
     0.568196,0.599019,0.222038,0.154461,0.000000,412.000000,389.000000,23.000000,16.000000,0.000000,0.000000,0.568196,0.599019,0.222038,0.154461,0.000000,412.000000,389.000000,23.000000,16.000000,0.000000,0.000000:
// measure 0
00000000
00000000
00000000
00000000
,  // measure 1
00000000
00000000
00000000
00000000
,  // measure 2
00000000
00000000
00000000
00000000
,  // measure 3
00011000
00000000
00000100
00001000
00000000
00000010
00001000
00000000
,  // measure 4
00000100
00000010
00000001
00001000
00000010
00000100
00000010
00000000
,  // measure 5
00001000
00000000
00000100
00000001
00000000
00000010
00000001
00000000
,  // measure 6
00001000
00000010
00000001
00000100
00001000
00000000
00000110
00000000
,  // measure 7
00011000
00000000
00100000
00010000
00000000
01000000
00010000
00000000
,  // measure 8
00100000
01000000
10000000
00010000
01000000
00100000
01000000
00000000
,  // measure 9
00010000
00000000
00100000
10000000
00000000
01000000
10000000
00000000
,  // measure 10
00010000
01000000
10000000
00100000
00010000
00000000
01100000
00000000
,  // measure 11
10010000
00000000
10000000
02000000
00100000
00000000
00010000
00000000
,  // measure 12
10000000
00000000
03010000
00000000
00001000
00010000
00001000
00000000
,  // measure 13
00010000
00000100
00010000
00000100
00001000
00000100
00001000
00000100
,  // measure 14
00000010
00000001
00001000
00000010
00010000
00001000
01000000
00010000
,  // measure 15
00100000
00000000
01000000
20000000
00100000
00000000
00010000
00000000
,  // measure 16
01000000
30010000
00100000
01000000
,  // measure 17
10000000
00000000
10000000
00000000
10000000
00100000
01000000
00010000
,  // measure 18
00100000
00100000
00001000
01000000
00010000
00100000
01000000
10000000
,  // measure 19
00100000
00000000
00010000
00000000
10000000
00100000
10000000
00000000
,  // measure 20
00020000
00130000
00002000
00003010
,  // measure 21
00000001
00000000
00000001
00000100
00001000
00000000
00010000
01000000
,  // measure 22
10000000
00000000
10000000
00100000
00010000
00001000
00000010
00000000
,  // measure 23
00000100
00000000
00001000
00000000
00000001
00000100
00000001
00000000
,  // measure 24
00002000
00003100
00020000
01030000
,  // measure 25
10000000
00100000
00010000
00100000
10000000
00000000
10000000
01000000
,  // measure 26
00020000
00000000
00031000
00000010
00000001
00000100
00000010
00001000
,  // measure 27
00000001
00000000
00000001
00000000
00000001
00000100
00000001
00000100
,  // measure 28
00000010
00001000
00000100
00010000
00001000
00100000
00010000
01000000
,  // measure 29
00100000
00000000
00100000
00000000
00100000
10000000
00100000
10000000
,  // measure 30
01000000
00000000
01000000
00100000
00001000
00010000
00000010
00001000
,  // measure 31
00000100
00000000
00000100
00000000
00000100
00000010
00000100
00000010
,  // measure 32
00000001
00000100
00000010
00001000
00000100
00010000
00001000
00100000
,  // measure 33
00010000
01000000
10000000
00100000
,  // measure 34
00010000
00000000
01000000
00000000
10000000
00100000
00010000
00100000
,  // measure 35
00010000
00000000
10000000
00000000
01100000
00020000
00001000
00000000
,  // measure 36
00000100
00001000
00000010
00001000
,  // measure 37
00030100
00001000
00000010
00000000
00001000
00000000
00000001
00000000
,  // measure 38
00000110
00002000
00010000
00000000
00100000
00000000
00010000
00000000
,  // measure 39
01000000
00000000
00010000
00000000
00103000
00010000
01000000
00000000
,  // measure 40
00100000
00010000
00001000
00000000
00000010
00001000
00010000
00000000
,  // measure 41
01000000
00010000
00001000
00000100
00001000
00010000
01000000
00000000
,  // measure 42
01100000
00000000
01000000
20000000
00100000
00000000
01000000
00000000
,  // measure 43
00010000
00000000
30100000
00000000
10000000
00010000
00100000
00000000
,  // measure 44
01000000
10000000
00100000
00010000
,  // measure 45
00001000
00000000
00000010
00000000
00000100
00000010
00000100
00000000
,  // measure 46
00000110
00000000
00000010
00000002
00000100
00000000
00000010
00000000
,  // measure 47
00001000
00000000
00000103
00000000
00000001
00001000
00000100
00000000
,  // measure 48
00000010
00000001
00000100
00001000
,  // measure 49
00010000
00000000
01000000
00000000
00100000
01000000
00100000
01000000
,  // measure 50
01100000
00000000
00000000
10010000
00000000
00000000
00101000
00000000
,  // measure 51
00010100
00000000
00000000
00001001
00000000
00000000
00000110
00000000
,  // measure 52
00000110
00000000
00000000
00001001
00000000
00000000
00010010
00000000
,  // measure 53
01001000
00000000
00000000
10010000
00000000
00000000
00000000
00000000
,  // measure 54
10000000
00000000
10000000
00000000
10000000
00100000
10000000
00100000
,  // measure 55
01000000
00010000
00100000
00001000
00010000
00000100
00001000
00000010
,  // measure 56
00000100
00000000
00000100
00000000
00000100
00000001
00000100
00000001
,  // measure 57
00000010
00000000
00000010
00000100
00010000
00001000
01000000
00010000
,  // measure 58
00100000
00000000
00100000
00000000
00100000
01000000
00100000
01000000
,  // measure 59
10000000
00100000
01000000
00010000
00100000
00001000
00010000
00000100
,  // measure 60
00001000
00000010
00000001
00000100
,  // measure 61
00001000
00000000
00000010
00000000
00000001
00000100
00001000
00000000
,  // measure 62
00001001
00000000
00000001
00000020
00000100
00000000
00001000
00000000
,  // measure 63
00000001
00000000
00001030
00000000
00010000
00001000
00010000
00000000
,  // measure 64
00001000
00100000
00001000
00100000
00010000
00100000
00010000
00100000
,  // measure 65
01000000
10000000
00010000
01000000
00001000
00010000
00000010
00001000
,  // measure 66
00000100
00000000
00000010
00000002
00000100
00000000
00001000
00000000
,  // measure 67
00000010
00001003
00000100
00000010
,  // measure 68
00000001
00000000
00000001
00000000
00000001
00000100
00000010
00001000
,  // measure 69
00000100
00000100
00010000
00000010
00001000
00000100
00000010
00000001
,  // measure 70
00000100
00001000
00000000
00021000
00000000
00000000
00000000
00000000
,  // measure 71
00130000
10000000
01000000
00010000
00001000
00000100
00000001
00000010
,  // measure 72
00001000
00022000
00000000
00000000
,  // measure 73
00033000
00000000
00000000
00000000
;
