#TITLE:バラして!! ROSE ME;
#SUBTITLE:;
#ARTIST:Rosemi Lovelock;
#TITLETRANSLIT:Bara shite!! ROSE ME;
#SUBTITLETRANSLIT:;
#ARTISTTRANSLIT:;
#GENRE:にじさんじ;
#CREDIT:;
#BANNER:Bara shite!! ROSE ME.png;
#BACKGROUND:Bara shite!! ROSE ME-bg.png;
#LYRICSPATH:;
#CDTITLE:../cdtitle.png;
#MUSIC:Bara shite!! ROSE ME.ogg;
#OFFSET:0.844000;
#SAMPLESTART:73.821999;
#SAMPLELENGTH:15.000000;
#SELECTABLE:YES;
#BPMS:0.000000=180.000000
;
#STOPS:
;
#BGCHANGES:2.500=Bara shite!! ROSE ME.avi=1.000=0=0=0=StretchNoLoop====,
99999=-nosongbg-=1.000=0=0=0 // don't automatically add -songbackground-
;
#KEYSOUNDS:;
#ATTACKS:;

//---------------dance-single - ----------------
#NOTES:
     dance-single:
     :
     Challenge:
     17:
     0.857895,1.024545,0.444247,0.245922,0.583074,757.000000,701.000000,56.000000,31.000000,0.000000,0.000000,0.857895,1.024545,0.444247,0.245922,0.583074,757.000000,701.000000,56.000000,31.000000,0.000000,0.000000:
0000
0000
0000
0000
,
0000
0000
0000
0000
,
0000
0000
0000
0000
,
0000
0000
0000
0000
,
0000
0000
0000
0000
,
0000
0000
0000
0000
,
0000
0000
0000
0000
,
0000
0000
0000
0000
,
1000
0100
1000
0100
1000
0000
0000
0000
0010
0000
0010
0000
0010
0000
0000
0000
,
0001
0100
0001
0100
0001
0000
0000
0000
0010
0000
0010
0000
0010
0000
0000
0000
,
1000
0001
1000
0001
1000
0000
0000
0000
0100
0000
0100
0000
0100
0000
0000
0000
,
0010
0100
2002
3003
,
0100
1000
0001
1000
0100
0000
0000
0000
0010
0000
0001
0000
0011
0000
0000
0000
,
0001
1000
0010
1000
0001
0000
0000
0000
0100
0000
0010
0000
1010
0000
0000
0000
,
0001
0010
0100
0010
0001
0000
0000
0000
1000
0000
0100
0000
0001
0000
0000
0000
,
0100
0010
2002
3003
,
1000
0000
0100
0010
0001
0000
1000
0100
1000
0000
0001
0100
0001
0000
1000
0000
,
0010
0100
0001
0000
0010
0100
0010
0000
0100
1000
0001
1000
0100
0010
0001
1000
,
0010
0000
1000
0010
0100
0000
0010
1000
0100
0000
1000
0100
0010
0000
0001
0000
,
0010
0100
0010
0000
0001
1000
0001
0000
1000
0100
1000
0100
0010
0001
0010
0001
,
1000
0000
0100
0010
0001
0000
1000
0000
0001
0000
0010
0100
1000
0000
0001
0000
,
1000
0100
1000
0000
0010
0100
0010
0000
0100
0001
1000
0001
0010
0100
1000
0001
,
2000
0000
3000
0100
1000
1000
0000
1000
,
0001
0010
0000
0010
0001
0100
0010
1000
,
0001
0100
0000
0100
0001
1000
0000
1000
,
0100
0001
0000
0001
0100
1000
0001
0100
,
0010
0000
0000
1010
0000
0000
1001
0000
0001
0000
0000
0011
0000
0000
0110
0000
,
1100
0000
0000
0101
0000
0000
0110
0000
0000
0000
1001
0000
1001
0000
0000
0000
,
1000
0100
1000
0100
0010
0001
0010
0001
,
1000
0100
0010
0001
0100
0010
1000
0001
,
0100
0010
0100
0010
1000
0010
1000
0010
,
0100
0001
1000
0010
0100
0001
1000
0100
,
2000
0000
3010
0100
1000
0100
0001
0100
,
0010
0100
0001
0010
1000
0010
1000
0010
,
0002
0000
1003
0100
2000
0000
3001
0100
,
1100
0000
0000
0100
0000
0000
0101
0000
0000
0100
0000
0000
2100
0000
0000
0000
0000
0000
3001
0000
0000
1000
0100
0010
,
0001
0000
0011
0000
0100
1000
0100
1000
,
0001
0000
0000
0100
0000
0000
0001
0000
0000
1000
0000
0000
0010
0000
0000
0100
0000
0000
0001
0000
0000
1000
0100
0010
,
0001
0000
0000
0000
0110
0000
0000
0000
0001
0010
0001
0010
0001
0000
1000
0000
,
0010
0100
0010
0000
1000
0000
0001
0000
1000
0000
0100
0000
0010
0000
0100
0000
,
1000
0000
1100
0000
1000
0001
0010
0001
,
1000
0010
1000
0001
0100
0010
1000
0001
,
0010
0100
0010
0100
1000
0100
1000
0100
,
0010
0001
0100
0001
1000
0010
0100
0001
,
1000
1100
0100
0110
,
0001
1000
0001
0000
2002
0000
3003
0000
,
1100
0000
0000
0011
0000
0000
0110
0110
,
0000
0001
1000
0010
0100
0001
1000
0000
,
0101
0000
0000
1010
0000
0000
0110
0110
,
0000
0000
1000
0100
1000
0000
0001
0000
0010
0000
0100
0000
1000
0000
0020
0000
,
0000
1030
0100
0000
0010
0001
0000
1000
,
0000
0100
0000
1000
0001
0100
0010
0000
,
0101
1010
0000
1100
0000
0011
0000
0110
,
0000
2002
0000
3003
,
1000
0100
1000
0100
0010
0001
0010
0001
1000
0100
0010
0001
0100
0010
1000
0001
,
0200
0300
0200
0300
0100
0010
1001
0000
,
0110
0000
0001
1000
0010
0000
0100
0001
1000
0000
0001
1000
0100
0000
1000
0001
,
0010
0100
1000
0001
1000
0000
0100
0000
0010
0000
0001
0000
0011
0000
0001
0000
,
0100
0010
1000
0000
0001
0000
1000
0000
0010
0000
0010
0000
0100
0000
0100
0000
,
0001
0010
0001
0000
1000
0000
0100
0000
1000
0000
0001
0000
1001
0000
0001
0000
,
0010
0000
0100
1000
0100
0000
1000
0000
0001
0000
0000
0000
0101
0000
0001
0000
,
0010
0000
0100
0001
0100
0000
0010
0000
0110
0000
0000
0000
1100
0000
1000
0000
,
0001
0010
0011
0001
1000
0010
1010
0100
,
0001
0000
0010
0000
0100
0000
0010
0000
0001
0100
0001
0100
0010
1000
0010
1000
,
0001
0000
0010
0100
1000
0000
0100
1000
0010
0000
1000
0001
0100
0000
0010
0100
,
0001
0000
0000
0100
0000
0000
0001
0000
0000
0100
0000
0000
0001
0000
0000
0000
0010
0000
0000
0000
0100
0000
0000
0000
1000
0000
0000
0000
0000
0000
0100
0000
0000
0000
0000
0000
1100
0000
0000
0000
0000
0000
1002
0000
0000
0000
0000
0000
,
0000
0000
0013
0001
0100
0000
0010
0000
1000
0010
1000
0000
0010
0100
0010
0000
,
1000
0000
1000
0000
0100
0000
0100
0000
0010
0001
0010
0000
0001
0000
1000
0000
,
0002
0003
0011
0000
0011
0001
0100
0010
,
1000
0001
0100
0000
0001
1000
0100
0000
0010
0001
0010
0100
1000
0000
0001
0000
,
2000
3000
1100
0000
1100
1000
0010
0100
,
0001
1000
0001
1000
0001
0100
0001
0100
0010
1000
0010
0100
0001
1000
0100
0010
,
0001
0010
0001
0010
0001
0000
0000
0000
0100
0000
0100
0000
0100
0000
0000
0000
,
1000
0100
1000
0100
1000
0000
0000
0000
0010
0000
0010
0000
0010
0000
0000
0000
,
0001
1000
0001
1000
0001
0000
0000
0000
0100
0000
0100
0000
0100
0000
0000
0000
,
0010
0100
2002
3003
,
0010
0001
1000
0001
0010
0000
0000
0000
0100
0000
1000
0000
1100
0000
0000
0000
,
1000
0001
0100
0001
1000
0000
0000
0000
0010
0000
0100
0000
0101
0000
0000
0000
,
1000
0010
0100
0010
1000
0000
0000
0000
0001
0000
0010
0000
1000
0000
0000
0000
,
0010
0100
2002
3003
,
0001
0000
0010
0100
1000
0000
0001
0010
0001
0000
1000
0010
1000
0000
0001
0000
,
0100
0010
1000
0000
0100
0010
0100
0000
0010
0001
1000
0001
0010
0100
1000
0001
,
0100
0000
0001
0100
0010
0000
0100
0001
0010
0000
0001
0010
0100
0000
1000
0000
,
0100
0010
0100
0000
1000
0001
1000
0000
0001
0010
0001
0010
0100
1000
0100
1000
,
0001
0000
0100
0010
1000
0000
0001
0000
1000
0000
0010
0100
0001
0000
1000
0000
,
0001
0100
0001
0000
0010
0100
0010
0000
0100
1000
0100
0000
1000
0000
0001
0000
,
1000
0000
0100
0010
0001
0000
1000
0000
0001
0000
0010
0100
1000
0000
0001
0000
,
1000
0100
1000
0000
0010
0100
0010
0000
0100
0001
0100
0001
0010
0100
1000
0001
,
1000
1000
0100
0100
0010
0010
0001
0001
,
2000
3200
0320
0032
0203
0320
2030
3002
,
0013
0100
1000
0010
1000
0100
0010
0001
0100
0010
0001
0010
,
0100
0000
0010
0000
1000
0000
0100
0010
0100
0000
0010
0000
0001
0000
1000
0000
,
0000
1001
0000
0000
;

//---------------dance-single - ----------------
#NOTES:
     dance-single:
     :
     Beginner:
     4:
     0.179059,0.292727,0.174526,0.079330,0.000000,158.000000,136.000000,22.000000,10.000000,0.000000,0.000000,0.179059,0.292727,0.174526,0.079330,0.000000,158.000000,136.000000,22.000000,10.000000,0.000000,0.000000:
0000
0000
0000
0000
,
0000
0000
0000
0000
,
0000
0000
0000
0000
,
0000
0000
0000
0000
,
0000
0000
0000
0000
,
0000
0000
0000
0000
,
0000
0000
0000
0000
,
0000
0000
0000
0000
,
1001
0000
0000
0000
,
1001
0000
0000
0000
,
0110
0000
0000
0000
,
0100
0100
0100
0000
,
0110
0000
0000
0000
,
0110
0000
0000
0000
,
1001
0000
0000
0000
,
0010
0000
0000
0000
,
1000
0000
1000
0000
,
1000
0000
0010
0000
,
0001
0000
0001
0000
,
0001
0000
0100
0000
,
1000
0000
0010
0000
,
0100
0000
0001
0000
,
1000
0000
0000
0000
,
1000
0000
0000
0000
,
0001
0000
0000
0000
,
0001
0000
0000
0000
,
1000
0000
0001
0000
,
1001
0000
0000
0000
,
0100
0100
0100
0000
,
0010
0010
0010
0000
,
1000
0000
1000
0000
,
0001
0000
1000
0000
,
0002
0000
0003
0000
,
0001
0000
1000
0000
,
0200
0000
0300
0000
,
0010
0010
0010
0000
,
0110
0000
0001
0000
,
1000
0000
0001
0000
,
1001
0000
0010
0000
,
0100
0000
0010
0000
,
0110
0000
1000
0000
,
0001
0000
1000
0000
,
0020
0000
0000
0000
,
0030
0000
0000
0000
,
0100
0100
0100
0000
,
0020
0000
0030
0000
,
1001
0000
0000
0000
,
0000
0000
0000
0000
,
0110
0000
0000
0000
,
0000
0000
0000
0000
,
2000
0000
3000
0000
,
0002
0000
0003
0000
,
1001
0000
0000
0000
,
0000
0000
0000
0000
,
0020
0000
0000
0000
,
0030
0000
0000
0000
,
0001
0000
1000
0000
,
0001
0000
0001
0000
,
1000
0000
0010
0000
,
0001
0000
0010
0000
,
1000
1000
1000
0000
,
0001
0001
0001
0000
,
1001
0000
1001
0000
,
0100
0100
0100
0000
,
1000
0000
0001
0000
,
1000
1000
1000
0000
,
0001
0000
0100
0000
,
1000
0000
0100
0000
,
0002
0000
0003
0000
,
1000
1000
1000
0000
,
0020
0000
0030
0000
,
0100
0100
0100
0000
,
1001
0000
0000
0000
,
1001
0000
0000
0000
,
0110
0000
0000
0000
,
0100
0100
0100
0000
,
0110
0000
0000
0000
,
0110
0000
0000
0000
,
1001
0000
0000
0000
,
0010
0000
0000
0000
,
0001
0000
0001
0000
,
0001
0000
0100
0000
,
1000
0000
1000
0000
,
1000
0000
0010
0000
,
0001
0000
0100
0000
,
0010
0000
1000
0000
,
0001
0000
0010
0000
,
0100
0000
1000
0000
,
0002
0000
0000
0000
,
0000
0000
0000
0000
,
0003
0000
0000
0000
,
0100
0000
0010
0010
,
0000
1001
0000
0000
;

//---------------dance-single - ----------------
#NOTES:
     dance-single:
     :
     Easy:
     8:
     0.353584,0.512272,0.333185,0.134861,0.000000,312.000000,270.000000,42.000000,17.000000,0.000000,0.000000,0.353584,0.512272,0.333185,0.134861,0.000000,312.000000,270.000000,42.000000,17.000000,0.000000,0.000000:
0000
0000
0000
0000
,
0000
0000
0000
0000
,
0000
0000
0000
0000
,
0000
0000
0000
0000
,
0000
0000
0000
0000
,
0000
0000
0000
0000
,
0000
0000
0000
0000
,
0000
0000
0000
0000
,
0100
0110
0000
0000
,
0001
1001
0000
0000
,
0010
0110
0000
0000
,
1000
0001
1001
0000
,
0001
0101
0010
0010
,
1000
1100
0010
0010
,
0001
1001
0010
0010
,
0100
0010
0110
0000
,
1000
0100
0001
0100
,
1000
0000
0100
0000
0010
0100
0010
0000
,
0001
0100
1000
0100
,
0001
0000
0010
0000
0100
1000
0001
0000
,
1000
1100
0001
0101
,
1000
0010
0100
0000
0001
0010
0100
0000
,
2000
3000
0001
0000
,
1000
0000
0010
0100
,
0001
0000
1000
0000
,
0001
0000
0010
0100
,
1000
0000
0001
0000
,
1001
0000
0000
0000
,
1000
1000
1000
0000
,
0010
0010
0100
0010
,
0000
1000
0001
0001
,
0010
0100
0010
0001
,
2000
3000
0001
0001
,
1000
0010
0001
0010
,
2000
3000
0001
0000
,
0100
0100
0100
0000
,
0001
1001
1000
0100
,
0010
0001
1000
0010
,
0100
0110
0001
1000
,
0100
1000
0010
0100
,
0001
1001
1000
0100
,
0010
0100
0010
0001
,
1000
1000
0001
0001
,
0010
0100
1000
0001
,
0100
0100
0010
0010
,
0100
0010
0220
0330
,
1001
0000
0000
0001
0000
0000
0100
0000
,
0000
0000
0000
0000
,
0110
0000
0000
1000
0000
0000
0100
0000
,
0000
0000
0000
0000
,
2000
0000
3000
0000
,
0002
0000
0003
0000
,
1001
0000
0000
0100
0000
0100
0000
0010
,
0000
0220
0000
0000
,
0000
0000
0000
0000
,
0330
0000
0000
0000
,
1000
0100
0010
0100
,
1000
0001
1001
0000
,
0001
0000
0100
0000
0010
0100
0010
0000
,
1000
0100
1000
0000
0001
0000
0000
0000
,
0001
0000
0010
0100
0020
0000
0030
0000
,
0001
0100
0110
0110
,
1001
0000
0101
0000
,
1000
0100
0020
0030
,
0001
0010
0100
0010
,
0001
0000
1000
0000
1001
0000
0000
0100
,
0000
0000
1000
0000
0010
0100
0010
0000
,
1000
0001
0010
0100
,
1000
1001
2002
3003
,
0001
0000
0100
0000
0010
0100
0010
0000
,
1000
1001
2002
3003
,
0010
1000
0200
0300
,
0010
0110
0000
0000
,
0001
1001
0000
0000
,
0100
0110
0000
0000
,
1000
0001
1001
0000
,
0001
0011
0100
0100
,
1000
1010
0100
0100
,
0001
1001
0100
0100
,
0010
0100
0110
0000
,
1000
0010
0001
0010
,
1000
0000
0010
0000
0100
0010
0100
0000
,
0001
0010
1000
0010
,
0001
0000
0100
0000
0010
1000
0001
0000
,
1000
1010
0001
0011
,
1000
0100
0010
0000
0001
0100
0010
0000
,
1000
1100
0001
0101
,
1000
0010
0100
0000
0001
0010
0100
0000
,
2000
0000
0000
0000
,
0000
0000
0000
0000
,
0000
0000
0000
0000
,
3010
0100
0001
1000
,
0000
1001
0000
0000
;

//---------------dance-double - ----------------
#NOTES:
     dance-double:
     :
     Challenge:
     17:
     0.839763,0.987954,0.412515,0.245922,0.535476,741.000000,689.000000,52.000000,31.000000,0.000000,0.000000,0.839763,0.987954,0.412515,0.245922,0.535476,741.000000,689.000000,52.000000,31.000000,0.000000,0.000000:
00000000
00000000
00000000
00000000
,
00000000
00000000
00000000
00000000
,
00000000
00000000
00000000
00000000
,
00000000
00000000
00000000
00000000
,
00000000
00000000
00000000
00000000
,
00000000
00000000
00000000
00000000
,
00000000
00000000
00000000
00000000
,
00000000
00000000
00000000
00000000
,
10000000
00010000
10000000
00010000
10000000
00000000
00000000
00000000
01000000
00000000
01000000
00000000
01000000
00000000
00000000
00000000
,
00100000
00010000
00100000
00010000
00100000
00000000
00000000
00000000
00001000
00000000
00001000
00000000
00001000
00000000
00000000
00000000
,
00000100
00000010
00000100
00000010
00000100
00000000
00000000
00000000
00000001
00000000
00000001
00000000
00000001
00000000
00000000
00000000
,
00000010
00000100
00002002
00003003
,
00000001
00001000
00000100
00001000
00000001
00000000
00000000
00000000
00000100
00000000
00000010
00000000
00001010
00000000
00000000
00000000
,
00010000
00001000
00100000
00001000
00010000
00000000
00000000
00000000
01000000
00000000
00100000
00000000
01100000
00000000
00000000
00000000
,
10000000
00010000
00100000
00010000
10000000
00000000
00000000
00000000
00100000
00000000
01000000
00000000
00001000
00000000
00000000
00000000
,
00010000
00001000
00022000
00033000
,
00001000
00000000
00100000
00000000
00010000
01000000
00100000
00000000
10000000
00100000
10000000
00000000
00100000
01000000
00010000
00000000
,
10000000
01000000
10000000
00000000
01000000
10000000
00010000
00000000
00100000
01000000
00100000
00010000
10000000
00010000
01000000
00000000
,
00100000
00000000
01000000
00001000
00010000
00000000
00001000
00010000
00000010
00000000
00001000
00000001
00000100
00000000
00000010
00000000
,
00001000
00000010
00001000
00000000
00000001
00000010
00000001
00000000
00001000
00000100
00000010
00000100
00001000
00000010
00000100
00000001
,
00001000
00000000
00000001
00000100
00000010
00000000
00001000
00000000
00000100
00000000
00000010
00001000
00000010
00000000
00000100
00000000
,
00001000
00000100
00001000
00000000
00000001
00000100
00000010
00000000
00001000
00000010
00010000
00000010
00001000
00000100
00001000
00000100
,
00020000
00000000
00030000
00000100
00001000
00001000
00000000
00000010
,
00001000
00001000
00000000
00000001
00000010
00000100
00010000
00001000
,
00010000
01000000
00000000
01000000
10000000
00010000
00000000
00010000
,
01000000
00100000
00000000
00100000
00010000
00100000
10000000
01000000
,
00010000
00000000
00000000
00110000
00000000
00000000
00101000
00000000
00010000
00000000
00000000
01010000
00000000
00000000
01001000
00000000
,
00010000
00000000
00000000
00011000
00000000
00000000
00011000
00000000
00000000
00000000
00000110
00000000
00000110
00000000
00000000
00000000
,
00001000
00000100
00001000
00000100
00000010
00000001
00000010
00000001
,
00001000
00000100
00000010
00000001
00000100
00000010
00001000
00000100
,
00010000
00001000
00010000
00001000
01000000
00001000
01000000
00001000
,
00010000
00001000
00100000
00010000
00100000
01000000
10000000
00010000
,
20000000
00000000
31000000
00100000
00010000
01000000
00100000
00010000
,
00001000
00001000
00010000
00010000
00001000
00000100
00000010
00001000
,
00000002
00000000
00001003
00000100
00002000
00000000
00003001
00000010
,
00001000
00000000
00001000
00000000
00010000
00000000
00010000
00000000
00002000
00000000
00000000
00000000
00103000
00000000
00001000
01000000
,
00100000
00000000
01100000
00000000
01000000
00010000
01000000
00100000
,
10000000
00000000
00010000
00000000
01000000
00000000
00010000
00000000
10000000
00000000
01000000
00000000
00100000
00000000
00001000
00010000
,
00001000
00000000
00000000
00000000
00011000
00000000
00000000
00000000
00000010
00001000
00000010
00010000
00000010
00000000
00001000
00000000
,
00000100
00010000
00000100
00000000
00001000
00000000
00000010
00000000
00000100
00000000
00000001
00000000
00001000
00000000
00000100
00000000
,
00010000
00000000
00011000
00000000
00001000
00010000
01000000
00010000
,
00001000
00000010
00001000
00000010
00000001
00000010
00000100
00001000
,
00000010
00000100
00000010
00000100
00001000
00010000
00001000
00010000
,
00100000
01000000
10000000
01000000
00100000
00010000
00001000
00010000
,
00001000
00001010
00000010
00000011
,
00000100
00000010
00000100
00000000
00002002
00000000
00003003
00000000
,
00000011
00000000
00000000
00001100
00000000
00000000
00000110
00000110
,
00000000
00000001
00000100
00001000
00010000
00100000
10000000
00000000
,
11000000
00000000
00000000
00110000
00000000
00000000
01100000
01100000
,
00000000
00000000
10000000
01000000
10000000
00000000
00010000
00000000
01000000
00000000
00100000
00000000
10000000
00000000
00020000
00000000
,
00000000
01030000
00010000
00000000
10000000
01000000
00000000
00010000
,
00000000
00001000
00000000
00010000
00001000
00000010
00000001
00000000
,
00000011
00001001
00000000
00001100
00000000
00011000
00000000
00010010
,
00000000
00022000
00000000
00033000
,
00010000
00001000
00010000
00001000
00010000
00001000
00010000
00001000
00100000
00010000
01000000
00100000
10000000
00010000
01000000
00010000
,
20000000
30000000
20000000
30000000
01000000
00100000
01100000
00000000
,
10010000
00000000
00010000
10000000
01000000
00000000
10000000
00010000
01000000
00000000
00010000
10000000
00100000
00000000
01000000
00000000
,
00010000
00100000
00010000
00000000
10000000
00000000
01000000
00000000
00010000
00000000
00001000
00000000
00011000
00000000
00010000
00000000
,
00001000
00000100
00001000
00000000
00000100
00000000
00000001
00000000
00000010
00000000
00000010
00000000
00000100
00000000
00000100
00000000
,
00001000
00000001
00001000
00000000
00000100
00000000
00000010
00000000
00000001
00000000
00001000
00000000
00001001
00000000
00000010
00000000
,
00001000
00000000
00000100
00000010
00000100
00000000
00010000
00000000
00001000
00000000
00000000
00000000
00011000
00000000
00010000
00000000
,
00001000
00000000
00100000
00000000
00110000
00000000
00010000
01000000
00100000
00000000
00000000
00000000
01100000
00000000
10000000
00000000
,
00010000
01000000
01010000
00010000
10000000
01000000
11000000
00100000
,
00010000
00000000
01000000
00000000
00100000
00000000
00010000
00000000
00001000
00010000
00001000
00010000
00001000
00000000
00010000
00000000
,
00000010
00000000
00001000
00000001
00000100
00000000
00000001
00001000
00000100
00000000
00001000
00000001
00000010
00000000
00000100
00000000
,
00000010
00000000
00000000
00000000
00000000
00000000
00000001
00000000
00000000
00001000
00000000
00000000
00000001
00000000
00000000
00000000
00000100
00000000
00000000
00000000
00000010
00000000
00000000
00000000
00001000
00000000
00000000
00000000
00000000
00000000
00000010
00000000
00000000
00000000
00000000
00000000
00010010
00000000
00000000
00000000
00000000
00000000
00021000
00000000
00000000
00000000
00000000
00000000
,
00000000
00000000
00031000
00010000
00001000
00000000
01000000
00000000
00010000
00100000
01000000
00000000
10000000
00000000
00010000
10000000
,
00010000
00000000
00010000
00000000
10000000
00000000
10000000
00000000
01000000
00100000
00010000
00000000
01000000
00000000
00100000
00000000
,
20000000
30000000
10010000
00000000
10010000
10000000
01000000
00100000
,
00010000
00100000
00010000
00000000
00100000
00010000
00100000
00000000
00001000
00010000
00001000
00010000
00000100
00000000
00001000
00000000
,
00000002
00000003
00001001
00000000
00001001
00000001
00000100
00000010
,
00001000
00000010
00001000
00000010
00010000
00001000
00010000
00001000
01000000
00010000
00100000
00001000
00010000
00000100
00001000
00000000
,
00000001
00001000
00000001
00001000
00000001
00000000
00000000
00000000
00000100
00000000
00000100
00000000
00000100
00000000
00000000
00000000
,
00000010
00001000
00000010
00001000
00000010
00000000
00000000
00000000
00010000
00000000
00010000
00000000
00010000
00000000
00000000
00000000
,
01000000
00100000
01000000
00100000
01000000
00000000
00000000
00000000
10000000
00000000
10000000
00000000
10000000
00000000
00000000
00000000
,
00100000
01000000
20020000
30030000
,
10000000
00010000
01000000
00010000
10000000
00000000
00000000
00000000
01000000
00000000
00100000
00000000
00110000
00000000
00000000
00000000
,
00001000
00010000
00000010
00010000
00001000
00000000
00000000
00000000
00000100
00000000
00000010
00000000
00000110
00000000
00000000
00000000
,
00000001
00001000
00000010
00001000
00000001
00000000
00000000
00000000
00000010
00000000
00000100
00000000
00010000
00000000
00000000
00000000
,
00001000
00010000
00022000
00033000
,
00010000
00000000
00000010
00000000
00001000
00000100
00000010
00000000
00000001
00000010
00000001
00000000
00000010
00000100
00001000
00000000
,
00000001
00000100
00000001
00000000
00000100
00000001
00001000
00000000
00000010
00000100
00000010
00001000
00000001
00001000
00000100
00000000
,
00000010
00000000
00000100
00010000
00001000
00000000
00010000
00001000
00100000
00000000
00010000
10000000
01000000
00000000
00100000
00000000
,
00010000
00100000
00010000
00000000
10000000
00100000
10000000
00000000
00010000
01000000
00100000
01000000
00010000
00100000
01000000
10000000
,
00010000
00000000
10000000
01000000
10000000
00000000
00010000
00000000
01000000
00000000
00100000
10000000
00100000
00000000
01000000
00000000
,
00010000
01000000
00010000
00000000
00100000
00010000
00100000
00000000
00001000
00010000
00001000
00000000
00010000
00000000
00000100
00000000
,
00001000
00000000
00000001
00000010
00000100
00000000
00001000
00000000
00000010
00000000
00000100
00001000
00000100
00000000
00000010
00000000
,
00001000
00000010
00001000
00000000
00000001
00000010
00000100
00000000
00001000
00000100
00010000
00000010
00001000
00000010
00010000
00000000
,
00001000
00100000
00001000
00100000
00010000
01000000
00010000
01000000
,
00200000
20300000
32000000
03200000
00320000
00032000
00003200
00000320
,
00000031
00000010
00000100
00001000
00000100
00010000
00001000
00010000
00000100
00001000
00000010
00000100
,
00000001
00000000
00000010
00000000
00001000
00000000
00010000
00001000
00010000
00000000
01000000
00000000
10000000
00000000
00010000
00000000
,
00000000
10010000
00000000
00000000
;

//---------------dance-single - ----------------
#NOTES:
     dance-single:
     :
     Medium:
     10:
     0.447647,0.548863,0.333185,0.182459,0.011899,395.000000,353.000000,42.000000,23.000000,0.000000,0.000000,0.447647,0.548863,0.333185,0.182459,0.011899,395.000000,353.000000,42.000000,23.000000,0.000000,0.000000:
0000
0000
0000
0000
,
0000
0000
0000
0000
,
0000
0000
0000
0000
,
0000
0000
0000
0000
,
0000
0000
0000
0000
,
0000
0000
0000
0000
,
0000
0000
0000
0000
,
0000
0000
0000
0000
,
1000
0100
1000
0000
0000
0000
0000
0000
,
0001
0100
0001
0000
0000
0000
0000
0000
,
0100
0010
0100
0000
0000
0000
0000
0000
,
0001
1000
1001
0000
,
0001
0010
0100
0000
1000
0000
1000
0000
,
0100
0010
0001
0000
1000
0000
1000
0000
,
0001
0100
0010
0000
1000
0000
1000
0000
,
0010
0100
0220
0330
,
1000
1010
0001
0011
,
1000
0000
1100
0000
0001
0100
0010
1000
,
0001
0011
1000
1100
,
0001
0000
0101
0000
0001
0010
0100
1000
,
0001
0110
1000
0110
,
0001
0100
0010
0000
1000
0100
0010
0100
,
2000
0000
3000
1000
0001
0000
0000
0000
,
0100
0000
0000
0000
0010
0100
0010
0000
,
1000
0000
0000
0001
0100
0000
0000
0000
,
0001
0000
0000
0000
0010
0100
0010
0000
,
0001
0000
0000
0001
0000
0000
0001
0000
0100
0000
0000
0100
0000
0000
0100
0000
,
0010
0000
0000
0010
0000
0000
0010
0000
0000
0000
1000
0000
0001
0000
0000
0000
,
1000
0100
1000
0000
0100
0000
0100
0000
,
0001
0000
0001
0000
0100
1000
0001
0000
,
0010
0010
1000
1000
,
0010
0100
0010
0001
0000
1000
0000
1000
,
0002
0000
0003
0000
0001
0100
0010
0000
,
0100
0000
0001
1000
0000
0100
0000
0010
,
0200
0300
0100
0000
,
1000
0000
1000
0100
1000
0000
0010
0100
,
0001
1001
0001
0010
,
1000
0000
0010
0000
0001
0000
0010
0100
,
1000
1001
0001
0100
,
1000
0100
1000
0000
0100
0010
0100
0000
,
0001
1001
0010
0010
,
1000
1000
0001
0001
,
1000
0100
0001
0100
,
1000
0000
0010
0000
0100
0001
1000
0000
,
0001
0101
0010
1010
,
0001
0010
0100
0000
0220
0000
0330
0000
,
1001
0000
0000
0010
0000
0000
0100
0010
,
0000
0000
0000
0000
,
0110
0000
0000
1000
0000
0000
1000
0001
,
0000
0000
0000
0000
,
2000
0000
3100
0000
,
0002
0000
0013
0000
,
1000
0001
0000
0100
0000
0010
0000
1000
,
0000
2002
0000
0000
,
0000
0000
0000
0000
,
3003
0000
0000
0000
,
1000
0010
1000
0100
,
0001
0100
1000
0000
1001
0000
0001
0000
,
1000
0000
1000
0000
0100
0001
0100
0000
,
1000
0100
1000
0000
1001
0000
0001
0000
,
1000
0000
0010
0100
0001
0000
1000
0000
,
0001
0010
0110
0110
,
1001
0000
0101
0000
,
1000
0100
1000
0000
0200
0000
0310
0000
,
0001
0010
1000
0010
,
0001
0000
0001
0000
1000
0000
0010
0100
,
0000
0100
0010
0000
1000
0000
0100
0000
,
0010
0001
0010
0000
0100
1000
0001
0000
,
0100
0110
0220
0330
,
0001
0000
1000
0000
0100
0010
0001
0000
,
1000
1001
2002
3003
,
0001
0100
0010
0000
2000
0000
3001
0000
,
1000
0100
1000
0000
0000
0000
0000
0000
,
0001
0100
0001
0000
0000
0000
0000
0000
,
0100
0010
0100
0000
0000
0000
0000
0000
,
0001
1000
1001
0000
,
0001
0010
0100
0000
1000
0000
1000
0000
,
0100
0010
0001
0000
1000
0000
1000
0000
,
0001
0100
0010
0000
1000
0000
1000
0000
,
0010
0100
0220
0330
,
1000
1010
0001
0011
,
1000
0000
1100
0000
0001
0100
0010
1000
,
0001
0011
1000
1100
,
0001
0000
0101
0000
0001
0010
0100
1000
,
0001
0101
0010
1010
,
0001
0010
0100
0000
1000
0100
0010
0001
,
1000
1100
0010
0011
,
1000
0010
0100
0000
0001
0100
0010
1000
,
0001
0001
0100
0000
0010
0010
1000
0000
,
0100
0010
0100
0010
0100
1000
0100
1000
,
0002
0023
0230
2300
,
3010
0100
0010
0000
0100
0001
1000
0001
,
0000
1001
0000
0000
;

//---------------dance-single - ----------------
#NOTES:
     dance-single:
     :
     Hard:
     13:
     0.652771,0.658636,0.356984,0.245922,0.027765,576.000000,531.000000,45.000000,31.000000,0.000000,0.000000,0.652771,0.658636,0.356984,0.245922,0.027765,576.000000,531.000000,45.000000,31.000000,0.000000,0.000000:
0000
0000
0000
0000
,
0000
0000
0000
0000
,
0000
0000
0000
0000
,
0000
0000
0000
0000
,
0000
0000
0000
0000
,
0000
0000
0000
0000
,
0000
0000
0000
0000
,
0000
0000
0000
0000
,
1000
0100
1100
0000
0000
0000
0000
0000
,
0001
0100
0101
0000
0000
0000
0000
0000
,
0010
0100
0110
0000
0000
0000
0000
0000
,
0100
0110
2002
3003
,
0001
0100
0010
0000
1000
1000
0100
0000
,
1000
0100
0010
0000
0001
0001
0100
0000
,
0010
1000
0100
0000
0010
0010
0100
0000
,
1000
0001
2002
3003
,
1000
0100
0010
0100
1000
0010
0100
0010
,
1000
0001
0010
0001
0100
0010
1000
0001
,
1000
1000
0100
0010
0100
0001
0100
1000
,
0001
0010
1000
0010
0100
0100
0010
0001
,
1000
1000
0100
0010
0001
0001
0010
0100
,
1000
0000
0001
0000
0100
0000
0001
0000
1000
0010
0100
0000
0001
0000
1000
0000
,
0002
0000
0003
0010
0001
0001
0000
1000
,
0001
0001
0000
0100
0001
1000
0010
0100
,
0001
1000
0000
1000
0100
0100
0000
0001
,
0100
0100
0000
1000
0001
0010
0100
0010
,
0001
0000
0000
0100
0000
0000
0101
0000
0001
0000
0000
1000
0000
0000
1100
0000
,
0010
0000
0000
0100
0000
0000
0110
0000
0000
0000
1001
0000
1001
0000
0000
0000
,
0100
0001
0100
0001
0010
0001
0010
0001
,
1000
0100
0010
0001
0100
0010
1000
0001
,
1000
0100
1000
0100
0001
0100
0001
0100
,
1000
0100
0001
0100
1000
0001
0100
0010
,
2000
0000
3010
0100
1000
0100
0010
0100
,
0001
0000
0010
0100
0001
0100
0010
0100
,
2000
0000
3100
0001
0100
0000
1000
0100
,
1000
1000
0001
0001
0200
0000
0310
1000
,
0001
0000
1001
0000
0001
0010
0100
1000
,
0001
0010
1000
0010
0001
1000
0001
0001
,
0100
0000
0110
0000
0100
0001
1000
0010
,
0100
0001
0010
0001
0100
0010
0100
0100
,
1000
0000
1001
0000
1000
0100
0010
0001
,
1000
0010
0100
0010
1000
0010
0001
0010
,
1000
0001
1000
0001
0100
0001
0100
0001
,
1000
0010
0100
0010
1000
0100
0001
0100
,
1000
1100
0001
0101
,
0010
0100
0010
0000
0220
0000
0330
0000
,
1010
0000
0000
0110
0000
0000
0001
1000
,
0000
0100
1000
0000
0100
0010
0001
0000
,
0011
0000
0000
0110
0000
0000
1000
0001
,
0000
0100
0001
0000
0100
0010
1000
0002
,
0000
0103
0001
0000
1000
0100
0000
1000
,
0000
0001
0000
0001
0100
0010
1000
0000
,
0010
0010
0000
1100
0000
0101
0000
0011
,
0000
0220
0000
0330
,
1000
0100
0010
0001
1000
0100
0010
0001
,
0200
0300
0200
0300
0100
0010
0110
0000
,
1001
0001
0010
0001
0100
0001
1000
0010
,
0100
0001
1000
0000
1001
0001
0010
0100
,
1000
0100
0001
0100
1000
0001
0100
0010
,
1000
0010
0100
0000
0110
0000
0010
1000
,
0100
0010
0100
0010
0001
0000
1000
0001
,
0100
0010
0100
0010
0110
0000
0110
0000
,
0001
0010
0011
0000
1000
0100
1100
0000
,
0001
0100
0010
1000
0001
0000
1001
0000
,
1000
0001
0100
0001
0010
0001
1000
0100
,
0010
0000
0100
0000
1000
0001
1000
0000
0001
0000
0100
0000
0010
0000
2000
0000
,
0000
3010
0100
0001
0010
0100
0010
0000
,
0001
0001
1000
1000
0100
0010
0001
0100
,
0010
0110
0210
0301
,
1000
0100
1000
0001
0010
0001
0100
0010
,
1000
1001
1002
0103
,
0010
1000
0100
0010
0001
1000
0002
0000
,
1003
0100
1100
0000
0000
0000
0000
0000
,
0001
0100
0101
0000
0000
0000
0000
0000
,
0010
0100
0110
0000
0000
0000
0000
0000
,
0100
0110
2002
3003
,
0001
0100
0010
0000
1000
1000
0100
0000
,
1000
0100
0010
0000
0001
0001
0100
0000
,
0010
1000
0100
0000
0010
0010
0100
0000
,
1000
0001
2002
3003
,
1000
0100
0010
0100
1000
0010
0100
0010
,
1000
0001
0010
0001
0100
0010
1000
0001
,
1000
1000
0100
0010
0100
0001
0100
1000
,
0001
0010
1000
0010
0100
0100
0010
0001
,
1000
1000
0100
0010
0001
0001
0010
0100
,
1000
0000
0001
0000
0100
0000
0001
0000
1000
0010
0100
0000
0001
0000
1000
0000
,
0001
0001
0010
0100
1000
1000
0100
0010
,
0001
0000
1000
0000
0010
0000
1000
0000
0001
0100
0010
0000
1000
0000
0001
0000
,
1000
1000
0100
0100
0010
0010
0001
0001
,
1000
0100
0010
0001
1000
0010
0100
0001
,
0020
0230
2300
3002
2003
3200
0320
0032
,
1003
1000
0001
0001
0100
0010
1000
0001
,
0000
1001
0000
0000
;

//---------------dance-double - ----------------
#NOTES:
     dance-double:
     :
     Easy:
     8:
     0.354718,0.512272,0.341118,0.134861,0.000000,313.000000,270.000000,43.000000,17.000000,0.000000,0.000000,0.354718,0.512272,0.341118,0.134861,0.000000,313.000000,270.000000,43.000000,17.000000,0.000000,0.000000:
00000000
00000000
00000000
00000000
,
00000000
00000000
00000000
00000000
,
00000000
00000000
00000000
00000000
,
00000000
00000000
00000000
00000000
,
00000000
00000000
00000000
00000000
,
00000000
00000000
00000000
00000000
,
00000000
00000000
00000000
00000000
,
00000000
00000000
00000000
00000000
,
00100000
00110000
00000000
00000000
,
00001000
00011000
00000000
00000000
,
01000000
01010000
00000000
00000000
,
00001000
00010000
00011000
00000000
,
00000100
00001100
00000010
00000010
,
00000001
00000101
00000010
00000010
,
00001000
00001100
00010000
00010000
,
00001000
00010000
00011000
00000000
,
00001000
00010000
00100000
00010000
,
00001000
00000000
00010000
00000000
01000000
00100000
01000000
00000000
,
10000000
00100000
01000000
00100000
,
10000000
00000000
01000000
00000000
00100000
00010000
00100000
00000000
,
00001000
00011000
01000000
01010000
,
00001000
00010000
00000100
00000000
00001000
00000010
00000100
00000000
,
00000002
00000003
00001000
00000000
,
00000010
00000000
00000100
00000010
,
00010000
00000000
00001000
00000000
,
00100000
00000000
01000000
00100000
,
00010000
00000000
10000000
00000000
,
10010000
00000000
00000000
00000000
,
10000000
01000000
10000000
00000000
,
00010000
01000000
00100000
00100000
,
00000000
00010000
00001000
00001000
,
00010000
00001000
00000100
00000001
,
00002000
00003000
00000010
00000010
,
00001000
00000100
00000001
00000100
,
00002000
00003000
00000001
00000000
,
00000100
00000100
00000010
00000000
,
00010000
00011000
00001000
00100000
,
00010000
01000000
00100000
00010000
,
00001000
00011000
00010000
00000010
,
00001000
00000100
00000010
00001000
,
00010000
00011000
00001000
00100000
,
10000000
00010000
10000000
00100000
,
00010000
00010000
10000000
10000000
,
00100000
01000000
00001000
00010000
,
00000010
00000010
00001000
00001000
,
00000100
00000010
00000220
00000330
,
00001001
00000000
00000000
00000010
00000000
00000000
00010000
00000000
,
00000000
00000000
00000000
00000000
,
00011000
00000000
00000000
00100000
00000000
00000000
01000000
00000000
,
00000000
00000000
00000000
00000000
,
20000000
00000000
30000000
00000000
,
00020000
00000000
00030000
00000000
,
01100000
00000000
00000000
00010000
00000000
00010000
00000000
00001000
,
00000000
00022000
00000000
00000000
,
00000000
00000000
00000000
00000000
,
00033000
00000000
00000000
00000000
,
00000010
00001000
00010000
00001000
,
00000010
00000001
00001001
00000000
,
00000010
00000000
00000100
00000000
00001000
00010000
00001000
00000000
,
00100000
00010000
00100000
00000000
01100000
00000000
00000000
00000000
,
10000000
00000000
01000000
00100000
02000000
00000000
03000000
00000000
,
10000000
00010000
01100000
01100000
,
00011000
00000000
00000110
00000000
,
00000001
00001000
00000002
00000003
,
00000100
00001000
00010000
00001000
,
00000100
00000000
00000001
00000000
00001001
00000000
00000000
00000010
,
00000000
00000100
00000010
00000010
,
00001000
00010000
00001000
00000000
00100000
00000000
00010000
00000000
,
01000000
01100000
02200000
03300000
,
00010000
00000000
10000000
00000000
01000000
00100000
01000000
00000000
,
00010000
00011000
00022000
00033000
,
00000100
00001000
00000020
00000030
,
00000100
00001100
00000000
00000000
,
00010000
00011000
00000000
00000000
,
00000010
00001010
00000000
00000000
,
00010000
00001000
00011000
00000000
,
00100000
00110000
01000000
01000000
,
10000000
10100000
01000000
01000000
,
00010000
00110000
00001000
00001000
,
00010000
00001000
00011000
00000000
,
00010000
00001000
00000100
00001000
,
00010000
00000000
00001000
00000000
00000010
00000100
00000010
00000000
,
00000001
00000100
00000010
00000100
,
00000001
00000000
00000010
00000000
00000100
00001000
00000100
00000000
,
00010000
00011000
00000010
00001010
,
00010000
00001000
00100000
00000000
00010000
01000000
00100000
00000000
,
00010000
00011000
00000100
00001100
,
00010000
00001000
01000000
00000000
00010000
00100000
01000000
00000000
,
00020000
00000000
00000000
00000000
,
00000000
00000000
00000000
00000000
,
00000000
00000000
00000000
00000000
,
00031000
00000010
00000001
00001000
,
00000000
00001001
00000000
00000000
;

//---------------dance-double - ----------------
#NOTES:
     dance-double:
     :
     Medium:
     10:
     0.436314,0.548863,0.364917,0.182459,0.011899,385.000000,339.000000,46.000000,23.000000,0.000000,0.000000,0.436314,0.548863,0.364917,0.182459,0.011899,385.000000,339.000000,46.000000,23.000000,0.000000,0.000000:
00000000
00000000
00000000
00000000
,
00000000
00000000
00000000
00000000
,
00000000
00000000
00000000
00000000
,
00000000
00000000
00000000
00000000
,
00000000
00000000
00000000
00000000
,
00000000
00000000
00000000
00000000
,
00000000
00000000
00000000
00000000
,
00000000
00000000
00000000
00000000
,
10000000
01000000
10000000
00000000
00000000
00000000
00000000
00000000
,
00010000
01000000
00010000
00000000
00000000
00000000
00000000
00000000
,
00100000
00001000
00100000
00000000
00000000
00000000
00000000
00000000
,
00001000
00010000
00011000
00000000
,
00000010
00001000
00000001
00000000
00000100
00000000
00000100
00000000
,
00000001
00000010
00000100
00000000
00001000
00000000
00001000
00000000
,
00000100
00010000
00001000
00000000
00010000
00000000
00010000
00000000
,
01000000
10000000
20020000
30030000
,
10000000
11000000
00010000
00110000
,
01000000
00000000
01010000
00000000
10000000
00100000
00010000
00000000
,
00001000
00001100
00000100
00000101
,
00000001
00000000
00000011
00000000
00000100
00000010
00000100
00000000
,
00010000
00011000
00000100
00001100
,
00010000
00001000
00100000
00000000
00001000
00010000
00100000
01000000
,
00020000
00030000
10000000
00000000
,
01000000
00000000
00000000
00000000
00100000
01000000
00100000
00000000
,
00010000
00000000
10000000
00000000
,
00100000
00000000
00000000
00000000
01000000
00100000
01000000
00000000
,
00001000
00000000
00000000
00001000
00000000
00000000
00001000
00000000
00010000
00000000
00000000
00010000
00000000
00000000
00010000
00000000
,
00000100
00000000
00000000
00000100
00000000
00000000
00000100
00000000
00000000
00000000
00000000
00000000
00000110
00000000
00000000
00000000
,
00000001
00000001
00001000
00001000
,
00000001
00000000
00000100
00000000
00001000
00010000
00001000
00000000
,
01000000
00001000
00010000
00001000
,
00100000
00010000
00100000
01000000
00000000
10000000
00000000
00010000
,
02000000
03000000
01000000
00100000
,
00010000
00000000
00010000
00001000
00000000
00000010
00000000
00000001
,
00002000
00003000
00000001
00000000
,
00001000
00000000
00001000
00000010
00000100
00000000
00000100
00000000
,
00000001
00001001
00000010
00000010
,
00001000
00000000
00001000
00000000
00010000
00000000
00100000
01000000
,
00100000
10010000
01000000
01000000
,
00010000
00001000
00010000
00000000
00001000
00000100
00000010
00000000
,
00000100
00001001
00000010
00000010
,
00001000
00001000
00010000
00000100
,
00000010
00000010
00000001
00000001
,
00001000
00000001
00000100
00001000
,
00010000
00110000
00100000
10100000
,
00010000
00100000
00010000
00000000
02200000
00000000
03300000
00000000
,
10010000
00000000
00000000
01010000
00000000
00000000
00001000
00010000
,
00000000
00000000
00000000
00000000
,
00010100
00000000
00000000
00000011
00000000
00000000
00001000
00000010
,
00000000
00000000
00000000
00000000
,
00000200
00000000
00001300
00000000
,
00020000
00000000
01030000
00000000
,
10000000
01000000
00000000
00100000
00000000
00001000
00000000
00010000
,
00000000
00022000
00000000
00000000
,
00000000
00000000
00000000
00000000
,
00033000
00000000
00000000
00000000
,
00100000
00010000
01000000
00001000
,
00100000
00010000
10000000
00000000
10010000
00000000
00010000
00000000
,
10000000
00000000
10000000
00000000
00100000
00010000
00100000
00000000
,
01000000
00010000
01000000
00000000
00011000
00000000
00001000
00000000
,
00010000
00000000
00001000
00000010
00000100
00000000
00000000
00000000
,
00000010
00000001
00001001
00001001
,
00000110
00000000
00001010
00000000
,
00010000
00001000
00010000
00000000
00000200
00000000
00000300
00000000
,
00000100
00001000
00000010
00010000
,
00000100
00000000
00000100
00000000
00000110
00000000
00000001
00001000
,
00000000
00001000
00000001
00000000
00000100
00000000
00000100
00000000
,
00000010
00001000
00000010
00000000
00010000
00001000
00010000
00000000
,
01000000
01100000
02200000
03300000
,
10000000
00000000
00010000
00000000
01000000
00001000
00010000
00000000
,
00000010
00000110
00000220
00000330
,
00001000
00000001
00000010
00000000
00000200
00000000
00001300
00000000
,
00000001
00000010
00000001
00000000
00000000
00000000
00000000
00000000
,
00001000
00000010
00001000
00000000
00000000
00000000
00000000
00000000
,
00000100
00010000
00000100
00000000
00000000
00000000
00000000
00000000
,
00010000
00001000
00011000
00000000
,
01000000
00010000
10000000
00000000
00100000
00000000
00100000
00000000
,
10000000
01000000
00100000
00000000
00010000
00000000
00010000
00000000
,
00100000
00001000
00010000
00000000
00001000
00000000
00001000
00000000
,
00000010
00000001
00002002
00003003
,
00000001
00000011
00001000
00001100
,
00000010
00000000
00001010
00000000
00000001
00000100
00001000
00000000
,
00010000
00110000
00100000
10100000
,
10000000
00000000
11000000
00000000
00100000
01000000
00100000
00000000
,
00001000
00011000
00100000
00110000
,
00001000
00010000
00000100
00000000
00010000
00001000
00000100
00000010
,
00010000
00011000
00000100
00001100
,
00010000
00001000
00100000
00000000
00001000
00010000
00100000
01000000
,
00010000
10000000
00010000
00000000
00100000
00010000
00100000
00000000
,
00001000
00010000
00001000
00010000
00000100
00001000
00000100
00001000
,
00000002
00000203
00000320
00020030
,
00031000
00000000
00001000
00000000
00100000
01000000
00100000
01000000
,
00000000
10010000
00000000
00000000
;

//---------------dance-double - ----------------
#NOTES:
     dance-double:
     :
     Hard:
     13:
     0.642572,0.658636,0.356984,0.245922,0.011899,567.000000,522.000000,45.000000,31.000000,0.000000,0.000000,0.642572,0.658636,0.356984,0.245922,0.011899,567.000000,522.000000,45.000000,31.000000,0.000000,0.000000:
// measure 0
00000000
00000000
00000000
00000000
,  // measure 1
00000000
00000000
00000000
00000000
,  // measure 2
00000000
00000000
00000000
00000000
,  // measure 3
00000000
00000000
00000000
00000000
,  // measure 4
00000000
00000000
00000000
00000000
,  // measure 5
00000000
00000000
00000000
00000000
,  // measure 6
00000000
00000000
00000000
00000000
,  // measure 7
00000000
00000000
00000000
00000000
,  // measure 8
01000000
00010000
01010000
00000000
00000000
00000000
00000000
00000000
,  // measure 9
00010000
00100000
00110000
00000000
00000000
00000000
00000000
00000000
,  // measure 10
00001000
00010000
00011000
00000000
00000000
00000000
00000000
00000000
,  // measure 11
00000100
00000110
00002002
00003003
,  // measure 12
00000001
00000010
00000100
00000000
00001000
00000100
00010000
00000000
,  // measure 13
00001000
01000000
00010000
00000000
01000000
00100000
10000000
00000000
,  // measure 14
00010000
01000000
00001000
00000000
00010000
01000000
10000000
00000000
,  // measure 15
01000000
00100000
02200000
03300000
,  // measure 16
10000000
00010000
01000000
00010000
10000000
00100000
01000000
00010000
,  // measure 17
00100000
00001000
00100000
00010000
10000000
01000000
00010000
00001000
,  // measure 18
00000010
00000100
00001000
00000100
00000010
00000001
00001000
00000010
,  // measure 19
00000100
00001000
00000100
00000010
00010000
00010000
00001000
01000000
,  // measure 20
00100000
10000000
00100000
10000000
01000000
00100000
01000000
10000000
,  // measure 21
00010000
00010000
00100000
00010000
10000000
00100000
01000000
00001000
,  // measure 22
00020000
00000000
00030000
00001000
00010000
00010000
00000000
00000100
,  // measure 23
00010000
00010000
00000000
00001000
00010000
00000010
00001000
00000001
,  // measure 24
00000100
00001000
00000000
00010000
00001000
00001000
00000000
01000000
,  // measure 25
00001000
00001000
00000000
00010000
00001000
00100000
00010000
01000000
,  // measure 26
00100000
00000000
00000000
10000000
00000000
00000000
11000000
00000000
01000000
00000000
00000000
00010000
00000000
00000000
01010000
00000000
,  // measure 27
00001000
00000000
00000000
00011000
00000000
00000000
00010100
00000000
00000000
00000000
00000001
00000000
00001001
00000000
00000000
00000000
,  // measure 28
00001000
00000100
00001000
00000100
00000010
00000001
00000000
00000001
,  // measure 29
00001000
00000010
00001000
00000010
00000100
00001000
00010000
00001000
,  // measure 30
00000000
00001000
00010000
00100000
01000000
00010000
01000000
00010000
,  // measure 31
10000000
00100000
01000000
00010000
10000000
01000000
00100000
01000000
,  // measure 32
20000000
00000000
30100000
10000000
00010000
01000000
00100000
00010000
,  // measure 33
00001000
00000000
00010000
00001000
00000010
00001000
00000010
00000001
,  // measure 34
00002000
00000000
00003100
00010000
00001000
00000000
00010000
00000100
,  // measure 35
00000010
00000010
00000001
00000001
00000200
00000000
00000310
00001000
,  // measure 36
00000001
00000000
00001001
00000000
00000001
00000010
00000100
00001000
,  // measure 37
00000001
00000010
00000100
00001000
00000010
00000100
00001000
00010000
,  // measure 38
00001000
00000000
00011000
00000000
00001000
00010000
00100000
01000000
,  // measure 39
00010000
00100000
01000000
10000000
01000000
00100000
00010000
10000000
,  // measure 40
00010000
00000000
10010000
00000000
10000000
01000000
00100000
00010000
,  // measure 41
01000000
00100000
00010000
00001000
00010000
00100000
01000000
00010000
,  // measure 42
10000000
01000000
10000000
01000000
00100000
00010000
00100000
00010000
,  // measure 43
00001000
00000100
00000010
00000001
00000100
00000010
00001000
00000001
,  // measure 44
00000100
00000110
00000010
00001010
,  // measure 45
00010000
00001000
00010000
00000000
00022000
00000000
00033000
00000000
,  // measure 46
00110000
00000000
00000000
11000000
00000000
00000000
10000000
00100000
,  // measure 47
00000000
00000000
01000000
00000000
00001000
00010000
00000010
00000000
,  // measure 48
00001010
00000000
00000000
00000101
00000000
00000000
00000001
00000010
,  // measure 49
00000000
00000010
00000100
00000000
00010000
00001000
00100000
00010000
,  // measure 50
00000000
00010000
00100000
00000000
01000000
10000000
00000000
10000000
,  // measure 51
00000000
00010000
00000000
01000000
00100000
10000000
00010000
00000000
,  // measure 52
01000000
01100000
00000000
00110000
00000000
00011000
00000000
00010100
,  // measure 53
00000000
00000220
00000000
00000330
,  // measure 54
00001000
00000100
00000010
00000001
00001000
00000010
00000100
00001000
,  // measure 55
00020000
00030000
00020000
00030000
00010000
00010000
00001000
00000000
,  // measure 56
00011000
00001000
00100000
00010000
01000000
00100000
01000000
00010000
,  // measure 57
10000000
01000000
00100000
00000000
01100000
00100000
00010000
10000000
,  // measure 58
00100000
01000000
00100000
00010000
00001000
00001000
02000000
00000000
,  // measure 59
03001000
00010000
00000100
00010000
00011000
00000000
00001000
00010000
,  // measure 60
00000010
00000100
00000010
00000100
00000001
00000000
00001000
00000100
,  // measure 61
00000010
00000001
00000010
00000001
00000011
00000000
00000110
00000000
,  // measure 62
00001000
00000001
00000101
00000000
00000100
00001000
00011000
00000000
,  // measure 63
00100000
01000000
00010000
00001000
00010000
00000000
00011000
00000000
,  // measure 64
00001000
00010000
00000010
00001000
00000100
00000010
00000100
00001000
,  // measure 65
00000001
00000100
00000010
00000010
00001000
00000010
00000100
00000002
,  // measure 66
00000000
00000013
00001000
00001000
00010000
00001000
00010000
00000000
,  // measure 67
00001000
00001000
00100000
00100000
00010000
01000000
00100000
10000000
,  // measure 68
00010000
10010000
20010000
31000000
,  // measure 69
00100000
00010000
00100000
00001000
00010000
00001000
00000100
00000001
,  // measure 70
00001000
00001001
00002001
00003100
,  // measure 71
00000010
00000001
00000100
00001000
00020000
00000000
01030000
00000000
,  // measure 72
00100000
00010000
00110000
00000000
00000000
00000000
00000000
00000000
,  // measure 73
00010000
01000000
01010000
00000000
00000000
00000000
00000000
00000000
,  // measure 74
00001000
00010000
00011000
00000000
00000000
00000000
00000000
00000000
,  // measure 75
00000010
00000110
00002002
00003003
,  // measure 76
00000001
00000100
00000010
00000000
00001000
00000010
00010000
00000000
,  // measure 77
00001000
00100000
00010000
00000000
00100000
01000000
10000000
00000000
,  // measure 78
00010000
00100000
00001000
00000000
00010000
00100000
10000000
00000000
,  // measure 79
00100000
01000000
02200000
03300000
,  // measure 80
10000000
00010000
00100000
00010000
10000000
01000000
00100000
00010000
,  // measure 81
01000000
00001000
01000000
00010000
10000000
00100000
00010000
00001000
,  // measure 82
00000100
00000010
00001000
00000010
00000100
00000001
00001000
00000100
,  // measure 83
00000010
00001000
00000010
00000100
00010000
00010000
00001000
00100000
,  // measure 84
01000000
10000000
01000000
10000000
00100000
01000000
00100000
10000000
,  // measure 85
00010000
00010000
01000000
00010000
10000000
01000000
00100000
00001000
,  // measure 86
00010000
00010000
00000100
00000010
00000001
00000001
00000010
00000100
,  // measure 87
00001000
00001000
00000001
00000100
00000010
00001000
00000001
00000000
,  // measure 88
00000100
00000100
00001000
00001000
00010000
00010000
00100000
00100000
,  // measure 89
10000000
01000000
10000000
01000000
00100000
00010000
00100000
00010000
,  // measure 90
00002000
00003200
00000320
00000032
00002003
00003020
00000230
00000302
,  // measure 91
00001003
00001000
00000100
00000100
00010000
01000000
10000000
00010000
,  // measure 92
00000000
10010000
00000000
00000000
;
