#TITLE:BRILLIANT 2U;
#SUBTITLE:(LED-Special);
#ARTIST:NAOKI;
#TITLETRANSLIT:;
#SUBTITLETRANSLIT:;
#ARTISTTRANSLIT:;
#GENRE:BEMANI;
#CREDIT:;
#BANNER:BRILLIANT 2U (LED-Special).png;
#BACKGROUND:../bg.png;
#LYRICSPATH:;
#CDTITLE:../cdtitle.png;
#MUSIC:BRILLIANT 2U (LED-Special).ogg;
#OFFSET:0.000000;
#SAMPLESTART:27.197001;
#SAMPLELENGTH:15.000000;
#SELECTABLE:YES;
#DISPLAYBPM:150.000000;
#BPMS:0.000000=150.000000
;
#STOPS:
;
#BGCHANGES:3.000=BRILLIANT 2U (LED-Special).avi=1.000=0=0=0=StretchNoLoop====,
99999=-nosongbg-=1.000=0=0=0 // don't automatically add -songbackground-
;
#KEYSOUNDS:;
#ATTACKS:;

//---------------dance-single - ----------------
#NOTES:
     dance-single:
     :
     Challenge:
     14:
     0.684524,0.767361,0.567130,0.231481,0.572917,414.000000,365.000000,49.000000,20.000000,4.000000,0.000000,0.684524,0.767361,0.567130,0.231481,0.572917,414.000000,365.000000,49.000000,20.000000,4.000000,0.000000:
// measure 0
0000
0000
0000
0000
,  // measure 1
0000
0000
0000
0000
,  // measure 2
0000
0000
0000
0000
,  // measure 3
0000
0000
0000
0000
,  // measure 4
0000
0000
0000
0000
,  // measure 5
0000
0010
0000
0010
,  // measure 6
0000
0100
0000
0100
,  // measure 7
0000
0010
0000
0010
,  // measure 8
1100
0000
0000
0000
0101
0000
0000
0000
1001
0000
0000
0000
1000
0100
1000
0100
,  // measure 9
0010
0000
0000
0010
0001
0000
0100
0000
0010
1000
0000
0000
1100
0000
0000
0000
,  // measure 10
0001
0000
0010
0000
1000
0010
0000
0000
0001
0000
0001
0000
1000
0100
1000
0000
,  // measure 11
0110
0000
0000
0000
0011
0000
0000
0000
0101
0000
0010
1000
0001
0100
0000
0000
,  // measure 12
0110
0000
1000
0000
0001
0000
0100
0010
1000
0010
1000
0100
0010
0000
0001
0100
,  // measure 13
0002
0000
0003
0001
0100
0000
0010
0000
1000
0001
0000
0000
1100
0000
0000
0000
,  // measure 14
0100
0000
0100
0000
0002
0000
0000
0000
0103
1000
0000
0100
0010
0000
0001
0000
,  // measure 15
0110
0001
0101
0010
1010
0001
0011
0010
,  // measure 16
0100
1000
0100
1000
0001
0000
0010
0000
0100
1000
0100
0000
1000
0000
0001
0000
,  // measure 17
1001
0000
1000
0100
0000
0100
0001
0000
0001
0010
0000
0010
1000
0000
0001
0000
,  // measure 18
1001
0000
0011
0000
1100
0000
0100
0100
,  // measure 19
0002
0000
0003
0001
0100
0000
0100
0000
1000
0010
0000
0010
1000
0000
0100
0000
,  // measure 20
0110
0000
1001
0000
1010
0000
0100
0100
,  // measure 21
0002
0000
0003
0001
1000
0000
0100
0000
0010
0001
0000
0100
0010
0000
1000
0000
,  // measure 22
1001
0000
0011
0000
1100
0000
0100
0100
,  // measure 23
0002
0000
0003
0001
0100
0000
0100
0000
1000
0010
0000
0010
1000
0000
0100
0000
,  // measure 24
0010
0001
0010
0001
1000
0000
0100
1000
0010
0000
0100
0000
0110
0000
0010
0000
,  // measure 25
1000
0000
0100
0000
0010
0001
0000
1000
0000
0200
0000
0000
0310
0001
1000
0100
,  // measure 26
0010
0000
0001
0000
0100
0010
0000
0010
2000
0000
0000
0000
3001
0000
0000
0000
,  // measure 27
0100
0000
0001
0000
0010
0100
0000
1000
0000
0002
0000
0000
0013
0100
0010
0001
,  // measure 28
0100
0000
0010
0000
1000
0100
0000
0100
0020
0000
0000
0000
0031
0000
0000
0000
,  // measure 29
1000
0000
0010
0000
0100
0001
0000
1000
0000
0020
0000
0000
0130
0001
1000
0010
,  // measure 30
0100
0000
0001
0000
0010
0100
0000
0100
2000
0000
0000
0000
3001
0000
0000
0000
,  // measure 31
0010
0000
0001
0000
0100
0010
0000
1000
0000
0002
0000
0000
0103
0000
0010
0000
,  // measure 32
1000
0100
1000
0100
0010
0001
0010
0001
1000
0100
0010
0001
0100
0010
1000
0100
,  // measure 33
0020
0000
0030
0010
0001
0000
0100
0000
0010
1000
0000
0000
1100
0000
0000
0000
,  // measure 34
0001
0000
0010
0000
1000
0010
0000
0000
0001
0000
0001
0000
1000
0100
1000
0000
,  // measure 35
0110
0000
0000
0000
0011
0000
0000
0000
0101
0000
0010
1000
0001
0100
0000
0000
,  // measure 36
0110
0000
1000
0000
0001
0000
0100
0010
1000
0010
1000
0100
0010
0000
0001
0100
,  // measure 37
0002
0000
0003
0001
0100
0000
0010
0000
1000
0001
0000
0000
1100
0000
0000
0000
,  // measure 38
0100
0000
0100
0000
0002
0000
0000
0000
0103
1000
0000
0100
0010
0000
0001
0000
,  // measure 39
0110
0001
0101
0010
1010
0001
0011
0010
,  // measure 40
0100
1000
0100
1000
0001
0000
0010
0000
0100
1000
0100
0000
1000
0000
0001
0000
,  // measure 41
1001
0000
1000
0100
0000
0100
0001
0000
0001
0010
0000
0010
1000
0000
0001
0000
,  // measure 42
1001
0000
0011
0000
1100
0000
0100
0100
,  // measure 43
0002
0000
0003
0001
0100
0000
0100
0000
1000
0010
0000
0010
1000
0000
0100
0000
,  // measure 44
0110
0000
1001
0000
1010
0000
0100
0100
,  // measure 45
0002
0000
0003
0001
1000
0000
0100
0000
0010
0001
0000
0100
0010
0000
1000
0000
,  // measure 46
1001
0000
0000
0000
0011
0000
0000
0000
1100
0000
1000
0100
1000
0010
0000
0000
,  // measure 47
0110
0000
0100
0000
0002
0000
0000
0000
1003
0010
0000
0100
0010
0000
1000
0000
,  // measure 48
1100
0000
0100
0000
0002
0000
0103
0000
2000
0000
3100
0000
0010
0001
1000
0000
,  // measure 49
0110
0100
0010
0000
0100
0000
0100
0010
,  // measure 50
1001
0010
MMMM
0010
0100
0010
0100
0010
,  // measure 51
1001
0000
0000
0000
;

//---------------dance-double - ----------------
#NOTES:
     dance-double:
     :
     Challenge:
     14:
     0.677910,0.767361,0.532407,0.219907,0.567130,410.000000,364.000000,46.000000,19.000000,8.000000,0.000000,0.677910,0.767361,0.532407,0.219907,0.567130,410.000000,364.000000,46.000000,19.000000,8.000000,0.000000:
00000000
00000000
00000000
00000000
,
00000000
00000000
00000000
00000000
,
00000000
00000000
00000000
00000000
,
00000000
00000000
00000000
00000000
,
00000000
00000000
00000000
00000000
,
00000000
00100000
00000000
00100000
,
00000000
01000000
00000000
01000000
,
00000000
00000100
00000000
00000100
,
00001010
00000000
00000000
00000000
00011000
00000000
00000000
00000000
00001100
00000000
00000000
00000000
00000010
00000001
00000010
00000001
,
00001000
00000000
00000000
00000010
00000100
00000000
00001000
00000000
00010000
00001000
00000000
00000000
00011000
00000000
00000000
00000000
,
00100000
00000000
00010000
00000000
01000000
00100000
00000000
00000000
10000000
00000000
10000000
00000000
01000000
00100000
00010000
00000000
,
01100000
00000000
00000000
00000000
01010000
00000000
00000000
00000000
00011000
00000000
00100000
00010000
00100000
00001000
00000000
00000000
,
00011000
00000000
00000010
00000000
00000100
00000000
00001000
00000100
00000010
00000100
00000001
00001000
00000010
00000000
00010000
00001000
,
00000200
00000000
00000300
00001000
00010000
00000000
01000000
00000000
01000000
10000000
00000000
00000000
10010000
00000000
00000000
00000000
,
01000000
00000000
01000000
00000000
00020000
00000000
00000000
00000000
01030000
10000000
00000000
10000000
01000000
00000000
00100000
00000000
,
01100000
00010000
01010000
00001000
00011000
00100000
00110000
00001000
,
00010000
00001000
00010000
00001000
00000100
00000000
00000010
00000000
00001000
00000100
00000010
00000000
00000001
00000000
00000001
00000000
,
00001001
00000000
00000001
00000010
00000000
00000010
00001000
00000000
00001000
00010000
00000000
00010000
00100000
00000000
10000000
00000000
,
10010000
00000000
00110000
00000000
00011000
00000000
00000100
00000100
,
00000002
00000000
00000003
00000001
00000100
00000000
00000010
00000000
00001000
00000100
00000000
00001000
00000100
00000000
00000010
00000000
,
00000110
00000000
00011000
00000000
01100000
00000000
01000000
01000000
,
00020000
00000000
00030000
00010000
00001000
00000000
00001000
00000000
00100000
00010000
00000000
10000000
01000000
00000000
10000000
00000000
,
10100000
00000000
01010000
00000000
11000000
00000000
01000000
01000000
,
00020000
00000000
00030000
00010000
00001000
00000000
00001000
00000000
00000100
00000001
00000000
00000001
00000100
00000000
00000010
00000000
,
00001000
00000001
00001000
00000001
00001000
00000000
00000100
00000000
00000010
00000000
00000010
00000000
00001000
00000000
00010000
00000000
,
00001000
00000000
00001000
00000000
00100000
00010000
00000000
01000000
00000000
00200000
00000000
00000000
01300000
00010000
10000000
00100000
,
01000000
00000000
00100000
00000000
10000000
01000000
00000000
01000000
00020000
00000000
00000000
00000000
00031000
00000000
00000000
00000000
,
00010000
00000000
00010000
00000000
01000000
00010000
00000000
00001000
00000000
00000020
00000000
00000000
00001030
00010000
00001000
00010000
,
00001000
00000000
00100000
00000000
00010000
01000000
00000000
01000000
00200000
00000000
00000000
00000000
10300000
00000000
00000000
00000000
,
01000000
00000000
01000000
00000000
00010000
00001000
00000000
00010000
00000000
00002000
00000000
00000000
00003100
00000001
00001000
00000010
,
00000100
00000000
00000001
00000000
00000010
00000100
00000000
00000100
00000020
00000000
00000000
00000000
00000031
00000000
00000000
00000000
,
00001000
00000000
00000010
00000000
00000100
00000010
00000000
00001000
00000000
00000020
00000000
00000000
00000130
00000000
00001000
00000000
,
00010000
00100000
00010000
00100000
01000000
00001000
01000000
00001000
00010000
00001000
00000100
00000010
00001000
00000100
00000010
00000001
,
00000200
00000000
00000300
00000010
00000100
00000000
00001000
00000000
00010000
00001000
00000000
00000000
00011000
00000000
00000000
00000000
,
00100000
00000000
00010000
00000000
01000000
00100000
00000000
00000000
10000000
00000000
10000000
00000000
01000000
00100000
00010000
00000000
,
01100000
00000000
00000000
00000000
01010000
00000000
00000000
00000000
00011000
00000000
00100000
00010000
00100000
00001000
00000000
00000000
,
00011000
00000000
00000010
00000000
00000100
00000000
00001000
00000100
00000010
00000100
00000001
00001000
00000010
00000000
00010000
00001000
,
00000200
00000000
00000300
00001000
00010000
00000000
01000000
00000000
01000000
10000000
00000000
00000000
10010000
00000000
00000000
00000000
,
01000000
00000000
01000000
00000000
00020000
00000000
00000000
00000000
01030000
10000000
00000000
10000000
01000000
00000000
00100000
00000000
,
01100000
00010000
01010000
00001000
00011000
00100000
00110000
00001000
,
00010000
00001000
00010000
00001000
00000100
00000000
00000010
00000000
00001000
00000100
00000010
00000000
00000001
00000000
00000001
00000000
,
00001001
00000000
00000001
00000010
00000000
00000010
00001000
00000000
00001000
00010000
00000000
00010000
00100000
00000000
10000000
00000000
,
10010000
00000000
00110000
00000000
00011000
00000000
00000100
00000100
,
00000002
00000000
00000003
00000001
00000100
00000000
00000010
00000000
00001000
00000100
00000000
00001000
00000100
00000000
00000010
00000000
,
00000110
00000000
00011000
00000000
01100000
00000000
01000000
01000000
,
00020000
00000000
00030000
00010000
00001000
00000000
00001000
00000000
00100000
00010000
00000000
10000000
01000000
00000000
10000000
00000000
,
10100000
00000000
00000000
00000000
01010000
00000000
00000000
00000000
11000000
00000000
10000000
01000000
00010000
00001000
00000000
00000000
,
00000100
00000000
00000100
00000000
00000002
00000000
00000000
00000000
00000013
00000100
00000000
00000010
00000100
00000000
00010000
00000000
,
01000000
00000000
01000000
00000000
00020000
00000000
00031000
00000000
00000100
00000000
00001000
00000000
00010000
00001000
00010000
00000000
,
00011000
00010000
00001000
00000000
00010000
00000000
01000000
00100000
,
01100000
00010000
MMMMMMMM
00010000
01000000
00100000
01000000
00001000
,
00011000
00000000
00000000
00000000
;
