#VERSION:0.83;
#TITLE:BOSSY;
#SUBTITLE:;
#ARTIST:BABYPOWDER;
#TITLETRANSLIT:;
#SUBTITLETRANSLIT:;
#ARTISTTRANSLIT:;
#GENRE:Crossover;
#ORIGIN:;
#CREDIT:;
#BANNER:BOSSY.png;
#BACKGROUND:BOSSY-bg.png;
#PREVIEWVID:;
#JACKET:BOSSY-jacket.png;
#CDIMAGE:;
#DISCIMAGE:;
#LYRICSPATH:;
#CDTITLE:../cdtitle.png;
#MUSIC:BOSSY.ogg;
#OFFSET:2.375000;
#SAMPLESTART:19.900999;
#SAMPLELENGTH:15.000000;
#SELECTABLE:YES;
#DISPLAYBPM:101.000000;
#BPMS:0.000=101.000;
#STOPS:64.000=1.782,
97.000=0.297,
97.500=0.297,
98.000=0.297,
98.500=0.297,
143.000=1.782;
#DELAYS:;
#WARPS:;
#TIMESIGNATURES:0.000=4=4;
#TICKCOUNTS:0.000=4;
#COMBOS:0.000=1;
#SPEEDS:0.000=1.000=0.000=0;
#SCROLLS:0.000=1.000;
#FAKES:;
#LABELS:0.000=Song Start;
#BGCHANGES:-99.000=../bg.avi=1.000=0=0=1=====,
99999=-nosongbg-=1.000=0=0=0 // don't automatically add -songbackground-
;
#KEYSOUNDS:;
#ATTACKS:
;

//---------------dance-single - ----------------
#NOTEDATA:;
#CHARTNAME:;
#STEPSTYPE:dance-single;
#DESCRIPTION:;
#CHARTSTYLE:;
#DIFFICULTY:Challenge;
#METER:14;
#RADARVALUES:0.676428,0.685064,0.394583,0.386188,0.789167,564.000000,517.000000,47.000000,46.000000,28.000000,0.000000,0.000000,0.000000,0.000000,0.676428,0.685064,0.394583,0.386188,0.789167,564.000000,517.000000,47.000000,46.000000,28.000000,0.000000,0.000000,0.000000,0.000000;
#CREDIT:led_light;
#DISPLAYBPM:101.000000;
#NOTES:
0000
0000
0000
0000
,
0000
0000
0000
0000
,
0000
0000
0000
0000
,
0000
0000
0000
0000
,
0110
0000
0001
0100
0020
0000
0130
0020
0000
0130
0020
0000
0130
0010
0100
0100
,
0010
0000
2002
0000
3003
0000
0001
0010
2000
0000
3010
0000
0002
0000
0013
0000
,
0100
0010
0100
0010
0001
0000
0100
0010
1000
0000
0010
0100
0001
1000
0010
0000
,
0100
0000
0100
0000
1020
0000
0130
0001
0010
0100
0010
0000
0120
0000
0031
0000
,
1000
0010
1000
0010
0100
0001
0100
0001
1000
0010
0100
0001
0010
0100
0010
0000
,
2100
0000
0000
0000
3010
0100
0010
0010
0110
0000
1000
0000
1100
0000
0001
0000
,
0100
0010
0100
0010
1000
0000
0100
0010
0001
0000
0010
0100
1000
0001
0010
0000
,
0100
0000
0100
0000
0021
0000
0130
1000
0010
0100
0010
0000
0120
0000
1030
0000
,
0001
0010
0001
0010
0100
1000
0100
1000
0001
0010
0100
1000
0010
0100
0010
0000
,
2020
0000
3030
0000
0011
0000
0010
0000
0100
1000
0010
0000
2000
0000
3000
0000
,
0010
0100
0010
0000
0100
0000
0100
0000
0010
0100
0010
0000
0100
0000
0100
0000
,
2010
0000
0000
0000
3100
0000
0010
0100
1000
0000
0010
0100
0002
0000
2000
3003
,
MMMM
0000
0000
0000
0110
0000
1000
0010
0100
0001
0100
0001
1000
0010
1000
0010
,
0100
0001
0010
0100
0110
0000
0001
0010
0100
1000
0100
1000
0001
0010
0100
1000
,
0100
0010
0001
1000
1010
0000
0100
0001
1000
0010
1000
0010
0100
0001
0100
0001
,
0010
0100
0010
0001
1000
0100
1000
0100
0001
0100
0001
0100
1000
0001
0010
1000
,
0010
0010
0010
0000
0110
0000
0001
0100
0010
1000
0010
1000
0001
0100
0001
0100
,
0010
1000
0100
0010
0110
0000
1000
0100
0010
0001
0010
0001
1000
0100
0010
0001
,
0010
0100
1000
0001
0101
0000
0010
1000
0001
0100
0001
0100
0010
1000
0010
1000
,
0100
0010
0100
1000
0001
0010
0001
0010
1000
0010
1000
0010
0001
1000
0010
0001
,
0010
0010
0010
0000
MMMM
0000
MMMM
0000
MMMM
0000
MMMM
0000
0010
0000
0220
0000
,
0330
0000
0001
1000
0020
0000
0130
0000
0200
0000
0310
0000
1000
0100
1000
0100
,
0010
0000
0100
1000
0001
0000
1000
0001
0010
0100
1000
0000
0010
0000
0010
0000
,
0210
0000
1300
0100
0010
0100
0001
0000
1200
0000
0310
0000
0001
0010
0001
0010
,
0100
1000
0100
1000
0001
0010
0100
1000
0010
0100
0010
0000
1001
0000
0220
0000
,
0330
0000
1000
0001
0020
0000
0130
0000
0200
0000
0310
0000
0001
0100
0001
0100
,
0010
0000
0100
0001
1000
0000
0001
1000
0010
0100
0001
0000
0010
0000
0010
0000
,
0210
0000
0301
0100
0010
0100
1000
0000
0201
0000
0310
0000
1000
0010
1000
0010
,
0100
0001
0100
0001
1000
0010
0100
0001
0010
0100
0010
0000
0012
0000
0003
0001
,
0100
0010
0100
0010
0100
0010
0100
0010
0100
0010
0100
0010
0100
0010
0100
0010
,
0100
0010
0100
0010
0100
0010
0100
0010
0100
0010
0100
0010
1000
0100
1000
0100
,
1000
0100
1000
0100
0010
0001
0010
0001
0010
0001
0010
0001
MMMM
0000
0000
0000
,
0220
0000
0330
0000
1001
0000
1000
0100
0002
0000
0103
0000
2000
0000
3010
0000
,
0110
0000
0010
1000
0010
1000
0001
1000
0100
0010
0010
0000
0101
0000
1100
0000
,
2020
0000
3030
0000
0110
0000
0001
1000
0010
0100
0001
0000
0020
0000
0030
0000
,
0100
1000
0100
1000
0001
1000
0001
1000
0010
0100
0010
0100
0001
0010
0010
0000
,
0220
0000
0330
0000
1001
0000
0001
0010
2000
0000
3010
0000
0002
0000
0103
0000
,
0110
0000
0100
0001
0100
0001
1000
0010
0200
0000
0310
1000
0100
0010
0100
1000
,
0002
0000
0103
0000
0110
0000
1000
0001
0100
0010
1000
0000
0200
0000
0300
0000
,
0010
0001
0010
0001
1000
0001
1000
0001
0100
0010
0100
0010
1000
0100
0100
0000
,
0120
0000
0031
0010
0001
0000
0001
0000
0000
1000
0010
0000
0110
0000
0100
0000
,
1001
0000
0001
0100
0001
0000
0010
0100
0010
0000
1001
0000
0010
0000
1010
0000
,
0011
0000
1000
0010
1000
0000
1000
0000
0001
0010
0001
0000
0110
0000
0100
0000
,
1001
0000
1000
0100
1000
0000
0010
0100
0010
0000
1001
0000
0010
0000
0110
0000
,
MMMM
0000
0000
0000
;

//---------------dance-single - ----------------
#NOTEDATA:;
#CHARTNAME:;
#STEPSTYPE:dance-single;
#DESCRIPTION:;
#CHARTSTYLE:;
#DIFFICULTY:Hard;
#METER:12;
#RADARVALUES:0.539704,0.523872,0.394583,0.377793,0.344211,450.000000,403.000000,47.000000,45.000000,0.000000,0.000000,0.000000,0.000000,0.000000,0.539704,0.523872,0.394583,0.377793,0.344211,450.000000,403.000000,47.000000,45.000000,0.000000,0.000000,0.000000,0.000000,0.000000;
#CREDIT:led_light;
#DISPLAYBPM:101.000000;
#NOTES:
0000
0000
0000
0000
,
0000
0000
0000
0000
,
0000
0000
0000
0000
,
0000
0000
0000
0000
,
0110
0000
0001
1000
0020
0000
0130
0020
0000
0130
0020
0000
0130
0001
0010
0000
,
1010
0011
0000
0010
2001
3100
1002
0103
,
0010
1000
0010
0000
0100
0000
0100
0000
0001
0000
0001
0000
0010
0100
1000
0000
,
0100
0000
0100
0000
0101
0000
1000
0000
0100
0010
0001
0000
0202
0000
0303
0000
,
0010
1000
0010
0000
0001
0000
0001
0000
0010
0000
0010
0000
1000
0100
0010
0000
,
0200
0000
0000
0000
0310
0100
0010
0000
1002
0000
0103
0000
2001
0000
3100
0000
,
0010
0001
0010
0000
0100
0000
0100
0000
1000
0000
1000
0000
0010
0100
0001
0000
,
0100
0000
0100
0000
1100
0000
0001
0000
0100
0010
1000
0000
2200
0000
3300
0000
,
0010
0001
0010
0000
1000
0000
1000
0000
0010
0000
0010
0000
0001
0100
0010
0000
,
0220
0000
0000
0000
0330
0000
0000
0000
1000
0010
1000
0000
0200
0000
0000
0000
,
0310
0100
0010
0000
0001
0000
0001
0000
0100
1000
0100
0000
0010
0000
0010
0000
,
2020
0000
0000
0000
3030
0000
0001
0100
0010
0000
1000
0100
0020
0000
0230
0000
,
0310
0000
0000
0000
1001
0000
0010
0000
0010
0100
0010
0000
0010
0100
0010
0000
,
0100
0010
0100
0000
1001
0000
0010
0000
0010
0100
0010
0000
0010
0001
0010
0000
,
0100
1000
0100
0000
0110
0000
0001
0000
0001
0010
0100
0000
1000
0010
1000
0000
,
1000
0010
0100
0000
0001
0100
0010
0000
1000
0000
1000
0000
0100
0000
0100
0000
,
0010
0100
1000
0000
1001
0000
0100
0000
0100
0010
0100
0000
0100
0010
0100
0000
,
0010
0100
0010
0000
1001
0000
0100
0000
0100
0010
0100
0000
0100
1000
0100
0000
,
0010
0001
0010
0000
0110
0000
1000
0000
1000
0100
0010
0000
0001
0100
0001
0000
,
0001
0100
0010
0000
1000
0010
0100
0000
0001
0000
0001
0000
0010
0000
0010
0000
,
0100
0000
0000
0000
0010
0000
0000
0000
0001
0000
0000
0000
0000
0000
0000
0000
2000
3000
0000
0000
0100
0000
0000
0000
0020
0030
0000
0000
0100
0000
0000
0000
2000
3000
0000
0000
0001
0000
0000
0000
0200
0300
0000
0000
0010
0000
0000
0000
1000
0000
0000
0000
0000
0000
0000
0000
0011
0000
0000
0000
0000
0000
0000
0000
,
0000
0000
0100
0000
2001
0000
3010
0000
1002
0000
0013
0000
0100
1000
0100
0000
,
0010
0000
0010
0000
0001
0000
0001
0000
0100
0010
1000
0000
0010
0000
0010
0000
,
0011
0000
1000
0000
0010
0100
0001
0000
0022
0000
0033
0000
0100
1000
0100
0000
,
0001
0000
0001
0000
0100
0000
0100
0000
1000
0010
0100
0000
0001
0000
1010
0000
,
0000
0000
0100
0000
1002
0000
0013
0000
2001
0000
3010
0000
0100
0001
0100
0000
,
0010
0000
0010
0000
1000
0000
1000
0000
0100
0010
0001
0000
0010
0000
0010
0000
,
1010
0000
0001
0000
0010
0100
1000
0000
2020
0000
3030
0000
0100
0001
0100
0000
,
1000
0000
1000
0000
0100
0000
0100
0000
0001
0010
0100
0000
2100
0000
0000
0000
,
3010
0100
0010
0000
0010
0100
0010
0000
0010
0100
0010
0000
0010
0100
0010
0000
,
0010
0100
0010
0000
0010
0100
0010
0000
0010
0100
0010
0000
1000
0100
1000
0000
,
0100
0001
0100
0000
0001
0010
0001
0000
0010
1000
0010
0000
1000
0000
0000
0000
,
1200
0000
0310
0000
0100
0100
1000
1000
,
0001
0000
0100
0010
1000
0000
0001
0000
1000
0100
0100
0000
0101
0000
1010
0000
,
0120
0000
0000
0000
1030
0000
0000
0000
0001
0100
0001
0000
0022
0000
0033
0000
,
1000
0010
1000
0000
0100
0000
0100
0000
0010
0000
0010
0000
0100
1000
0001
0000
,
1020
0000
0130
0000
0010
0010
1000
1000
,
0001
0000
0010
0100
1000
0000
0001
0000
2000
0000
3010
0010
0001
0000
0010
0000
,
0102
0000
0000
0000
0013
0000
0000
0000
0010
0100
0010
0000
0220
0000
0330
0000
,
1000
0100
1000
0000
0010
0000
0010
0000
0100
0000
0100
0000
0010
1000
0001
0000
,
0022
0000
0033
0000
0011
0000
0100
0000
0000
1000
0010
0000
1001
0000
0010
0000
,
0100
0000
0000
1000
0001
0000
0010
0000
0100
0000
0110
0000
0010
0000
1001
0000
,
2020
0000
3030
1000
0100
0000
0100
0000
0010
0001
0010
0000
0110
0000
1000
0000
,
0010
0000
0010
0100
0010
0000
1000
0000
0100
0000
0110
0000
0010
0000
1001
0000
,
0100
0000
0000
0000
;

//---------------dance-single - ----------------
#NOTEDATA:;
#CHARTNAME:;
#STEPSTYPE:dance-single;
#DESCRIPTION:;
#CHARTSTYLE:;
#DIFFICULTY:Medium;
#METER:9;
#RADARVALUES:0.384989,0.402979,0.251862,0.092349,0.000000,321.000000,291.000000,30.000000,11.000000,0.000000,0.000000,0.000000,0.000000,0.000000,0.384989,0.402979,0.251862,0.092349,0.000000,321.000000,291.000000,30.000000,11.000000,0.000000,0.000000,0.000000,0.000000,0.000000;
#CREDIT:led_light;
#DISPLAYBPM:101.000000;
#NOTES:
0000
0000
0000
0000
,
0000
0000
0000
0000
,
0000
0000
0000
0000
,
0000
0000
0000
0000
,
0000
0000
0000
0000
,
1001
0100
0010
0000
1000
1000
0001
0001
,
0010
1000
0010
0001
1000
0010
0100
0100
,
0010
1000
1100
0000
0010
0001
0101
0000
,
0010
0010
0100
0100
0010
0010
1000
0100
,
0020
0000
0130
0100
1001
0100
1001
0100
,
0010
0010
0001
0001
0100
0010
1000
1000
,
0001
0010
1000
0000
0001
0100
1000
0000
,
0010
0010
0100
0100
0010
0010
0100
0001
,
0020
0000
0030
0000
0100
0010
0020
0000
,
0031
0001
0001
0000
0010
0001
0001
0000
,
1000
0010
1000
0010
0100
0001
0020
0030
,
0100
0000
1001
0010
0010
0010
0010
0010
,
0100
0010
1001
0010
0010
0010
0010
0010
,
0100
0010
1001
0100
0100
0100
0010
0010
,
0001
0001
1000
0010
0001
0010
1000
0100
,
0010
0010
1001
0100
0100
0100
0100
0100
,
0010
0100
1001
0100
0100
0100
0100
0100
,
0010
0100
1001
0010
0010
0010
0100
0100
,
1000
1000
0001
0010
1000
0010
0001
0100
,
0010
0010
1000
0100
0010
0001
1001
0100
,
0010
0000
0001
0001
1000
1000
0010
0010
,
1000
1000
0100
0100
0010
0001
1000
0010
,
0001
0000
1000
0100
0001
0000
0010
0010
,
0100
0100
0010
0010
0100
1000
1001
0010
,
0100
0000
0001
0001
1000
1000
0100
0001
,
0100
1000
0001
0100
0010
0010
0100
0001
,
0011
0000
0100
1000
1010
0000
0100
0100
,
0010
0010
0100
0100
0001
0010
0220
0330
,
0100
0100
0100
0100
0100
0100
0100
0100
,
0100
0100
0100
0100
0100
0100
1000
0010
,
0100
0001
1000
0010
0100
0001
0010
0000
,
2020
3030
0011
0000
1000
0100
0001
0000
,
0100
0100
0100
0000
1000
0000
1010
0000
,
0011
0000
0010
0000
1000
0100
0001
0000
,
0100
0100
0010
0010
0100
0100
1000
0010
,
0220
0330
1001
0000
0001
0010
1000
0000
,
0010
0010
0010
0000
0001
0000
0101
0000
,
1100
0000
0100
0000
0001
0010
1000
0000
,
0010
0010
0100
0100
0020
0000
0030
0000
,
1001
0000
0100
0000
0000
0010
1001
0000
,
0100
0000
0011
0000
0010
0010
0100
0100
,
1000
0000
0110
0000
0010
0100
1001
0000
,
0010
0000
1100
0000
0100
0100
0010
0010
,
0001
0000
0000
0000
;

//---------------dance-single - ----------------
#NOTEDATA:;
#CHARTNAME:;
#STEPSTYPE:dance-single;
#DESCRIPTION:;
#CHARTSTYLE:;
#DIFFICULTY:Easy;
#METER:6;
#RADARVALUES:0.274649,0.282085,0.302234,0.092349,0.000000,229.000000,193.000000,36.000000,11.000000,0.000000,0.000000,0.000000,0.000000,0.000000,0.274649,0.282085,0.302234,0.092349,0.000000,229.000000,193.000000,36.000000,11.000000,0.000000,0.000000,0.000000,0.000000,0.000000;
#CREDIT:led_light;
#DISPLAYBPM:101.000000;
#NOTES:
0000
0000
0000
0000
,
0000
0000
0000
0000
,
0000
0000
0000
0000
,
0000
0000
0000
0000
,
0000
0000
0000
0000
,
1001
0000
0110
0110
,
0001
1000
0010
0000
0100
0000
1001
0000
,
0100
1000
0010
0000
1000
0000
0011
0000
,
0010
0100
0010
0000
0100
0010
0100
0000
,
0020
0030
0110
0110
,
1000
0001
0010
0000
0100
0000
1001
0000
,
0100
0001
0010
0000
0001
0000
1010
0000
,
0010
0100
0010
0000
0100
0010
0100
0000
,
0020
0000
0030
0000
1000
0001
0010
0000
,
0100
0100
0100
0000
0100
0010
0100
0000
,
0020
0000
0030
0000
0001
1000
0020
0000
,
0130
0000
1001
0000
0010
0000
0100
0100
,
0010
1001
0010
0100
,
0100
0010
1001
0000
0010
0000
0100
0010
,
0010
0000
1000
0001
0100
0000
0010
0000
,
0110
0000
1001
0000
0100
0000
0010
0010
,
0100
1001
0100
0010
,
0010
0100
1001
0000
0100
0000
0010
0100
,
0100
0000
0001
1000
0010
0000
0100
0000
,
0110
0000
2000
0000
0000
3000
1001
0000
,
0000
0000
0110
0000
0110
0000
0001
1000
,
0100
0000
0010
0000
1001
0000
0010
1000
,
0100
0000
1000
0000
0101
0000
0100
0010
,
0100
0000
0010
0100
0010
0000
1001
0000
,
0000
0000
0110
0000
0110
0000
1000
0001
,
0100
0000
0010
0000
1001
0000
0010
0001
,
0100
0000
0001
0000
1100
0000
0001
0010
,
0100
0000
1000
0010
0100
0000
0020
0000
,
0100
0100
0100
0100
,
0100
0000
0100
0000
0100
0000
0130
0010
,
1000
0000
0001
0010
0100
0000
0010
0000
,
2002
3003
0100
0100
,
1000
1000
0010
0011
,
1010
0000
0100
0100
,
0010
0010
0100
0010
,
2002
3003
0010
0010
,
0001
0001
0100
1000
,
1100
0000
0010
0010
,
0100
0100
0020
0030
,
1001
0000
0100
0000
0000
0010
0100
0000
,
0010
0000
0110
0000
1000
0001
0010
0000
,
0110
0000
0001
0000
0000
1000
0001
0000
,
0100
0000
1001
0000
0010
0100
0001
0000
,
1000
0000
0000
0000
;

//---------------dance-single - ----------------
#NOTEDATA:;
#CHARTNAME:;
#STEPSTYPE:dance-single;
#DESCRIPTION:;
#CHARTSTYLE:;
#DIFFICULTY:Beginner;
#METER:4;
#RADARVALUES:0.149918,0.241787,0.100745,0.067163,0.000000,125.000000,113.000000,12.000000,8.000000,0.000000,0.000000,0.000000,0.000000,0.000000,0.149918,0.241787,0.100745,0.067163,0.000000,125.000000,113.000000,12.000000,8.000000,0.000000,0.000000,0.000000,0.000000,0.000000;
#CREDIT:led_light;
#DISPLAYBPM:101.000000;
#NOTES:
0000
0000
0000
0000
,
0000
0000
0000
0000
,
0000
0000
0000
0000
,
0000
0000
0000
0000
,
0000
0000
0000
0000
,
1001
0000
0010
0010
,
0010
0000
0100
0000
,
1000
0000
0010
0000
,
0001
0001
0001
0000
,
1000
0000
0010
0010
,
0010
0000
1000
0000
,
0100
0000
0010
0000
,
0001
0001
0001
0001
,
0002
0000
0003
0000
,
0020
0000
0030
0000
,
2000
0000
3000
0000
,
0100
0110
0100
0100
,
0100
0110
0100
0100
,
0100
1001
0100
0100
,
0100
0010
0100
0020
,
0030
0110
0100
0100
,
0100
0110
0100
0100
,
0100
1001
0100
0100
,
0100
0010
0100
0010
,
0100
0010
0000
0100
,
0000
0010
0000
0100
,
0100
0100
0000
1000
,
0000
0010
0000
0001
,
0001
0001
0000
1001
,
0000
0100
0000
0010
,
0010
0010
0000
1000
,
0000
0100
0000
0001
,
0001
0001
0000
0100
,
0000
0000
0000
0000
,
0000
0000
0000
0010
,
0010
0010
0010
0010
,
0220
0330
0001
0000
,
1000
0001
1000
0000
,
1001
0000
0010
0000
,
0100
0010
0100
0000
,
0220
0330
0001
0000
,
1000
0001
1000
0000
,
1001
0000
0010
0000
,
0100
0010
0100
0000
,
0001
0000
0000
0000
,
0001
0000
1000
1000
,
1000
0000
0010
0000
,
0001
0000
0100
0100
,
0010
0000
0000
0000
;

//---------------dance-double - ----------------
#NOTEDATA:;
#CHARTNAME:;
#STEPSTYPE:dance-double;
#DESCRIPTION:;
#CHARTSTYLE:;
#DIFFICULTY:Challenge;
#METER:15;
#RADARVALUES:0.694419,0.685064,0.411374,0.344211,0.822748,579.000000,530.000000,49.000000,41.000000,44.000000,0.000000,0.000000,0.000000,0.000000,0.694419,0.685064,0.411374,0.344211,0.822748,579.000000,530.000000,49.000000,41.000000,44.000000,0.000000,0.000000,0.000000,0.000000;
#CREDIT:led_light;
#DISPLAYBPM:101.000000;
#NOTES:
// measure 0
00000000
00000000
00000000
00000000
,  // measure 1
00000000
00000000
00000000
00000000
,  // measure 2
00000000
00000000
00000000
00000000
,  // measure 3
00000000
00000000
00000000
00000000
,  // measure 4
00110000
00000000
01000000
10000000
00020000
00000000
00130000
02000000
00000000
03100000
00020000
00000000
10030000
01000000
00010000
00001000
,  // measure 5
00000100
00000000
00000220
00000000
00000330
00000000
00000010
00001000
00000010
00000000
00001001
00000000
00000010
00000000
00000110
00000000
,  // measure 6
00000001
00000010
00000001
00000010
00000100
00000000
00001000
00000100
00000010
00000000
00000001
00000100
00000010
00000100
00000010
00000000
,  // measure 7
00001000
00000000
00001000
00000000
00021000
00000000
01030000
00010000
00100000
01000000
00100000
00000000
21000000
00000000
30010000
00000000
,  // measure 8
00100000
00010000
00100000
00010000
10000000
00100000
10000000
00100000
01000000
00100000
10000000
00010000
01000000
00001000
00010000
00000000
,  // measure 9
00001020
00000000
00000000
00000000
00001030
00000100
00000001
00000100
00001000
00000000
00001001
00000000
00000100
00000000
00000110
00000000
,  // measure 10
00000001
00000100
00000001
00000100
00000010
00000000
00001000
00000010
00000100
00000000
00000001
00000010
00000100
00000010
00000100
00000000
,  // measure 11
00001000
00000000
00001000
00000000
00021000
00000000
00130000
00010000
01000000
00100000
01000000
00000000
20100000
00000000
30010000
00000000
,  // measure 12
01000000
00010000
01000000
00010000
10000000
01000000
10000000
01000000
00100000
01000000
10000000
00010000
00100000
00001000
00010000
00000010
,  // measure 13
00002000
00000000
00000000
00003001
00000010
00000000
00000010
00000000
00000100
00001000
00000001
00000000
00002000
00000100
00000000
00000000
,  // measure 14
00003001
00000100
00000001
00000100
00000001
00000100
00000010
00000000
00001000
00000100
00001000
00000100
00001000
00000100
00010000
00000000
,  // measure 15
00001000
02000000
00100000
00000000
03100000
00000000
00010000
00100000
10000000
00000000
10000000
01000000
00020000
00000000
00002000
00033000
,  // measure 16
MMMMMMMM
00000000
00000000
00000000
00011000
00000000
00001000
00100000
00010000
01000000
00010000
01000000
00001000
00010000
00001000
00010000
,  // measure 17
00000100
00001000
00000001
00000100
00000110
00000000
00001000
00000001
00000010
00000100
00000010
00000100
00001000
00010000
00001000
00010000
,  // measure 18
00100000
10000000
00100000
00010000
10010000
00000000
00010000
01000000
00100000
10000000
00100000
10000000
01000000
00010000
00001000
00010000
,  // measure 19
00001000
00000100
00000010
00000100
00000001
00000010
00000001
00000010
00001000
00000010
00001000
00000010
00000001
00001000
00000100
00010000
,  // measure 20
00001000
00001000
00001000
00000000
00011000
00000000
00010000
00000100
00001000
00000010
00001000
00000010
00010000
00001000
00010000
00001000
,  // measure 21
00100000
00010000
10000000
00100000
01100000
00000000
00010000
10000000
01000000
00100000
01000000
00100000
00010000
00001000
00010000
00001000
,  // measure 22
00000100
00000001
00000100
00001000
00001001
00000000
00001000
00000010
00000100
00000001
00000100
00000001
00000010
00001000
00010000
00001000
,  // measure 23
00010000
00100000
01000000
00100000
10000000
01000000
10000000
01000000
00010000
01000000
00010000
01000000
10000000
00010000
00100000
00001000
,  // measure 24
00010000
00000000
00000000
00000000
00010000
00000000
00000000
00000000
00010000
00000000
00000000
00000000
00000000
00000000
00000000
00000000
MMMM2000
00003000
00000000
00000000
00000000
00000000
00000000
00000000
0002MMMM
00030000
00000000
00000000
00000000
00000000
00000000
00000000
MMMM0020
00000030
00000000
00000000
00000000
00000000
00000000
00000000
0020MMMM
00300000
00000000
00000000
00000000
00000000
00000000
00000000
MMMM1000
00000000
00000000
00000000
00000000
00000000
00000000
00000000
00022000
00000000
00000000
00000000
00000000
00000000
00000000
00000000
,  // measure 25
00033000
00000000
00010000
00000010
00001000
00000000
00001010
00000000
00100000
00000000
00110000
00000000
00001000
00010000
00001000
00010000
,  // measure 26
00000010
00000000
00000100
00000001
00001000
00000000
00000001
00000010
00000100
00001000
00000100
00000000
00000010
00000000
00000010
00000000
,  // measure 27
00001001
00000000
00000001
00000100
00000010
00001000
00000010
00000000
00000210
00000000
00000301
00000000
00001000
00000100
00001000
00000100
,  // measure 28
00000010
00001000
00000010
00001000
00010000
00100000
00010000
00100000
10000000
01000000
00100000
00000000
01010000
00000000
00022000
00000000
,  // measure 29
00033000
00000000
00001000
00100000
00010000
00000000
00110000
00000000
00000100
00000000
00001100
00000000
00010000
00001000
00010000
00001000
,  // measure 30
00100000
00000000
01000000
10000000
00010000
00000000
10000000
01000000
00100000
01000000
10000000
00000000
00010000
00000000
01000000
00000000
,  // measure 31
01100000
00000000
01000000
00100000
10000000
00100000
10000000
00000000
12000000
00000000
03100000
00000000
00010000
01000000
00010000
01000000
,  // measure 32
00100000
00010000
00100000
00010000
00001000
00000100
00001000
00000100
00000001
00000010
00000100
00000000
00000120
00000000
00000030
00001000
,  // measure 33
00010000
00001000
00010000
00001000
00010000
00001000
00010000
00001000
00010000
00001000
00010000
00001000
00010000
00001000
00010000
00001000
,  // measure 34
00010000
00001000
00010000
00001000
00010000
00001000
00010000
00001000
00010000
00001000
00010000
00001000
00000100
00000010
00000100
00000010
,  // measure 35
00000100
00000010
00000100
00000010
00001000
00000001
00001000
00000001
00001000
00000001
00001000
00000001
MMMMMMMM
00000000
00000000
00000000
,  // measure 36
00000220
00000000
00000330
00000000
00001001
00000000
00000001
00000100
00002000
00000000
00003100
00000000
00000002
00000000
00000013
00000000
,  // measure 37
00000100
00000000
00000010
00000001
00001000
00000100
00010000
00001000
00200000
00010000
00310000
00000000
00011000
00000000
01010000
00000000
,  // measure 38
20200000
00000000
30300000
00000000
01100000
00000000
00010000
10000000
00100000
01000000
00010000
00000000
00200000
00000000
00300000
00000000
,  // measure 39
01000000
10000000
01000000
10000000
01000000
00100000
01000000
00100000
01000000
00010000
01000000
00010000
01000000
10000000
00010000
00000000
,  // measure 40
02200000
00000000
03300000
00000000
10010000
00000000
10000000
00100000
00020000
00000000
00130000
00000000
20000000
00000000
31000000
00000000
,  // measure 41
00100000
00000000
01000000
10000000
00010000
00100000
00001000
00010000
00000200
00000000
00000310
00000100
00000010
00000001
00001000
00000001
,  // measure 42
00000100
00000000
00000010
00000000
00000110
00000000
00001000
00000001
00000100
00000010
00001000
00000000
00000200
00000000
00000300
00000000
,  // measure 43
00010000
00001000
00010000
00001000
00100000
00010000
00100000
00010000
10000000
00100000
10000000
00100000
01000000
00010000
00100000
00000000
,  // measure 44
01200000
00000000
00310000
00100000
00010000
00000000
00010000
00000000
00000000
01000000
00100000
00000000
10010000
00000000
00100000
00000000
,  // measure 45
01100000
00000000
10000000
00010000
00100000
00000000
01000000
00010000
00001000
00000000
00001100
00000000
00000001
00000000
00000011
00000000
,  // measure 46
00000110
00000000
00001000
00000100
00001000
00000000
00001000
00000000
00000010
00000100
00000010
00000000
00001001
00000000
00000010
00000000
,  // measure 47
00000110
00000000
00000001
00001000
00000010
00000000
00000100
00001000
00001000
00000000
00010010
00000000
00101000
00000000
00011000
00000000
,  // measure 48
MMMMMMMM
00000000
00000000
00000000
;

//---------------dance-double - ----------------
#NOTEDATA:;
#CHARTNAME:;
#STEPSTYPE:dance-double;
#DESCRIPTION:;
#CHARTSTYLE:;
#DIFFICULTY:Hard;
#METER:13;
#RADARVALUES:0.554096,0.523872,0.369397,0.377793,0.381990,462.000000,418.000000,44.000000,45.000000,0.000000,0.000000,0.000000,0.000000,0.000000,0.554096,0.523872,0.369397,0.377793,0.381990,462.000000,418.000000,44.000000,45.000000,0.000000,0.000000,0.000000,0.000000,0.000000;
#CREDIT:led_light;
#DISPLAYBPM:101.000000;
#NOTES:
00000000
00000000
00000000
00000000
,
00000000
00000000
00000000
00000000
,
00000000
00000000
00000000
00000000
,
00000000
00000000
00000000
00000000
,
00011000
00000000
00001000
00010000
00002000
00000000
00013000
00002000
00000000
00013000
00002000
00000000
00013000
01000000
10000000
00000000
,
01000000
00000000
00220000
00000000
00330000
00000000
00010000
01000000
00100000
00000000
10100000
00000000
01000000
00000000
01010000
00000000
,
00001000
00010000
00001000
00000000
00100000
00000000
00100000
00000000
01000000
00000000
01000000
00000000
00010000
00001000
00010000
00000000
,
00001000
00000000
00000100
00000000
00000210
00000000
00000301
00000000
00001000
00000010
00001000
00000000
00000220
00000000
00000330
00000000
,
00000001
00001000
00000001
00000000
00000010
00000000
00000010
00000000
00000100
00000000
00000100
00000000
00010000
00001000
00010000
00000000
,
00000020
00000000
00000000
00000000
00000130
00000010
00001000
00000100
00000010
00000000
00000011
00000000
00000100
00000000
00001100
00000000
,
00010000
00001000
00010000
00000000
00000010
00000000
00000010
00000000
00000100
00000000
00000100
00000000
00001000
00010000
00001000
00000000
,
00010000
00000000
01000000
00000000
02100000
00000000
13000000
00000000
00010000
00100000
00010000
00000000
02200000
00000000
03300000
00000000
,
10000000
00010000
10000000
00000000
00100000
00000000
00100000
00000000
01000000
00000000
01000000
00000000
00001000
00010000
00001000
00000000
,
00200000
00000000
00000000
00000000
00300000
00000000
00000000
00000000
01000000
00010000
00001000
00000000
00020000
00000000
00000000
00000000
,
01030000
00100000
01000000
00000000
00010000
00000000
00001000
00000000
00000100
00000010
00000100
00000000
00001000
00000000
00010000
00000000
,
02000000
00000000
00000000
00000000
03000000
00000000
00010000
00001000
00010000
00000000
00000010
00001000
00000020
00000000
00000230
00000000
,
00000310
00000000
00000000
00000000
00001001
00000000
00000010
00000000
00000010
00000100
00000010
00000000
00000010
00000100
00000010
00000000
,
00000100
00001000
00010000
00000000
00011000
00000000
00001000
00000000
00001000
00010000
00001000
00000000
00001000
00010000
00001000
00000000
,
00010000
00100000
10000000
00000000
10010000
00000000
00100000
00000000
00100000
01000000
00100000
00000000
00100000
01000000
00100000
00000000
,
01000000
00010000
00001000
00000000
00010000
00001000
00000010
00000000
00000100
00000000
00000100
00000000
00010000
00000000
00010000
00000000
,
00001000
00010000
00100000
00000000
10010000
00000000
01000000
00000000
01000000
00100000
01000000
00000000
01000000
00100000
01000000
00000000
,
00100000
00010000
00001000
00000000
00011000
00000000
00010000
00000000
00010000
00001000
00010000
00000000
00010000
00001000
00010000
00000000
,
00001000
00000100
00000001
00000000
00001001
00000000
00000100
00000000
00000100
00000010
00000100
00000000
00000100
00000010
00000100
00000000
,
00000010
00001000
00010000
00000000
00001000
00010000
01000000
00000000
00100000
00000000
00100000
00000000
00001000
00000000
00001000
00000000
,
00010000
00000000
00000000
00000000
00001000
00000000
00000000
00000000
00000100
00000000
00000000
00000000
00000000
00000000
00000000
00000000
00000002
00000003
00000000
00000000
00000010
00000000
00000000
00000000
00000200
00000300
00000000
00000000
00010000
00000000
00000000
00000000
00002000
00003000
00000000
00000000
00100000
00000000
00000000
00000000
02000000
03000000
00000000
00000000
10000000
00000000
00000000
00000000
00100000
00000000
00000000
00000000
00000000
00000000
00000000
00000000
02020000
00000000
00000000
00000000
00000000
00000000
00000000
00000000
,
03030000
00000000
00010000
00100000
01000000
00000000
11000000
00000000
00100000
00000000
00110000
00000000
00001000
00010000
00001000
00000000
,
01000000
00000000
01000000
00000000
00100000
00000000
00100000
00000000
00010000
00001000
00010000
00000000
00001000
00000000
00000010
00000000
,
00000120
00000000
00000031
00000000
00001000
00000100
00001000
00000000
00000220
00000000
00000330
00000000
00000001
00001000
00000001
00000000
,
00000100
00000000
00000100
00000000
00000010
00000000
00000010
00000000
00010000
00001000
00010000
00000000
00000100
00000000
00000022
00000000
,
00000033
00000000
00001000
00000010
00000100
00000000
00000101
00000000
00000010
00000000
00001010
00000000
00010000
00001000
00010000
00000000
,
00000100
00000000
00000100
00000000
00000010
00000000
00000010
00000000
00001000
00010000
00001000
00000000
00010000
00000000
00100000
00000000
,
01200000
00000000
10300000
00000000
00010000
01000000
00010000
00000000
02200000
00000000
03300000
00000000
10000000
00010000
10000000
00000000
,
01000000
00000000
01000000
00000000
00100000
00000000
00100000
00000000
01000000
00010000
00001000
00000000
00021000
00000000
00030000
00010000
,
00001000
00010000
00001000
00000000
00010000
00001000
00010000
00000000
00001000
00010000
00001000
00000000
00010000
00001000
00010000
00000000
,
00001000
00010000
00001000
00000000
00010000
00001000
00010000
00000000
00001000
00010000
00001000
00000000
00000100
00000010
00000100
00000000
,
00000010
00000100
00000010
00000000
00001000
00000001
00001000
00000000
00000001
00001000
00000001
00000000
00000010
00000000
00000000
00000000
,
00000220
00000000
00000330
00000000
00001001
00000000
00000001
00000100
00002000
00000000
00003100
00000000
00000002
00000000
00000013
00000000
,
00001000
00000000
00010000
00001000
00010000
00000000
00001000
00000000
00200000
00000000
00300000
01000000
00100000
00000000
10010000
00000000
,
00100000
00000000
01000000
00000000
01100000
00000000
00010000
00000000
10000000
00100000
01000000
00000000
00020000
00000000
00030000
00000000
,
00100000
01000000
00100000
00000000
00001000
00000000
00010000
00000000
00001000
00000000
00000100
00000000
00001000
00010000
01000000
00000000
,
02200000
00000000
03300000
00000000
10010000
00000000
10000000
00100000
00020000
00000000
00130000
00000000
20000000
00000000
31000000
00000000
,
00010000
00000000
00001000
00010000
00001000
00000000
00010000
00000000
00000200
00000000
00000310
00000100
00000010
00000001
00001000
00000000
,
00000010
00000000
00000100
00000000
00000110
00000000
00001000
00000000
00000001
00000100
00000010
00000000
00002000
00000000
00003000
00000000
,
00000100
00000010
00000100
00000000
00010000
00000000
00001000
00000000
00020000
00000000
00031000
00000000
00001000
00010000
00001000
00000000
,
00011000
00000000
00000000
00100000
00010000
00000000
00010000
00000000
00000000
10000000
01000000
00000000
01010000
00000000
01000000
00000000
,
10010000
00000000
00000000
10000000
00100000
00000000
01000000
00000000
00100000
00000000
10010000
00000000
01000000
00000000
00110000
00000000
,
00011000
00000000
00000010
00001000
00000010
00000000
00000010
00000000
00000100
00000001
00000100
00000000
00001100
00000000
00000100
00000000
,
00001001
00000000
00000010
00001000
00000010
00000000
00000100
00000000
00000010
00000000
00001001
00000000
00000100
00000000
00011000
00000000
,
00001000
00000000
00000000
00000000
;

//---------------dance-double - ----------------
#NOTEDATA:;
#CHARTNAME:;
#STEPSTYPE:dance-double;
#DESCRIPTION:;
#CHARTSTYLE:;
#DIFFICULTY:Medium;
#METER:9;
#RADARVALUES:0.350208,0.402979,0.134326,0.125931,0.000000,292.000000,276.000000,16.000000,15.000000,0.000000,0.000000,0.000000,0.000000,0.000000,0.350208,0.402979,0.134326,0.125931,0.000000,292.000000,276.000000,16.000000,15.000000,0.000000,0.000000,0.000000,0.000000,0.000000;
#CREDIT:led_light;
#DISPLAYBPM:101.000000;
#NOTES:
00000000
00000000
00000000
00000000
,
00000000
00000000
00000000
00000000
,
00000000
00000000
00000000
00000000
,
00000000
00000000
00000000
00000000
,
00000000
00000000
00000000
00000000
,
00000110
00000100
00000010
00000000
00001000
00000100
00000001
00000100
,
00001000
00000010
00000001
00000010
00001000
00000100
00000010
00000000
,
00001000
00010000
00001000
00000000
00010000
00100000
00100000
00000000
,
10000000
01000000
00010000
01000000
10000000
01000000
00010000
00001000
,
00000200
00000000
00000300
00000000
00000010
00001000
00000010
00001000
,
00000100
00000010
00000100
00000010
00000001
00000100
00000010
00000000
,
00010000
00001000
00010000
00000000
00001000
00000100
00000100
00000000
,
00000001
00000010
00001000
00000010
00000001
00000010
00001000
00010000
,
00200000
00000000
00300000
00000000
10000000
01000000
00200000
00000000
,
00310000
00010000
00010000
00000000
10000000
10000000
10000000
00000000
,
00200000
00000000
00300000
01000000
00001000
00010000
00002000
00000000
,
00013000
00000000
00011000
00100000
00100000
00100000
00100000
00100000
,
01000000
00010000
00011000
00000100
00000100
00000100
00000100
00000100
,
00000010
00001000
00011000
01000000
01000000
01000000
00100000
00100000
,
00010000
00010000
00001000
00000100
00000001
00000010
00001000
00010000
,
00010000
00001000
00011000
00000010
00000010
00000010
00000010
00000010
,
00000100
00001000
00011000
01000000
01000000
01000000
01000000
01000000
,
00100000
00010000
00011000
00000100
00000100
00000100
00000010
00000010
,
00001000
00001000
00010000
01000000
10000000
00100000
00010000
00001000
,
00010000
00010000
01000000
00010000
00001000
00000100
00001001
00000010
,
00000100
00000000
00001000
00000010
00000001
00000010
00001000
00000100
,
00000001
00000100
00001000
00000010
00000100
00000000
00001000
00010000
,
00001000
00000000
00010000
01000000
01000000
00000000
10000000
00100000
,
00010000
00100000
10000000
01000000
00100000
00010000
10010000
01000000
,
00100000
00000000
00010000
01000000
10000000
01000000
00010000
00100000
,
10000000
00100000
00010000
01000000
00100000
00000000
00010000
00001000
,
00010000
00000000
00001000
00000010
00000010
00000000
00000001
00000100
,
00001000
00000100
00000001
00000010
00000100
00001000
00000020
00000030
,
00000100
00000100
00000100
00000100
00000100
00000100
00000100
00000100
,
00000100
00000100
00000100
00000100
00000100
00000100
00000100
00001000
,
00010000
01000000
00010000
00001000
00000100
00000001
00000010
00000000
,
00000220
00000000
00000330
00000000
00000001
00000100
00001000
00000000
,
00010000
01000000
10000000
00000000
00100000
00000000
01100000
00000000
,
20020000
00000000
30030000
00000000
00100000
01000000
00100000
00000000
,
00010000
00010000
00010000
00000000
10000000
01000000
00010000
00000000
,
02200000
00000000
03300000
00000000
10000000
00100000
00010000
00000000
,
00001000
00000010
00000001
00000000
00000100
00000000
00000110
00000000
,
00002002
00000000
00003003
00000000
00000100
00000010
00000100
00000000
,
00001000
00001000
00001000
00000000
00000020
00000000
00000030
00000000
,
00001001
00000000
00000100
00000000
00000000
00000010
00000100
00000000
,
00000010
00000000
00001000
00000000
00001000
00010000
01000000
00010000
,
00001000
00000000
00100000
00000000
00100000
01000000
00100000
00000000
,
01000000
00000000
00010000
00000000
00010000
00001000
00000100
00001000
,
00010000
00000000
00000000
00000000
;

//---------------dance-double - ----------------
#NOTEDATA:;
#CHARTNAME:;
#STEPSTYPE:dance-double;
#DESCRIPTION:;
#CHARTSTYLE:;
#DIFFICULTY:Easy;
#METER:6;
#RADARVALUES:0.275849,0.282085,0.251862,0.092349,0.000000,230.000000,200.000000,30.000000,11.000000,0.000000,0.000000,0.000000,0.000000,0.000000,0.275849,0.282085,0.251862,0.092349,0.000000,230.000000,200.000000,30.000000,11.000000,0.000000,0.000000,0.000000,0.000000,0.000000;
#CREDIT:led_light;
#DISPLAYBPM:101.000000;
#NOTES:
00000000
00000000
00000000
00000000
,
00000000
00000000
00000000
00000000
,
00000000
00000000
00000000
00000000
,
00000000
00000000
00000000
00000000
,
00000000
00000000
00000000
00000000
,
01100000
00000000
10010000
10010000
,
10000000
01000000
00010000
00000000
00001000
00000000
00011000
00000000
,
00000010
00001000
00000010
00000000
00001000
00000100
00001000
00000000
,
00000001
00000100
00000010
00000000
00001000
00000000
00010000
00000000
,
00002000
00003000
00001001
00001001
,
00000001
00000010
00001000
00000000
00010000
00000000
00011000
00000000
,
01000000
00010000
01000000
00000000
00010000
00100000
00010000
00000000
,
10000000
00100000
01000000
00010000
00100000
00000000
00001000
00000000
,
00021000
00000000
00030000
00000000
00000100
00010000
00001000
00000000
,
01000000
00001000
00010000
00000000
01000000
00010000
00001000
00000000
,
00000200
00000000
00000300
00000000
00000010
00000100
00000020
00000000
,
00000130
00000000
00001001
00000000
00000010
00000000
00000010
00000100
,
00000010
00000000
00001001
00000000
00000010
00000000
00000010
00001000
,
00010000
00000000
00011000
00000000
00001000
00000000
00001000
00010000
,
00001000
00000000
00010000
01000000
10000000
00000000
10000000
00000000
,
00100000
00000000
10010000
00000000
00100000
00000000
00100000
01000000
,
00100000
00000000
10010000
00000000
00100000
00000000
00100000
00010000
,
00001000
00000000
00011000
00000000
00010000
00000000
00010000
00001000
,
00010000
00000000
00001000
00000100
00000001
00000000
00000001
00000000
,
00000010
00000000
00000200
00000000
00000000
00000300
00000110
00000000
,
00000000
00000000
00001001
00000000
00001001
00000000
00000001
00000010
,
00001000
00000000
00010000
00000000
00011000
00000000
01000000
00010000
,
01000000
00000000
00010000
00100000
00010000
00000000
10000000
00100000
,
01000000
00010000
00100000
01100000
,
00000000
00000000
10010000
00000000
10010000
00000000
10000000
01000000
,
00010000
00000000
00001000
00000000
00011000
00000000
00000010
00001000
,
00000010
00000000
00001000
00000100
00001000
00000000
00000001
00000100
,
00000010
00001000
00000100
00000000
00000010
00000000
00000200
00000000
,
00000010
00000010
00000010
00000010
,
00000010
00000000
00000010
00000000
00000310
00000000
00001000
00001000
,
00001000
00000000
00010000
00010000
00010000
00000000
00001000
00000000
,
00022000
00000000
00033000
00000000
00100000
00010000
00100000
00000000
,
01000000
01000000
10000000
00100000
,
01100000
00000000
00000000
00000000
00001000
00010000
00001000
00000000
,
00000100
00000100
00000010
00000010
,
00002002
00000000
00003003
00000000
00000001
00000100
00000001
00000000
,
00000010
00000010
00001000
00010000
,
01100000
00000000
00000000
00000000
00010000
00100000
00010000
00000000
,
10000000
10000000
00200000
00300000
,
01100000
00000000
00010000
00000000
00000000
00010000
00010000
00000000
,
00100000
00000000
10010000
00000000
01000000
00010000
00001000
00000000
,
00000100
00000000
00000110
00000000
00001000
00001000
00001000
00000000
,
00000010
00000000
00001001
00000000
00000100
00001000
00010000
00000000
,
01000000
00000000
00000000
00000000
;
