#TITLE:BONG BONG BANG BANG;
#SUBTITLE:;
#ARTIST:365DABAND;
#TITLETRANSLIT:;
#SUBTITLETRANSLIT:;
#ARTISTTRANSLIT:;
#GENRE:World Music;
#CREDIT:;
#BANNER:BONG BONG BANG BANG.png;
#BACKGROUND:BONG BONG BANG BANG-bg.png;
#LYRICSPATH:;
#CDTITLE:../cdtitle.png;
#MUSIC:BONG BONG BANG BANG.ogg;
#OFFSET:1.103000;
#SAMPLESTART:67.765999;
#SAMPLELENGTH:15.000000;
#LASTBEATHINT:0.197417;
#SELECTABLE:YES;
#BPMS:0.000000=115.000000
;
#STOPS:
;
#BGCHANGES:3.875=BONG BONG BANG BANG.avi=1.000=0=0=0=StretchNoLoop====,
99999=-nosongbg-=1.000=0=0=0 // don't automatically add -songbackground-
;
#KEYSOUNDS:;
#ATTACKS:;

//---------------dance-single - ----------------
#NOTES:
     dance-single:
     :
     Beginner:
     1:
     0.055664,0.091417,0.067439,0.029973,0.000000,52.000000,43.000000,9.000000,4.000000,0.000000,0.000000,0.055664,0.091417,0.067439,0.029973,0.000000,52.000000,43.000000,9.000000,4.000000,0.000000,0.000000:
0000
0000
0000
0000
,
0000
0000
0000
0000
,
0000
0000
0000
0000
,
0000
0000
0000
0000
,
0000
0000
0000
0000
,
1000
0000
0000
0000
,
0000
0000
0000
0000
,
1000
0000
0000
0000
,
0000
0000
0000
0000
,
0001
0000
0000
0000
,
0000
0000
0000
0000
,
0001
0000
0000
0000
,
0000
0000
0000
0000
,
1000
0000
0000
0000
,
1000
0000
0000
0000
,
0001
0000
0000
0000
,
0001
0000
0000
0000
,
0100
0000
0000
0000
,
0100
0000
0000
0000
,
0010
0000
0000
0000
,
0010
0000
0000
0000
,
1000
0000
0000
0000
,
0100
0000
0000
0000
,
1000
0000
0000
0000
,
0001
0000
0000
0000
,
2000
0000
0000
0000
,
3000
0000
0000
0000
,
0002
0000
0000
0000
,
0003
0000
0000
0000
,
0020
0000
0000
0000
,
0030
0000
0000
0000
,
0200
0000
0000
0000
,
0300
0000
0000
0000
,
1001
0000
0000
0000
,
0000
0000
0000
0000
,
1001
0000
0000
0000
,
0000
0000
0000
0000
,
1001
0000
0000
0000
,
0000
0000
0000
0000
,
1001
0000
0000
0000
,
0000
0000
0000
0000
,
1000
0000
1000
0000
,
1000
0000
0000
0000
,
0001
0000
0001
0000
,
0001
0000
0000
0000
,
1000
0000
0000
0000
,
0100
0000
0000
0000
,
0100
0000
0000
0000
,
1000
0000
0000
0000
,
0001
0000
0000
0000
,
0010
0000
0000
0000
,
0010
0000
0000
0000
,
0001
0000
0000
0000
,
1001
0000
0000
0000
,
0000
0000
0000
0000
,
1001
0000
0000
0000
,
0000
0000
0000
0000
,
1001
0000
0000
0000
,
0000
0000
0000
0000
,
1001
0000
0000
0000
,
0000
0000
0000
0000
,
1001
0000
0000
0000
;

//---------------dance-single - ----------------
#NOTES:
     dance-single:
     :
     Easy:
     5:
     0.193753,0.228543,0.089919,0.059946,0.000000,181.000000,169.000000,12.000000,8.000000,0.000000,0.000000,0.193753,0.228543,0.089919,0.059946,0.000000,181.000000,169.000000,12.000000,8.000000,0.000000,0.000000:
0000
0000
0000
0000
,
0000
0000
0000
0000
,
0000
0000
0000
0000
,
0000
0000
0000
0000
,
0000
0000
0000
0000
,
1000
1000
1000
0000
,
0001
0010
1000
0000
,
0001
0001
0001
0000
,
1000
0010
0001
0000
,
1000
0000
1000
0000
,
0001
0100
0001
0000
,
0100
0000
0100
0000
,
0010
1000
0010
0000
,
1000
0000
0001
0000
,
1000
0100
0001
0000
,
0001
0000
1000
0000
,
0001
0010
1000
0000
,
0001
0000
0001
0000
,
0001
0000
0001
1001
,
1000
0000
1000
0000
,
1000
0000
1000
1001
,
0010
0010
0010
0000
,
0100
0100
0100
0000
,
1000
0000
1000
0000
,
0010
0100
0001
0000
,
2000
0000
3002
0000
,
1003
0001
1000
0001
,
2000
0000
3002
0000
,
1003
0001
1000
0001
,
0020
0000
0230
0000
,
0310
0100
0010
0100
,
0020
0000
0230
0000
,
0310
0100
0010
0100
,
1001
1000
0001
0000
,
0010
0010
0100
0010
,
1001
0001
1000
0000
,
0010
0010
0100
0001
,
1001
1000
0001
0000
,
0100
0100
0010
0100
,
1001
0001
1000
0000
,
0100
0100
0010
0001
,
1000
0000
0001
0000
,
1000
0001
1000
0000
,
0001
0001
1000
1000
,
0001
1000
0001
0000
,
0001
0000
0001
0000
,
1000
0000
1000
0110
,
0100
0000
0001
0000
,
1000
0000
0001
0001
,
1000
0001
0100
0000
,
0001
1000
0100
0000
,
1000
1000
0001
0000
,
0010
0010
0100
0100
,
1001
1000
0001
0000
,
0010
0010
0100
0010
,
1001
0001
1000
0000
,
0010
0010
0100
0001
,
1001
1000
0001
0000
,
0100
0100
0010
0100
,
1001
0001
1000
0000
,
0100
0100
0010
0001
,
1001
0000
0000
0000
;

//---------------dance-single - ----------------
#NOTES:
     dance-single:
     :
     Medium:
     7:
     0.284742,0.319960,0.149864,0.157358,0.000000,266.000000,246.000000,20.000000,21.000000,0.000000,0.000000,0.284742,0.319960,0.149864,0.157358,0.000000,266.000000,246.000000,20.000000,21.000000,0.000000,0.000000:
0000
0000
0000
0000
,
0000
0000
0000
0000
,
0000
0000
0000
0000
,
0000
0000
0000
0000
,
0000
0000
0000
0000
,
1000
0100
0001
0000
1000
0000
0001
0000
,
0100
0100
1000
1001
,
0001
0010
1000
0000
0001
0000
1000
0000
,
0010
0010
0001
1001
,
1000
1000
0001
0000
,
0001
0010
0100
0000
1000
0000
0000
0000
,
0001
0001
1000
0100
,
1000
0010
0100
0000
0001
0000
0000
0000
,
2000
3100
0002
0103
,
1000
0100
1000
0000
0001
0000
1000
0000
,
0100
0100
0100
0000
0010
0010
0010
0000
,
0001
1000
0100
0000
1000
0001
1000
0000
,
0001
0100
0001
0000
0100
1000
0100
0000
,
1000
0010
1000
0000
0010
0000
0011
0000
,
1000
0100
1000
0000
0100
0001
0100
0000
,
0001
0010
0001
0000
0010
0000
1010
0000
,
0100
0010
0100
0000
0001
0000
0000
0000
,
1000
0100
1000
0000
0010
0000
0110
0000
,
0002
0013
2000
3000
,
0010
0100
0010
0000
0100
0000
0010
0000
,
2000
0000
3002
0000
,
2003
0100
3002
0103
,
0002
0000
2003
0000
,
3002
0010
2003
3010
,
0200
0010
0010
0010
,
0302
0010
0010
1003
,
0020
0100
0100
0100
,
2030
0100
0100
3001
,
1001
0000
1000
0000
0001
0100
0001
0000
,
0100
0100
0010
0110
,
1000
0000
1000
0000
0001
0010
0001
0000
,
1000
0100
1000
0000
0010
0100
0010
0000
,
1001
0000
0001
0000
1000
0100
1000
0000
,
0100
0100
0010
0110
,
0001
0000
0001
0000
1000
0010
1000
0000
,
0001
0100
0001
0000
0010
0100
0010
0000
,
0011
0000
1100
0000
,
0101
0000
1000
0110
,
0001
0000
1000
0000
,
0010
0000
0001
0110
,
2002
0000
3003
0000
0001
1000
0000
1000
,
0002
0000
0003
0000
1000
0100
0010
0000
,
0002
0000
0003
0000
1000
0001
0000
0001
,
2000
0000
3000
0000
0001
0100
0010
0000
,
1000
0000
0001
0001
1000
0000
0001
0000
,
0100
0001
1000
0010
,
1000
0000
0001
0001
1000
0000
0001
0000
,
0010
0100
1000
1000
,
1001
0000
1000
0000
0001
0100
0001
0000
,
0100
0100
0010
0110
,
1000
0000
1000
0000
0001
0010
0001
0000
,
1000
0100
1000
0000
0010
0100
0010
0000
,
1001
0000
0001
0000
1000
0100
1000
0000
,
0100
0100
0010
0110
,
0001
0000
0001
0000
1000
0010
1000
0000
,
0001
0100
0001
0000
0010
0100
0010
0000
,
1001
0000
0000
0000
;

//---------------dance-single - ----------------
#NOTES:
     dance-single:
     :
     Hard:
     9:
     0.359675,0.365669,0.082425,0.247276,0.000000,336.000000,325.000000,11.000000,33.000000,0.000000,0.000000,0.359675,0.365669,0.082425,0.247276,0.000000,336.000000,325.000000,11.000000,33.000000,0.000000,0.000000:
0000
0000
0000
0000
,
0000
0000
0000
0000
,
0000
0000
0000
0000
,
0000
0000
0000
0000
,
0000
0000
0000
0000
,
1000
0100
0001
0100
1000
0000
0001
0000
,
1000
0100
0001
0010
1000
0000
1001
0000
,
0001
0100
1000
0100
0001
0000
1000
0000
,
0001
0100
1000
0010
0001
0000
1001
0000
,
0001
0010
0001
0000
1000
0000
0001
0000
,
1000
0100
1000
0001
0200
0000
0300
0000
,
0010
1000
0010
0000
0100
0000
0001
0000
,
0010
0001
0010
0100
2000
0000
3001
0000
,
2000
0000
0100
0000
3002
0000
0103
0001
,
0010
0100
0010
0100
2000
0000
3002
0000
,
1003
1000
0100
0000
0001
0001
0100
0000
,
1000
1000
0001
0100
0010
1000
0001
0000
,
1000
1000
0100
1000
0001
0001
0100
0001
,
0010
0010
0100
0010
0001
1000
0001
0000
,
1000
1000
0010
1000
0001
0001
0010
0001
,
0100
0100
0010
0100
0001
1000
0001
0000
,
1000
0100
0001
0100
1000
0000
0001
0010
,
1000
0010
0001
0010
0100
0010
0001
0000
,
2000
0000
3001
0100
0002
0000
0003
1000
,
0100
0010
0100
1000
0001
1000
0001
0000
,
2000
0000
3002
0000
,
0023
0230
2300
3001
,
2000
0000
3020
0000
,
0230
0302
2003
3001
,
2000
0001
3002
0100
,
0203
0320
2030
3001
,
2000
0100
3200
0010
,
0320
0032
2003
3001
,
1000
0000
0001
1000
0100
1000
0001
0000
,
1000
0010
0001
0010
1000
0000
1001
0000
,
0001
0000
0010
1000
0001
1000
0100
0000
,
0010
1000
0100
0001
0100
1000
0001
0000
,
1001
0000
1000
0001
0010
0001
1000
0000
,
0001
0100
1000
0100
0001
0000
1001
0000
,
1000
0000
0100
0001
1000
0001
0010
0000
,
0100
0001
0010
1000
0010
0001
1000
0000
,
0010
0100
0010
0000
1000
0100
1000
0000
,
0001
0100
0001
0000
0100
0100
0010
0000
,
0100
0010
0100
0000
0001
0010
0001
0000
,
1000
0010
1000
0000
0010
0010
0100
0000
,
2002
0000
3003
0001
1000
0100
0000
0010
,
0200
0000
0300
1000
0100
0010
0001
1000
,
0002
0000
0003
0001
1000
0010
0000
0100
,
0020
0000
0030
1000
0010
0100
0001
0000
,
0001
0010
0100
0010
0001
0000
0001
0000
,
1000
0100
0010
0100
1000
0000
1000
0001
,
1000
0010
0100
0010
1000
0000
1000
0000
,
0001
0100
0001
0100
0010
0100
0001
0000
,
1001
0000
1000
0001
0010
0001
1000
0000
,
0001
0100
1000
0100
0001
0000
1001
0000
,
1000
0000
0100
0001
1000
0001
0010
0000
,
0100
0001
0010
1000
0010
0001
1000
0000
,
1001
0000
0001
1000
0100
1000
0001
0000
,
1000
0010
0001
0010
1000
0000
1001
0000
,
0001
0000
0010
1000
0001
1000
0100
0000
,
0010
1000
0100
0001
0100
1000
0001
0000
,
1001
0000
0000
0000
;

//---------------dance-single - ----------------
#NOTES:
     dance-single:
     :
     Challenge:
     12:
     0.453875,0.525649,0.157358,0.157358,0.134878,424.000000,403.000000,21.000000,21.000000,0.000000,0.000000,0.453875,0.525649,0.157358,0.157358,0.134878,424.000000,403.000000,21.000000,21.000000,0.000000,0.000000:
// measure 0
0000
0000
0000
0000
,  // measure 1
0000
0000
0000
0000
,  // measure 2
0000
0000
0000
0000
,  // measure 3
0000
0000
0000
0000
,  // measure 4
0000
0000
0000
0000
,  // measure 5
1000
0000
0100
0000
0001
0000
0100
0000
1000
0000
0000
1000
0000
0000
0001
0100
,  // measure 6
0001
0000
0100
0000
0010
0000
1000
0000
0001
0000
0000
0010
0000
0000
0100
0000
,  // measure 7
1000
0000
0010
0000
0001
0000
0010
0000
1000
0000
0000
1000
0000
0000
0001
0010
,  // measure 8
0001
0000
0010
0000
0100
0000
1000
0000
0001
0000
0000
0100
0000
0000
0010
0000
,  // measure 9
1000
0100
1000
1000
0001
0000
1000
0100
,  // measure 10
1000
0001
0100
0010
1000
0000
1001
0010
,  // measure 11
0001
0001
0010
0100
1000
0000
0100
0100
,  // measure 12
0010
0100
1000
0001
0100
0000
0110
0000
,  // measure 13
2000
0000
3200
0000
0320
0000
0031
1000
,  // measure 14
0010
0010
0100
0001
2000
0000
3002
0000
,  // measure 15
0013
0001
0011
0000
1000
0010
1010
0000
,  // measure 16
1000
0000
0100
0010
0100
0000
0010
0000
0001
0000
1000
0000
0001
0000
0000
0000
,  // measure 17
1000
0000
1000
0100
1000
0000
0001
0000
0100
0000
0100
0001
0100
0000
0010
0000
,  // measure 18
1000
0000
1000
0010
1000
0000
0100
0000
0010
0000
0100
0000
0110
0000
0000
0000
,  // measure 19
0001
0000
0001
0010
0001
0000
1000
0000
0010
0000
0010
1000
0010
0000
0100
0000
,  // measure 20
0001
0000
0001
0100
0001
0000
0010
0000
0100
0000
0010
0000
0110
0000
0100
0000
,  // measure 21
1000
0001
0010
0001
1000
0000
0001
1000
,  // measure 22
0100
1000
0001
0100
1000
0100
0001
0000
,  // measure 23
2000
0000
3100
0010
0012
0000
0013
0100
,  // measure 24
1000
0010
0100
0010
1000
1000
0100
0000
,  // measure 25
0020
0000
0032
0000
,  // measure 26
1003
0100
0010
0100
1000
0100
0010
0000
,  // measure 27
0200
0000
2300
0000
,  // measure 28
3001
0010
0100
0010
0001
0010
0100
0000
,  // measure 29
2000
0010
3020
0100
,  // measure 30
0130
0001
1000
0001
0100
0001
1000
0000
,  // measure 31
0002
0010
0023
0100
,  // measure 32
0130
1000
0001
1000
0100
1000
0001
0000
,  // measure 33
1001
0000
0000
1000
0001
0000
0001
0000
1000
0000
0001
0000
0100
0000
0010
0000
,  // measure 34
1000
1000
0001
0001
0100
0001
1000
0000
,  // measure 35
1001
0000
0000
0001
1000
0000
1000
0000
0001
0000
1000
0000
0100
0000
0010
0000
,  // measure 36
0001
0010
1000
0010
0001
1000
0010
0000
,  // measure 37
0110
0000
0000
0100
0010
0000
0010
0000
0100
0000
0010
0000
0001
0000
0010
0000
,  // measure 38
1000
0001
0010
0001
1000
0010
0100
0000
,  // measure 39
0110
0000
0000
0010
0100
0000
0100
0000
0010
0000
0100
0000
1000
0000
0100
0000
,  // measure 40
0001
0010
1000
0010
0001
1000
0010
0000
,  // measure 41
0100
0000
0100
0001
0100
0000
0010
0000
1000
0000
1000
0100
1000
0000
0100
0000
,  // measure 42
0010
0000
0001
0010
0001
0000
1000
0000
0010
0000
0100
0000
0110
0000
0000
0000
,  // measure 43
0010
0000
0010
1000
0010
0000
0100
0000
0001
0000
0001
0010
0001
0000
0010
0000
,  // measure 44
0100
0000
1000
0100
1000
0000
0001
0000
0100
0000
0010
0000
0110
0000
0000
0000
,  // measure 45
2002
0000
3003
1000
0100
0100
0000
0010
,  // measure 46
0002
0000
0003
1000
0001
0001
1000
0001
,  // measure 47
0200
0000
0300
0010
1000
1000
0000
0001
,  // measure 48
0200
0000
0000
0000
0300
0000
0010
0000
0100
0000
0010
0100
0000
0100
0010
0000
,  // measure 49
1000
0000
0001
0100
0001
0000
1000
0000
0100
0000
0000
0000
0110
0000
0100
0000
,  // measure 50
1000
0000
0100
0010
0001
0000
1000
0000
0010
0000
0010
0000
0100
0000
0010
1000
,  // measure 51
0001
0000
1000
0100
1000
0000
0001
0000
0100
0000
0010
0000
0110
0000
0100
0000
,  // measure 52
0001
0000
0100
0010
1000
0000
0001
0000
0010
0100
0010
0100
0020
0000
0030
0000
,  // measure 53
1001
0000
0000
0001
1000
0000
1000
0000
0001
0000
1000
0000
0010
0000
0100
0000
,  // measure 54
0001
0001
1000
1000
0010
1000
0001
0000
,  // measure 55
1001
0000
0000
1000
0001
0000
0001
0000
1000
0000
0001
0000
0010
0000
0100
0000
,  // measure 56
1000
0100
0001
0100
1000
0001
0100
0000
,  // measure 57
0110
0000
0000
0010
0100
0000
0100
0000
0010
0000
0100
0000
1000
0000
0100
0000
,  // measure 58
0001
1000
0100
1000
0001
0100
0010
0000
,  // measure 59
0110
0000
0000
0100
0010
0000
0010
0000
0100
0000
0010
0000
0001
0000
0010
0000
,  // measure 60
1000
0100
0001
0100
1000
0001
0100
0000
,  // measure 61
1001
0000
0000
0000
;

//---------------dance-double - ----------------
#NOTES:
     dance-double:
     :
     Easy:
     5:
     0.187330,0.228543,0.067439,0.059946,0.000000,175.000000,166.000000,9.000000,8.000000,0.000000,0.000000,0.187330,0.228543,0.067439,0.059946,0.000000,175.000000,166.000000,9.000000,8.000000,0.000000,0.000000:
00000000
00000000
00000000
00000000
,
00000000
00000000
00000000
00000000
,
00000000
00000000
00000000
00000000
,
00000000
00000000
00000000
00000000
,
00000000
00000000
00000000
00000000
,
00010000
00010000
00010000
00000000
,
00000100
00010000
00001000
00000000
,
00010000
00010000
00010000
00000000
,
00001000
01000000
00010000
00000000
,
10000000
00000000
10000000
00000000
,
00010000
00100000
00010000
00000000
,
00100000
00000000
00100000
00000000
,
00001000
00010000
00001000
00000000
,
00010000
00000000
00001000
00000000
,
00010000
00001000
00000010
00000000
,
00000001
00000000
00001000
00000000
,
00000001
00000100
00001000
00000000
,
00010000
00000000
00010000
00000000
,
00001000
00000000
00001000
00100000
,
00001000
00000000
00001000
00000000
,
00010000
00000000
00010000
00000100
,
00010000
00001000
00010000
00000000
,
00001000
01000000
00001000
00000000
,
00010000
00000000
00001000
00000000
,
00010000
00001000
00100000
00010000
,
20000000
00000000
30020000
00000000
,
10030000
00010000
10000000
00000000
,
02000000
00000000
03200000
00000000
,
01300000
00100000
01000000
00000000
,
00020000
00000000
00032000
00000000
,
00013000
00001000
00010000
00000000
,
00000020
00000000
00000230
00000000
,
00000310
00000100
00000010
00000000
,
00000110
00000100
00000100
00000000
,
00000001
00001000
00000100
00001000
,
00001001
00000001
00000010
00000000
,
00001000
00010000
00010000
00100000
,
01100000
00100000
00100000
00000000
,
10000000
00010000
00100000
00010000
,
10010000
10000000
01000000
00000000
,
00010000
00001000
00001000
00000100
,
00000001
00000000
00001000
00000000
,
00000001
00001000
00010000
00000000
,
00001000
00001000
00010000
00010000
,
00001000
00010000
10000000
00000000
,
00010000
00000000
00010000
00000000
,
10000000
00000000
10000000
01000000
,
00010000
00000000
00010000
00000000
,
00001000
00000000
00010000
00001000
,
00010000
00010000
00000100
00000000
,
00010000
00001000
00010000
00000000
,
00001000
00001000
00100000
00000000
,
00001000
00010000
00001000
00000100
,
00000110
00000100
00000100
00000000
,
00000001
00001000
00000100
00001000
,
00001001
00000001
00000010
00000000
,
00001000
00010000
00010000
00100000
,
01100000
00100000
00100000
00000000
,
10000000
00010000
00100000
00010000
,
10010000
10000000
01000000
00000000
,
00010000
00001000
00001000
00000100
,
00000110
00000000
00000000
00000000
;

//---------------dance-double - ----------------
#NOTES:
     dance-double:
     :
     Medium:
     7:
     0.286883,0.319960,0.172344,0.127385,0.000000,268.000000,245.000000,23.000000,17.000000,0.000000,0.000000,0.286883,0.319960,0.172344,0.127385,0.000000,268.000000,245.000000,23.000000,17.000000,0.000000,0.000000:
00000000
00000000
00000000
00000000
,
00000000
00000000
00000000
00000000
,
00000000
00000000
00000000
00000000
,
00000000
00000000
00000000
00000000
,
00000000
00000000
00000000
00000000
,
10000000
01000000
00010000
00000000
00001000
00000000
00010000
00000000
,
00001000
00001000
00000100
00000110
,
00000001
00000010
00001000
00000000
00010000
00000000
00001000
00000000
,
00010000
00010000
00100000
01100000
,
10000000
10000000
00010000
00000000
,
00100000
00010000
00100000
00000000
00001000
00000000
00000000
00000000
,
00010000
00010000
00000010
00000000
,
00010000
00001000
00010000
00000000
00000100
00000000
00000000
00000000
,
00002000
00003010
00000002
00000013
,
00001000
00000010
00001000
00000000
00000100
00000000
00010000
00000000
,
00001000
00001000
00001000
00000000
00010000
00010000
00010000
00000000
,
00001000
00100000
00010000
00000000
01000000
00000000
01100000
00000000
,
10000000
01000000
10000000
00000000
00010000
00100000
00010000
00000000
,
01000000
00010000
01000000
00000000
00001000
00000000
00011000
00000000
,
00010000
00000100
00010000
00000000
00000010
00001000
00000010
00000000
,
00000100
00000001
00000100
00000000
00000001
00000000
00001001
00000000
,
00000001
00000010
00001000
00000000
00010000
00000000
00000000
00000000
,
00001000
00010000
01000000
00000000
10000000
00000000
10010000
00000000
,
00020000
10030000
00200000
00300000
,
00010000
00000000
00001000
00000000
00000100
00000100
00000100
00000000
,
00000002
00000000
00002003
00000000
,
00003001
00000010
00001000
00010000
,
00002000
00000000
00023000
00000000
,
00031000
00100000
01000000
10000000
,
20000000
00010000
30020000
00100000
,
00130000
01000000
00010000
00001000
,
00020000
00000100
00030200
00000010
,
00000310
00000001
00001000
00000010
,
00000110
00000000
00000100
00000000
00000001
00000100
00000001
00000000
,
00000100
00001000
00010000
00011000
,
00001000
00000000
00100000
00000000
00010000
00100000
00010000
00000000
,
10000000
10000000
10000000
00000000
00100000
00100000
00100000
00000000
,
01100000
00000000
00100000
00000000
10000000
00100000
10000000
00000000
,
00100000
00010000
00001000
00011000
,
00010000
00000000
00000100
00000000
00001000
00000100
00001000
00000000
,
00000001
00000001
00000001
00000000
00000100
00000100
00000100
00000000
,
00000110
00000000
00001100
00000000
,
00011000
00000000
00001000
00010000
,
01100000
00000000
01010000
00000000
,
00011000
00000000
00010000
00001000
,
00022000
00000000
00033000
00000000
00010000
00001000
00000000
00001000
,
00000200
00000000
00000300
00000000
00000001
00000100
00000010
00000000
,
00002000
00000000
00003000
00000000
00000100
00010000
00000000
00010000
,
00002000
00003000
00100000
00011000
,
00001000
00000000
00100000
00100000
00010000
00000000
00010000
00000000
,
10000000
00000000
10000000
00000000
00100000
01000000
00100000
00000000
,
00010000
00000000
00001000
00001000
00010000
00000000
00010000
00000000
,
00000100
00000000
00000100
00001000
00000010
00000000
00000010
00000000
,
00000110
00000000
00000100
00000000
00000001
00000100
00000001
00000000
,
00000100
00001000
00010000
00011000
,
00001000
00000000
00100000
00000000
00010000
00100000
00010000
00000000
,
10000000
10000000
10000000
00000000
00100000
00100000
00100000
00000000
,
01100000
00000000
00100000
00000000
10000000
00100000
10000000
00000000
,
00100000
00010000
00001000
00011000
,
00010000
00000000
00000100
00000000
00001000
00000100
00001000
00000000
,
00000001
00000001
00000001
00000000
00000100
00000100
00000100
00000000
,
00001001
00000000
00000000
00000000
;

//---------------dance-double - ----------------
#NOTES:
     dance-double:
     :
     Hard:
     9:
     0.351111,0.342815,0.089919,0.247276,0.000000,328.000000,316.000000,12.000000,33.000000,0.000000,0.000000,0.351111,0.342815,0.089919,0.247276,0.000000,328.000000,316.000000,12.000000,33.000000,0.000000,0.000000:
00000000
00000000
00000000
00000000
,
00000000
00000000
00000000
00000000
,
00000000
00000000
00000000
00000000
,
00000000
00000000
00000000
00000000
,
00000000
00000000
00000000
00000000
,
10000000
01000000
00010000
01000000
10000000
00000000
10000000
00000000
,
01000000
00010000
00001000
00010000
00000010
00000000
00000110
00000000
,
00000001
00000100
00001000
00000100
00000001
00000000
00000001
00000000
,
00000100
00001000
00010000
00001000
00100000
00000000
01100000
00000000
,
00010000
00100000
00010000
00000000
10000000
00000000
00100000
00000000
,
01000000
00010000
01000000
00001000
00020000
00000000
00030000
00000000
,
00000100
00001000
00000100
00000000
00001000
00000000
00000001
00000000
,
00000100
00000001
00000100
00000010
00002000
00000000
00003001
00000000
,
00002000
00000000
00003100
00000000
00000002
00000000
00000103
00000001
,
00001000
00000100
00001000
00000100
00020000
00000000
00032000
00000000
,
00103000
00010000
00100000
00000000
00001000
01000000
00001000
00000000
,
00010000
00010000
00001000
00010000
01000000
00010000
00001000
00000000
,
00001000
00010000
00100000
00000000
10000000
00100000
00010000
00000000
,
00001000
00000100
00001000
00000000
00001000
00010000
00001000
00000000
,
00010000
00001000
00000010
00000000
00000001
00000010
00001000
00000000
,
00010000
01000000
00010000
00000000
00010000
00001000
00010000
00000000
,
00001000
00100000
00010000
00100000
00001000
00000000
00001000
01000000
,
00010000
01000000
00001000
00010000
00001000
00000010
00000100
00000000
,
00000020
00000000
00000031
00001000
00000002
00000000
00000003
00001000
,
00000100
00000001
00000100
00001000
00000010
00000100
00000010
00000000
,
00002000
00000000
00003002
00000000
,
00002003
00003002
00002003
00003001
,
00000020
00000000
00000230
00000000
,
00000320
00000230
00000320
00000130
,
00020000
00001000
00032000
00010000
,
00023000
00032000
00023000
00031000
,
00200000
01000000
02300000
00100000
,
03200000
02300000
03200000
01300000
,
10010000
00000000
10000000
00100000
00010000
00100000
10000000
00000000
,
00010000
00100000
01000000
00100000
00010000
00000000
00011000
00000000
,
00010000
00000000
00000100
00001000
00010000
00001000
00000100
00000000
,
00001000
00000010
00000001
00000010
00001000
00000001
00000010
00000000
,
00001001
00000000
00000001
00000100
00001000
00000100
00000001
00000000
,
00001000
00000100
00000010
00000100
00001000
00000000
00011000
00000000
,
00001000
00000000
00100000
00010000
00001000
00010000
00100000
00000000
,
00010000
01000000
10000000
01000000
00010000
10000000
01000000
00000000
,
00100000
00010000
00100000
00000000
00001000
00010000
00001000
00000000
,
01000000
00010000
01000000
00000000
01000000
00001000
00010000
00000000
,
00000010
00001000
00000010
00000000
00010000
00001000
00010000
00000000
,
00000100
00001000
00000100
00000000
00000100
00010000
00001000
00000000
,
00022000
00000000
00033000
00010000
00001000
00001000
00000000
00100000
,
00020000
00000000
00030000
10000000
01000000
00100000
01000000
10000000
,
00020000
00000000
00030000
01000000
00100000
00100000
00000000
00010000
,
00002000
00000000
00003000
00010000
00001000
00000100
00000010
00000000
,
00001000
00000100
00000010
00000000
00000001
00000000
00000001
00000000
,
00000010
00000100
00010000
00001000
00010000
00000000
00001000
00000000
,
00010000
00100000
10000000
00000000
00010000
00000000
00010000
00000000
,
01000000
00001000
01000000
00001000
00100000
00010000
00100000
00000000
,
10010000
00000000
10000000
00100000
00010000
00100000
10000000
00000000
,
00010000
00100000
01000000
00100000
00010000
00000000
00011000
00000000
,
00010000
00000000
00000100
00001000
00010000
00001000
00000100
00000000
,
00001000
00000010
00000001
00000010
00001000
00000001
00000010
00000000
,
00001001
00000000
00000001
00000100
00001000
00000100
00000001
00000000
,
00001000
00000100
00000010
00000100
00001000
00000000
00011000
00000000
,
00001000
00000000
00100000
00010000
00001000
00010000
00100000
00000000
,
00010000
01000000
10000000
01000000
00010000
10000000
01000000
00000000
,
10010000
00000000
00000000
00000000
;

//---------------dance-double - ----------------
#NOTES:
     dance-double:
     :
     Challenge:
     12:
     0.449593,0.502795,0.164851,0.157358,0.134878,420.000000,398.000000,22.000000,21.000000,0.000000,0.000000,0.449593,0.502795,0.164851,0.157358,0.134878,420.000000,398.000000,22.000000,21.000000,0.000000,0.000000:
00000000
00000000
00000000
00000000
,
00000000
00000000
00000000
00000000
,
00000000
00000000
00000000
00000000
,
00000000
00000000
00000000
00000000
,
00000000
00000000
00000000
00000000
,
10000000
00000000
01000000
00000000
00010000
00000000
01000000
00000000
10000000
00000000
00000000
10000000
00000000
00000000
00010000
00100000
,
00010000
00000000
01000000
00000000
00001000
00000000
00010000
00000000
00000010
00000000
00000000
00000010
00000000
00000000
00001000
00000000
,
00000001
00000000
00000100
00000000
00001000
00000000
00000100
00000000
00000001
00000000
00000000
00000001
00000000
00000000
00001000
00000010
,
00001000
00000000
00000100
00000000
00010000
00000000
00001000
00000000
00100000
00000000
00000000
00100000
00000000
00000000
00010000
00000000
,
10000000
00100000
01000000
01000000
00100000
00000000
10000000
01000000
,
00100000
01000000
00100000
00001000
00010000
00000000
00011000
00000100
,
00001000
00000010
00000100
00000100
00000010
00000000
00001000
00000100
,
00000010
00000100
00000010
00000001
00001000
00000000
00001001
00000000
,
00000002
00000000
00002003
00000000
00023000
00000000
10030000
00010000
,
00100000
01000000
00100000
00010000
20000000
00000000
30020000
00000000
,
00031000
00001000
00001000
00000000
00000001
00000001
00000001
00000000
,
00001000
00000000
00000010
00000100
00000010
00000000
00000100
00000000
00000001
00000000
00001000
00000000
00001100
00000000
00000000
00000000
,
00010000
00000000
00001000
00010000
00001000
00000000
01000000
00000000
00100000
00000000
10000000
00100000
10000000
00000000
00010000
00000000
,
00100000
00000000
01000000
00100000
01000000
00000000
00010000
00000000
00001000
00000000
00010000
00000000
00011000
00000000
00000000
00000000
,
00001000
00000000
00010000
00001000
00010000
00000000
00000100
00000000
00000010
00000000
00000001
00000010
00000001
00000000
00001000
00000000
,
00000010
00000000
00000100
00000010
00000100
00000000
00001000
00000000
00010000
00000000
00001000
00000000
00011000
00000000
00000100
00000000
,
00010000
00001000
01000000
00000100
00010000
00000000
01000000
00010000
,
00001000
00010000
00001000
00000100
00000010
00010000
00001000
00000000
,
00020000
00000000
00030010
00001000
00000020
00000000
00010030
00001000
,
00010000
01000000
10000000
01000000
00010000
00001000
00010000
00000000
,
00002000
00000000
00203000
00000000
,
00310000
10000000
01000000
10000000
00010000
10000000
01000000
00000000
,
00200000
00000000
00320000
00000000
,
01030000
00001000
00010000
00001000
01000000
00001000
00010000
00000000
,
00020000
00000010
00030020
00001000
,
00001030
00000001
00000100
00000001
00001000
00000001
00000100
00000000
,
00000020
00001000
00002030
00000100
,
00003100
00010000
00001000
00010000
00000100
00010000
00001000
00000000
,
00011000
00000000
00000000
00010000
00001000
00000000
00001000
00000000
00100000
00000000
00001000
00000000
00011000
00000000
00000000
00000000
,
00010000
00100000
01000000
00100000
00010000
00001000
00010000
00000000
,
00011000
00000000
00000000
00001000
00010000
00000000
00010000
00000000
00000100
00000000
00010000
00000000
00011000
00000000
00000000
00000000
,
00010000
00001000
00000010
00001000
00010000
00001000
00000100
00000000
,
00000110
00000000
00000000
00000100
00000010
00000000
00000010
00000000
00000100
00000000
00000001
00000000
00001000
00000000
00000001
00000000
,
00000010
00001000
00010000
00100000
01000000
00001000
00100000
00000000
,
01100000
00000000
00000000
01000000
00100000
00000000
00100000
00000000
01000000
00000000
10000000
00000000
00010000
00000000
10000000
00000000
,
00100000
00010000
00001000
00000010
00000100
00010000
00001000
00000000
,
00100000
00000000
00100000
00010000
00100000
00000000
00010000
00000000
01000000
00000000
01000000
00010000
01000000
00000000
00001000
00000000
,
00010000
00000000
00010000
00001000
00010000
00000000
00000100
00000000
00000010
00000000
00000100
00000000
00000110
00000000
00000000
00000000
,
00000100
00000000
00000100
00001000
00000100
00000000
00001000
00000000
00000010
00000000
00000010
00001000
00000010
00000000
00010000
00000000
,
00001000
00000000
00001000
00010000
00001000
00000000
00100000
00000000
01000000
00000000
00100000
00000000
01000000
00000000
00000000
00000000
,
20020000
00000000
30030000
10000000
00100000
00100000
00000000
00010000
,
00002000
00000000
00003000
00010000
00001000
00001000
00000100
00000001
,
00000020
00000000
00000030
00001000
00010000
00010000
00000000
00001000
,
02000000
00000000
00000000
00000000
03000000
00000000
00001000
00000000
00010000
00000000
00001000
00010000
00000000
00010000
00001000
00000000
,
00100000
00000000
00001000
00010000
00001000
00000000
00010000
00000000
00000100
00000000
00000000
00000000
00011000
00000000
00001000
00000000
,
00010000
00000000
00000100
00001000
00000100
00000000
00010000
00000000
00001000
00000000
00001000
00000000
00100000
00000000
00001000
00010000
,
00001000
00000000
01000000
00100000
01000000
00000000
00010000
00000000
10000000
00000000
00000000
00000000
11000000
00000000
00100000
00000000
,
01000000
00000000
10000000
01000000
00100000
00000000
00001000
00000000
00010000
00001000
00010000
00001000
00020000
00000000
00030000
00000000
,
00011000
00000000
00000000
00010000
00001000
00000000
00001000
00000000
00100000
00000000
00001000
00000000
00011000
00000000
00000000
00000000
,
00010000
00100000
01000000
00100000
00010000
00001000
00010000
00000000
,
00011000
00000000
00000000
00001000
00010000
00000000
00010000
00000000
00000100
00000000
00010000
00000000
00011000
00000000
00000000
00000000
,
00010000
00001000
00000010
00001000
00010000
00001000
00000100
00000000
,
00000110
00000000
00000000
00000100
00000010
00000000
00000010
00000000
00000100
00000000
00000001
00000000
00001000
00000000
00000001
00000000
,
00000010
00001000
00010000
00100000
01000000
00001000
00100000
00000000
,
01100000
00000000
00000000
01000000
00100000
00000000
00100000
00000000
01000000
00000000
10000000
00000000
00010000
00000000
10000000
00000000
,
00100000
00010000
00001000
00000010
00000100
00010000
00001000
00000000
,
00011000
00000000
00000000
00000000
;
