#VERSION:0.83;
#TITLE:BLACK or WHITE?;
#SUBTITLE:;
#ARTIST:BlackYooh vs. siromaru;
#TITLETRANSLIT:;
#SUBTITLETRANSLIT:;
#ARTISTTRANSLIT:;
#GENRE:BEMANI;
#ORIGIN:;
#CREDIT:;
#BANNER:BLACK or WHITE.png;
#BACKGROUND:BLACK or WHITE-bg.png;
#PREVIEWVID:;
#JACKET:BLACK or WHITE-jacket.png;
#CDIMAGE:;
#DISCIMAGE:;
#LYRICSPATH:;
#CDTITLE:../cdtitle.png;
#MUSIC:BLACK or WHITE.ogg;
#OFFSET:0.781000;
#SAMPLESTART:52.407001;
#SAMPLELENGTH:15.000000;
#SELECTABLE:YES;
#BPMS:0.000=185.000;
#STOPS:;
#DELAYS:;
#WARPS:;
#TIMESIGNATURES:0.000=4=4;
#TICKCOUNTS:0.000=4;
#COMBOS:0.000=1;
#SPEEDS:0.000=1.000=0.000=0;
#SCROLLS:0.000=1.000;
#FAKES:;
#LABELS:0.000=Song Start;
#BGCHANGES:-99.000=../bg.avi=1.000=0=0=1=====,
99999=-nosongbg-=1.000=0=0=0 // don't automatically add -songbackground-
;
#KEYSOUNDS:;
#ATTACKS:
;

//---------------dance-single - ----------------
#NOTEDATA:;
#CHARTNAME:;
#STEPSTYPE:dance-single;
#DESCRIPTION:;
#CHARTSTYLE:;
#DIFFICULTY:Challenge;
#METER:19;
#RADARVALUES:1.219121,1.342637,0.681745,1.050690,1.415624,1064.000000,979.000000,85.000000,131.000000,16.000000,0.000000,0.000000,0.000000,0.000000,1.219121,1.342637,0.681745,1.050690,1.415624,1064.000000,979.000000,85.000000,131.000000,16.000000,0.000000,0.000000,0.000000,0.000000;
#CREDIT:led_light;
#NOTES:
// measure 0
0000
0000
0000
0000
,  // measure 1
0000
0000
0000
0000
,  // measure 2
0000
0000
0000
0000
,  // measure 3
0000
0000
0000
0000
,  // measure 4
0000
0000
0000
0000
,  // measure 5
1000
0100
0010
0001
0010
0100
1000
0001
1000
0100
0010
0001
0010
0100
1000
0001
,  // measure 6
1000
0010
0100
0001
0100
0010
1000
0001
1000
0010
0100
0001
0100
0010
1000
0001
,  // measure 7
0010
0100
0010
0001
0010
0100
0010
0001
0100
0010
1000
0010
0100
0010
1000
0010
,  // measure 8
MMMM
0000
0000
0000
1000
0001
1000
0001
1000
0001
1000
0001
0020
0000
0030
0000
,  // measure 9
0110
0000
0100
0010
0001
0000
0001
0100
0010
0000
0010
0100
0001
0000
0001
0010
,  // measure 10
1000
0000
1000
0010
0001
0000
0001
0100
0010
0000
0100
0001
0010
0100
1000
0010
,  // measure 11
0100
0000
0100
0010
1000
0000
1000
0100
0010
0000
0010
0100
1000
0000
1000
0010
,  // measure 12
0001
0000
0001
0010
1000
0000
1000
0100
0010
0100
1000
0001
0010
0100
1000
0000
,  // measure 13
MMMM
0000
0010
0100
1000
0000
1000
0010
0100
0000
0100
0010
1000
0000
1000
0100
,  // measure 14
0001
0000
0001
0100
1000
0000
1000
0010
0100
0000
0010
1000
0100
0010
0001
0100
,  // measure 15
0010
0000
0010
0100
0001
1000
0001
0010
0100
0000
0010
0100
1000
0001
1000
0010
,  // measure 16
0100
0001
0100
0001
0010
0001
0010
0001
0010
0100
1000
0100
0010
0001
0100
0010
,  // measure 17
1000
0100
0001
0100
2000
0000
0000
0000
3001
0100
1000
0100
0002
0000
0003
0000
,  // measure 18
1001
1100
0011
1010
0110
0000
2002
3003
,  // measure 19
0001
0010
1000
0010
0002
0000
0000
0000
1003
0010
0001
0010
2000
0000
0000
0000
,  // measure 20
3001
0000
0000
1000
0000
0000
0001
0000
0000
1000
0000
0000
0100
0000
0000
0010
0000
0000
0100
0000
0000
0010
0000
0000
0001
0000
0000
0000
1000
0000
0000
0000
0010
0000
0000
0000
0001
0000
0000
0000
1000
0000
0000
0000
0100
0000
0000
0000
,  // measure 21
0001
0010
0001
0000
0010
1000
0010
0000
0001
0010
0001
0000
1000
0010
1000
0000
,  // measure 22
0001
0100
0001
0000
0100
1000
0100
0000
0001
0100
0001
0000
1000
0100
1000
0000
,  // measure 23
0001
0100
1000
0000
1000
0100
0001
0000
0001
0010
1000
0000
1000
0010
0001
0000
,  // measure 24
1000
0010
1000
0010
0100
0001
0100
0001
1000
0100
0010
0001
0100
0010
1000
0001
,  // measure 25
2000
3200
0320
0032
,  // measure 26
0203
0010
0320
0000
2030
0000
3200
0000
,  // measure 27
0302
0203
2300
3020
,  // measure 28
0032
0010
0023
0000
0230
0000
0302
0000
,  // measure 29
2003
3200
0320
0032
0203
0320
2030
3200
,  // measure 30
0302
0203
2300
3020
0032
0023
0230
0302
,  // measure 31
2003
3020
0230
0302
0023
0230
2300
3020
,  // measure 32
0032
0023
2030
3200
0302
0203
0320
0032
,  // measure 33
1003
0010
1000
0010
0001
0010
0001
0010
1000
0100
1000
0100
0001
0100
0001
0100
,  // measure 34
1000
0001
0010
0100
1000
0001
0010
0100
1000
0001
1000
0010
0100
0001
1000
0001
,  // measure 35
0010
1000
0010
1000
0010
0001
0010
0001
0100
1000
0100
1000
0100
0001
0100
0001
,  // measure 36
1000
0001
0010
0100
1000
0010
0100
0010
1000
0001
0010
0100
0010
0001
1000
0001
,  // measure 37
0010
1000
0010
0001
1000
0100
0001
0100
1000
0001
0010
0100
1000
0001
1000
0010
,  // measure 38
0100
1000
0100
0001
1000
0010
0001
0010
1000
0001
0100
0010
1000
0001
1000
0100
,  // measure 39
0010
0001
0010
0100
0010
0001
1000
0001
0100
0010
0100
0001
0100
0010
1000
0001
,  // measure 40
1000
0000
1000
0000
0001
0000
0001
1000
0100
0000
0010
0000
0220
0000
0330
0000
,  // measure 41
1001
0000
0100
0000
0011
0100
1000
0100
0010
0000
0001
0000
1000
0000
0010
0000
,  // measure 42
0110
0000
1000
0100
0110
0000
0001
0010
0110
0000
1000
0100
0110
0000
0001
1000
,  // measure 43
1001
0000
0100
0000
0011
0100
1000
0100
0010
0000
0001
0000
0100
0000
0010
0000
,  // measure 44
0110
0000
0100
0001
1100
0000
0010
1000
0011
0000
1000
0100
1010
0000
0001
1000
,  // measure 45
1001
0000
0010
0000
1100
0010
0001
0010
0100
0000
1000
0000
0001
0000
0100
0000
,  // measure 46
0110
0000
0001
0010
0110
0000
1000
0100
0110
0000
0001
0010
0110
0000
1000
0001
,  // measure 47
1001
0000
0010
0000
1100
0010
0001
0010
0100
0000
1000
0000
0010
0000
0100
0000
,  // measure 48
0110
0000
0010
1000
0011
0000
0100
0001
1100
0000
0001
0010
0101
0000
1000
0001
,  // measure 49
1001
0000
0100
0000
0011
0100
1000
0100
0010
0000
0001
0000
1000
0000
0010
0000
,  // measure 50
0110
0000
1000
0100
0110
0000
0001
0010
0110
0000
1000
0100
0110
0000
0001
0000
,  // measure 51
MMMM
0000
1100
0101
1010
0011
0210
1300
,  // measure 52
1001
0000
0001
0101
0000
0100
1100
0000
0010
1010
0000
0001
0010
0100
1000
0100
,  // measure 53
0110
0000
0001
0000
1000
0010
0100
0001
1010
0000
0100
0000
1000
0010
0001
0010
,  // measure 54
1100
0000
0001
0000
1000
0100
0010
0001
1100
0000
0010
0000
1000
0100
0001
0100
,  // measure 55
1010
0000
0001
0000
1100
0000
0101
0000
1001
0000
0001
0000
0010
0100
0010
0001
,  // measure 56
1000
0000
0100
0010
0001
0000
1000
0001
0010
0100
1000
0010
0100
0001
0010
0100
,  // measure 57
2000
3002
0023
2030
3002
0203
2300
3002
,  // measure 58
0203
0320
2030
3002
0023
0230
2300
3002
,  // measure 59
2003
3002
0203
2300
3002
0023
2030
3002
,  // measure 60
0023
0230
2300
3002
0203
0320
2030
3002
,  // measure 61
2003
3200
0320
0230
0302
2003
3020
0230
,  // measure 62
2300
3020
0230
0320
0032
2003
3200
0320
,  // measure 63
2030
3002
0023
0230
0320
2030
3020
0032
,  // measure 64
1003
0100
2000
0000
3001
0010
0002
0000
0013
0100
0020
0000
0230
0000
2300
0000
,  // measure 65
3001
0100
1000
0100
0002
0000
0000
0000
1003
0100
0001
0100
2000
0000
3000
0000
,  // measure 66
1001
1010
0101
0000
0011
1100
1001
0000
,  // measure 67
1000
0010
0001
0010
2000
0000
0000
0000
3001
0010
1000
0010
0002
0000
0000
0000
,  // measure 68
1003
0000
0000
0001
0000
0000
1000
0000
0000
0001
0000
0000
0100
0000
0000
0010
0000
0000
0100
0000
0000
0010
0000
0000
1000
0000
0000
0000
0001
0000
0000
0000
0010
0000
0000
0000
1000
0000
0000
0000
0001
0000
0000
0000
0100
0000
0000
0000
,  // measure 69
1000
0010
1000
0010
0001
0000
0010
0000
1000
0100
1000
0100
0001
0000
0100
0000
,  // measure 70
1000
0001
1000
0001
0100
0010
1000
0001
0010
1000
0010
0001
0010
0100
1000
0010
,  // measure 71
0100
0001
0100
0010
0100
0001
0100
0010
1000
0100
0010
0100
1000
0001
1000
0010
,  // measure 72
0001
0010
1000
0001
0100
1000
0100
0001
0010
0100
1000
0010
0100
0001
0010
0100
,  // measure 73
2000
0000
3000
0000
0101
0010
0001
1000
0100
0010
0001
1000
0001
0100
0010
1000
,  // measure 74
1010
0000
0010
0100
0001
0010
0100
0001
0101
0000
0001
0100
1000
0010
0100
1000
,  // measure 75
0100
0010
1000
0001
0010
0100
1000
0001
1000
0010
0100
0010
1000
0001
0010
0100
,  // measure 76
1000
1000
1000
0001
0001
0001
0010
1000
1000
0100
0001
0001
,  // measure 77
0020
0000
0030
0000
1001
0000
0001
0000
0020
0000
1030
0010
0001
0000
1000
0000
,  // measure 78
0010
0001
0010
0100
0010
1000
0001
1000
0100
0010
0100
0001
0100
0010
0100
1000
,  // measure 79
0002
0000
1003
0100
0010
0001
1000
0010
0200
0000
0310
1000
0100
0010
0001
1000
,  // measure 80
0001
0010
0001
0010
0100
1000
0100
1000
0002
0000
1003
0010
0100
0001
0010
0000
,  // measure 81
1001
0000
1100
0000
0110
0000
0001
1000
0010
0000
0100
0000
0101
0000
1010
0000
,  // measure 82
1001
0000
0011
0000
0110
0000
1000
0001
0100
0000
0010
0000
1010
0000
0101
0000
,  // measure 83
1001
0000
0000
0000
0000
0000
1000
0000
0000
0100
0000
0000
0010
0000
0000
0001
0000
0000
0100
0000
0000
0010
0000
0000
1000
0000
0010
0000
0001
0000
1000
0000
0100
0000
0001
0000
1000
0000
0010
0000
0100
0000
0001
0000
0010
0000
0100
0000
,  // measure 84
0010
0000
0110
0000
0110
0000
1001
0000
0001
0010
1000
0010
0001
1000
0100
0000
,  // measure 85
0110
0000
0000
0000
0000
0000
1001
0000
0000
0000
0000
0000
0001
0000
0000
0010
0000
0000
0100
0000
0000
0000
0000
0000
1100
0000
0000
0000
0000
0000
0001
0000
0100
0000
0001
0000
0100
0000
0000
0010
0000
0000
1000
0000
0010
0000
0100
0000
,  // measure 86
0010
0000
0000
0000
0000
0000
1001
0000
0000
0000
0000
0000
1000
0000
0000
0010
0000
0000
0100
0000
0000
0000
0000
0000
0101
0000
0000
0000
0000
0000
1000
0000
0100
0000
1000
0000
0100
0000
0000
0010
0000
0000
0001
0000
1000
0000
0100
0000
,  // measure 87
0010
0100
0010
0100
1000
0001
0100
0001
0100
0010
1000
0010
0100
0001
0010
0100
,  // measure 88
1000
0000
0000
0010
0000
0000
1000
0000
0000
0010
0000
0000
0001
0000
0000
0010
0000
0000
0001
0000
0000
0010
0000
0000
0100
0000
0000
0000
0100
0000
0000
0000
0100
0000
0000
0000
0010
0000
0000
0000
0010
0000
0000
0000
0010
0000
0000
0000
,  // measure 89
MMMM
2002
0000
0000
,  // measure 90
0000
0000
0000
0000
,  // measure 91
0000
0000
0000
0000
,  // measure 92
0000
0000
0000
0000
,  // measure 93
3003
0000
0000
0000
;

//---------------dance-single - ----------------
#NOTEDATA:;
#CHARTNAME:;
#STEPSTYPE:dance-single;
#DESCRIPTION:;
#CHARTSTYLE:;
#DIFFICULTY:Hard;
#METER:18;
#RADARVALUES:0.949860,1.156160,0.368944,0.433109,0.962464,829.000000,783.000000,46.000000,54.000000,0.000000,0.000000,0.000000,0.000000,0.000000,0.949860,1.156160,0.368944,0.433109,0.962464,829.000000,783.000000,46.000000,54.000000,0.000000,0.000000,0.000000,0.000000,0.000000;
#CREDIT:led_light;
#NOTES:
// measure 0
0000
0000
0000
0000
,  // measure 1
0000
0000
0000
0000
,  // measure 2
0000
0000
0000
0000
,  // measure 3
0000
0000
0000
0000
,  // measure 4
0000
0000
0000
0000
,  // measure 5
1000
0100
0010
0000
0001
0000
1000
0000
0001
0010
0100
0000
1000
0000
0001
0000
,  // measure 6
1000
0010
0100
0000
0001
0000
1000
0000
0001
0100
0010
0000
1000
0000
0001
0000
,  // measure 7
0011
0011
0110
0110
1001
0101
1010
0011
,  // measure 8
0000
0000
0000
0000
0100
0010
0100
0010
0100
0010
0100
0010
0200
0000
0300
0000
,  // measure 9
1001
0000
0001
0010
0001
0000
0100
0001
0100
0000
0010
0100
0010
0000
1000
0010
,  // measure 10
1000
0000
0100
1000
0001
0000
1000
0100
1000
0000
0100
0010
0001
1000
0100
0010
,  // measure 11
0001
0000
1000
0100
1000
0000
0010
1000
0010
0000
0100
0010
0100
0000
0001
0100
,  // measure 12
0001
0000
0010
0001
1000
0000
0001
0010
0001
0010
0100
1000
0001
0010
0100
0000
,  // measure 13
2000
0000
3001
0100
0001
0000
0010
0001
0010
0000
0100
0010
0100
0000
1000
0100
,  // measure 14
1000
0000
0010
1000
0001
0000
1000
0010
1000
0000
0010
0100
0001
1000
0010
0100
,  // measure 15
0001
0000
1000
0100
0010
0001
1000
0100
0010
0000
0001
0100
0010
1000
0001
0100
,  // measure 16
0010
1000
0010
1000
0010
0100
0010
0100
0001
0100
0010
1000
0001
0010
0100
0000
,  // measure 17
1000
0100
1000
0100
0020
0000
0000
0000
0130
1000
0100
1000
0020
0000
0000
0000
,  // measure 18
0130
0010
0100
0100
0010
0000
0110
0000
,  // measure 19
0001
0010
0001
0010
0200
0000
0000
0000
0310
0001
0010
0001
0200
0000
0000
0000
,  // measure 20
0310
0000
0000
0100
0000
0000
0010
0000
0000
0000
0000
0000
1000
0000
0000
0000
0000
0000
1000
0000
0000
0000
0000
0000
0001
0000
0000
0000
0100
0000
0000
0000
0010
0000
0000
0000
1000
0000
0000
0000
0100
0000
0000
0000
0010
0000
0000
0000
,  // measure 21
0001
0010
0001
0000
0010
0100
0010
0000
0001
0010
0001
0000
0100
0010
0100
0000
,  // measure 22
0001
0100
0001
0000
1000
0100
1000
0000
0100
0010
0100
0000
1000
0100
1000
0000
,  // measure 23
0001
0010
0001
0000
1000
0100
1000
0000
0100
0010
0001
0000
0010
0100
1000
0000
,  // measure 24
0001
0100
0001
0100
0010
1000
0010
1000
0010
0100
0001
0100
0001
0010
0100
1000
,  // measure 25
0002
0023
0230
2300
,  // measure 26
3001
0100
0020
0000
2030
0000
3002
0000
,  // measure 27
2003
3200
0320
0032
,  // measure 28
1003
0010
0200
0000
0302
0000
2003
0000
,  // measure 29
3001
0010
2000
0000
3020
0000
0032
0000
,  // measure 30
1003
0100
0002
0000
0203
0000
2300
0000
,  // measure 31
3001
0100
2000
0000
3200
0000
0302
0000
,  // measure 32
1003
0010
0002
0000
0023
0000
2030
0000
,  // measure 33
3001
0010
0001
0010
0100
0000
0010
0000
0001
1000
0001
1000
0100
0000
0010
0000
,  // measure 34
0001
0100
0001
0000
1000
0100
1000
0000
0001
0010
0100
0000
1000
0100
0010
0000
,  // measure 35
0001
0100
0001
0100
0010
0000
0100
0000
0001
1000
0001
1000
0010
0000
0100
0000
,  // measure 36
0001
0010
0001
0000
1000
0010
1000
0000
0001
0100
0010
0000
1000
0010
0100
0000
,  // measure 37
0010
1000
0010
0000
1000
0000
0001
0000
0010
0100
0010
0000
0001
0000
1000
0000
,  // measure 38
0100
0010
0100
0000
0010
0001
0010
0000
0001
0100
0001
0000
0100
0010
1000
0000
,  // measure 39
0100
0010
0100
0000
1000
0000
0001
0000
0010
1000
0010
0000
0001
0000
1000
0000
,  // measure 40
0010
0000
0010
0000
0100
0000
0001
1000
0001
0000
0100
0000
0220
0000
0330
0000
,  // measure 41
1001
0000
0000
0000
0001
0010
1000
0010
0001
0000
1000
0000
0100
0000
1000
0000
,  // measure 42
1001
0000
0100
0010
1000
0000
0010
0100
0001
0000
0010
0100
1000
0000
0100
0010
,  // measure 43
0001
0000
0000
0000
0010
0100
0010
0100
0010
0000
0001
0000
0100
0000
0010
0000
,  // measure 44
1010
0011
1100
0110
,  // measure 45
1001
0000
0000
0000
1000
0100
0001
0100
1000
0000
0001
0000
0010
0000
0001
0000
,  // measure 46
1001
0000
0010
0100
0001
0000
0100
0010
1000
0000
0100
0010
0001
0000
0010
0100
,  // measure 47
1000
0000
0000
0000
0100
0010
0100
0010
0100
0000
1000
0000
0010
0000
0100
0000
,  // measure 48
0101
1100
0011
0110
,  // measure 49
1001
0000
0000
0000
0001
0010
1000
0010
0001
0000
1000
0000
0100
0000
1000
0000
,  // measure 50
1001
0000
0100
0010
1000
0000
0010
0100
0001
0000
0010
0100
1000
0000
0100
0000
,  // measure 51
0020
0030
0110
0110
0101
1100
0002
0000
,  // measure 52
0103
0000
0010
0001
0000
0010
0100
0000
0010
1000
0000
0100
0010
0001
0010
0100
,  // measure 53
1000
0000
0000
0000
1000
0100
0010
0001
1000
0000
0000
0000
0001
0100
0010
1000
,  // measure 54
0001
0000
0000
0000
0010
1000
0010
0001
0010
0000
0000
0000
0100
0001
0100
1000
,  // measure 55
0100
0000
0000
0000
0010
0000
0010
0000
0001
0000
0001
0000
1000
0100
1000
0001
,  // measure 56
0100
0000
0010
0000
0100
0000
0000
0000
1000
0100
0010
0100
0001
0010
0100
1000
,  // measure 57
0002
0000
0000
0000
,  // measure 58
0000
0000
0000
0000
,  // measure 59
2003
0000
0000
0000
,  // measure 60
3002
0000
0000
0000
,  // measure 61
0203
0000
0000
0000
,  // measure 62
0320
0000
0000
0000
0000
0100
0000
1030
,  // measure 63
0002
0010
0000
0010
0000
0100
0000
1003
,  // measure 64
0020
0100
0000
0100
0000
0001
0000
1030
,  // measure 65
0001
0010
0001
0010
0200
0000
0000
0000
0310
0001
0010
0001
0200
0000
0000
0000
,  // measure 66
0310
1100
0010
0101
,  // measure 67
1000
0100
1000
0100
0020
0000
0000
0000
0130
1000
0100
1000
0020
0000
0000
0000
,  // measure 68
0130
0000
0000
1000
0000
0000
0100
0000
0000
0000
0000
0000
0001
0000
0000
0100
0000
0000
0001
0000
0000
0000
0000
0000
1000
0000
0000
0000
0100
0000
0000
0000
0010
0000
0000
0000
0001
0000
0000
0000
0010
0000
0000
0000
0100
0000
0000
0000
,  // measure 69
1000
0100
1000
0100
0010
0000
0100
0000
1000
0010
1000
0010
0100
0000
0010
0000
,  // measure 70
1000
0001
0100
0000
0001
1000
0100
0000
0010
0001
1000
0000
0100
0000
0010
0001
,  // measure 71
1000
0100
1000
0000
0100
0010
0100
0000
1000
0010
1000
0000
0010
0100
0010
0000
,  // measure 72
1000
0000
1000
0000
1000
0000
0001
0000
0100
0010
0100
0010
1000
0100
0010
0001
,  // measure 73
2000
0000
3000
0000
1001
0000
0001
0100
0001
0000
1000
0100
0000
1000
0100
0000
,  // measure 74
0110
0000
0001
1000
0000
0001
0100
0000
0110
0000
1000
0010
0000
1000
0001
0000
,  // measure 75
0010
0100
1000
0100
0010
0001
1000
0001
0010
0100
1000
0010
0100
0001
1000
0100
,  // measure 76
0010
0010
0010
0001
0001
0001
0100
0100
0100
1000
0100
0001
,  // measure 77
0020
0000
0030
0000
0110
0000
0001
0000
0200
0000
0310
0100
0010
0000
1000
0000
,  // measure 78
0100
1000
0100
0010
0100
1000
0001
0100
0010
1000
0010
0100
0010
1000
0100
0010
,  // measure 79
0002
0000
1003
0000
0001
1000
0100
0000
0020
0000
0031
0000
0010
0001
1000
0000
,  // measure 80
0001
0100
0001
0100
0010
1000
0100
0010
0100
0000
1000
0100
0000
0010
0100
0000
,  // measure 81
1100
0000
0100
0000
0101
0000
1000
0001
1000
0000
0010
0000
0100
0000
0010
0000
,  // measure 82
1010
0000
0010
0000
0011
0000
1000
0001
1000
0000
0100
0000
0010
0000
0100
0000
,  // measure 83
1100
0000
0100
0000
0010
0001
0010
0001
1000
0100
0010
0001
0100
0010
1000
0100
,  // measure 84
0010
0110
0101
1100
0001
0100
0010
1000
,  // measure 85
0001
0000
0100
0000
0101
0000
0010
0000
1000
0000
0100
0010
0100
0000
0010
0100
,  // measure 86
1000
0000
0100
0000
1100
0000
0010
0000
0001
0000
0100
0010
0100
0000
0010
0000
,  // measure 87
0100
0010
1000
0001
0010
0100
1000
0001
0010
0100
1000
0100
0010
0001
0100
0010
,  // measure 88
1000
0000
0000
1000
0000
0000
1000
0000
0000
0001
0000
0000
1000
0000
0100
0000
0100
0000
0001
0000
0010
0000
0010
0000
,  // measure 89
0000
2002
0000
0000
,  // measure 90
0000
0000
0000
0000
,  // measure 91
0000
0000
0000
0000
,  // measure 92
0000
0000
0000
0000
,  // measure 93
3003
0000
0000
0000
;

//---------------dance-single - ----------------
#NOTEDATA:;
#CHARTNAME:;
#STEPSTYPE:dance-single;
#DESCRIPTION:;
#CHARTSTYLE:;
#DIFFICULTY:Medium;
#METER:14;
#RADARVALUES:0.664558,0.857796,0.272698,0.176452,0.316811,580.000000,546.000000,34.000000,22.000000,0.000000,0.000000,0.000000,0.000000,0.000000,0.664558,0.857796,0.272698,0.176452,0.316811,580.000000,546.000000,34.000000,22.000000,0.000000,0.000000,0.000000,0.000000,0.000000;
#CREDIT:led_light;
#NOTES:
// measure 0
0000
0000
0000
0000
,  // measure 1
0000
0000
0000
0000
,  // measure 2
0000
0000
0000
0000
,  // measure 3
0000
0000
0000
0000
,  // measure 4
0000
0000
0000
0000
,  // measure 5
0010
0100
1000
0001
1000
0100
0010
0001
,  // measure 6
0100
0010
1000
0001
1000
0010
0100
0001
,  // measure 7
0010
0010
0010
0010
0100
0100
0100
0100
,  // measure 8
0000
0000
1000
0001
1000
0001
0200
0300
,  // measure 9
0110
0000
0000
0010
1000
0000
0000
1000
0001
0000
0000
0001
0100
0000
0000
0100
,  // measure 10
0010
0000
0000
0010
1000
0000
0000
1000
0100
0000
0000
0100
0001
0000
0100
0000
,  // measure 11
1000
0000
0000
1000
0001
0000
0000
0001
0010
0000
0000
0010
1000
0000
0000
1000
,  // measure 12
0010
0000
0000
0010
0001
0000
0000
0001
0100
0000
0010
0000
1000
0000
0200
0000
,  // measure 13
0300
0000
0000
0000
0110
0000
0000
0100
0001
0000
0000
0001
0100
0000
0000
0100
,  // measure 14
1000
0000
0000
1000
0010
0000
0000
0010
0100
0000
0000
0100
1000
0000
0100
0000
,  // measure 15
0001
0000
0000
0100
0010
0000
1000
0000
0100
0000
0000
0010
0100
0000
1000
0000
,  // measure 16
0001
0001
0001
0001
0100
0001
1000
0010
,  // measure 17
0100
0010
0110
0000
1000
0100
1100
0000
,  // measure 18
0001
0100
0001
0100
0010
0000
1100
0000
,  // measure 19
0010
0100
0110
0000
0001
0010
0011
0000
,  // measure 20
1000
0000
0000
1000
0000
0000
0001
0000
0000
0001
0000
0000
0100
0000
0001
0000
0100
0000
0010
0000
1000
0000
0010
0000
,  // measure 21
1000
1000
0100
0000
0010
0010
0001
0000
,  // measure 22
1000
0001
0100
0010
1000
0100
0010
0001
,  // measure 23
1000
0010
1000
0010
0100
0001
0100
0001
,  // measure 24
1000
0100
1000
0000
0001
0010
0001
0000
0100
0010
1000
0000
0010
0000
0100
0000
,  // measure 25
0002
0000
0100
0003
,  // measure 26
1000
0100
0010
0000
0002
0000
0003
0000
,  // measure 27
2000
0000
0100
3000
,  // measure 28
0001
0100
0010
0000
2000
0000
3000
0000
,  // measure 29
0001
0100
0010
0000
0100
0000
0010
0000
,  // measure 30
1000
0100
0010
0000
0100
0000
1000
0000
,  // measure 31
0001
0010
0100
0000
0010
0000
0100
0000
,  // measure 32
1000
0010
0100
0000
0010
0000
1000
0000
,  // measure 33
0100
0100
0010
0000
0001
0001
1000
0000
,  // measure 34
0100
0010
0001
0100
0010
1000
0001
0000
,  // measure 35
0100
0100
0010
0000
1000
1000
0001
0000
,  // measure 36
0100
0010
1000
0100
0010
0001
1000
0000
,  // measure 37
0100
0010
0100
0010
1000
0010
0001
0100
,  // measure 38
0010
0100
0010
0100
1000
0100
0001
0010
,  // measure 39
0100
0001
0100
0010
0100
1000
0100
0010
,  // measure 40
0001
0001
1000
0001
0100
0010
2000
3000
,  // measure 41
1001
0000
0001
0010
1000
0010
0001
1000
,  // measure 42
0001
0000
0000
0001
0100
0000
0000
0100
0010
0000
0000
0010
1000
0000
0000
1000
,  // measure 43
0100
0000
0010
0100
0010
0010
0001
0100
,  // measure 44
0010
1100
0001
0110
,  // measure 45
1001
0000
1000
0100
0001
0100
1000
0001
,  // measure 46
1000
0000
0000
1000
0010
0000
0000
0010
0100
0000
0000
0100
0001
0000
0000
0001
,  // measure 47
0010
0000
0100
0010
0100
0100
1000
0010
,  // measure 48
0100
0011
1000
0110
,  // measure 49
1001
0000
0001
0010
1000
0010
0001
1000
,  // measure 50
0001
0000
0000
0001
0100
0000
0000
0100
0010
0000
0000
0010
1000
0000
0100
0000
,  // measure 51
0020
0000
0130
0100
0100
0100
2000
0000
,  // measure 52
3010
0000
0000
1100
0000
0000
0010
0000
0000
0101
0000
0000
0100
0000
0001
0000
,  // measure 53
0010
0000
1000
0010
0001
0000
1000
0100
,  // measure 54
0010
0000
0001
0100
0010
0000
1000
0100
,  // measure 55
0001
0000
0100
1000
0100
0100
0001
0100
,  // measure 56
1000
0000
0000
0000
0110
0000
0000
0000
0100
0010
0001
0000
0100
0000
0010
0000
,  // measure 57
2000
0000
0000
0000
,  // measure 58
0000
0000
0000
0000
,  // measure 59
0000
0000
0000
0000
,  // measure 60
0000
0000
0000
0000
,  // measure 61
3002
0000
0000
0000
,  // measure 62
0203
0000
0000
0000
,  // measure 63
0320
0000
0000
0000
,  // measure 64
2030
0000
0000
0000
,  // measure 65
3100
0010
0110
0000
0001
0100
0101
0000
,  // measure 66
1010
1010
0011
1100
,  // measure 67
0010
0100
0110
0000
1000
0010
1010
0000
,  // measure 68
0100
0000
0000
0100
0000
0000
0001
0000
0000
0001
0000
0000
0010
0000
0001
0000
0010
0000
0100
0000
1000
0000
0100
0000
,  // measure 69
0010
0100
0110
0000
1000
0010
1010
0000
,  // measure 70
0001
0010
0001
0010
0100
1000
0010
0100
,  // measure 71
0010
1000
0010
1000
0100
0010
0100
0010
,  // measure 72
0001
0000
0001
0000
1000
0000
1000
0000
0001
0100
0001
0000
0100
0000
0010
0000
,  // measure 73
2000
0000
0000
0000
3100
0010
0100
0000
0010
0000
0000
0001
0000
0000
0100
0000
,  // measure 74
0101
0000
0000
0010
0000
1000
0000
0000
1100
0000
0000
0010
0000
0000
0001
0000
,  // measure 75
0010
0100
0010
0000
0001
0000
0100
0000
0010
1000
0010
0000
1000
0000
0100
0000
,  // measure 76
1000
0100
1000
0001
0010
0001
1000
0100
0010
0001
0100
0010
,  // measure 77
2000
0000
0000
0000
3100
0000
1000
0000
0100
0000
0000
0100
0001
0000
0100
0000
,  // measure 78
1000
0100
1000
0000
0001
0000
0100
0000
0010
0100
0010
0000
0001
0000
1000
0000
,  // measure 79
0100
0000
0000
0100
0001
0000
1000
0000
0010
0000
0000
0010
0001
0000
0010
0000
,  // measure 80
1000
0000
0100
0000
1000
0000
0001
0000
0100
0000
0000
0010
0000
0000
0100
0000
,  // measure 81
0110
0000
0100
0000
0010
0000
0000
0010
0100
0000
0001
0000
0010
0000
0100
0000
,  // measure 82
0110
0000
0010
0000
0100
0000
0000
0100
0010
0000
0001
0000
0100
0000
0010
0000
,  // measure 83
1000
1000
1000
1000
0002
0203
0320
2030
,  // measure 84
3001
0011
0110
0001
0100
0010
1000
0000
,  // measure 85
0001
0000
0100
0000
0001
0000
0100
0000
0010
0000
0100
1000
0100
0000
0001
0100
,  // measure 86
0001
0000
0010
0000
0001
0000
0010
0000
0100
0000
0010
1000
0010
0000
0001
0000
,  // measure 87
0010
0100
1000
0000
0100
0000
0010
0000
0001
0100
0010
0000
1000
0000
0001
0000
,  // measure 88
1000
0000
0000
1000
0000
0000
1000
0000
0000
1000
0000
0000
0100
0000
0001
0000
1000
0000
0010
0000
0001
0000
0100
0000
,  // measure 89
0000
0220
0000
0000
,  // measure 90
0000
0000
0000
0000
,  // measure 91
0000
0000
0000
0000
,  // measure 92
0000
0000
0000
0000
,  // measure 93
0330
0000
0000
0000
;

//---------------dance-single - ----------------
#NOTEDATA:;
#CHARTNAME:;
#STEPSTYPE:dance-single;
#DESCRIPTION:;
#CHARTSTYLE:;
#DIFFICULTY:Easy;
#METER:10;
#RADARVALUES:0.414776,0.596728,0.336862,0.384986,0.008021,362.000000,320.000000,42.000000,48.000000,0.000000,0.000000,0.000000,0.000000,0.000000,0.414776,0.596728,0.336862,0.384986,0.008021,362.000000,320.000000,42.000000,48.000000,0.000000,0.000000,0.000000,0.000000,0.000000;
#CREDIT:led_light;
#NOTES:
// measure 0
0000
0000
0000
0000
,  // measure 1
0000
0000
0000
0000
,  // measure 2
0000
0000
0000
0000
,  // measure 3
0000
0000
0000
0000
,  // measure 4
0000
0000
0000
0000
,  // measure 5
1000
0100
1000
0000
0100
0001
0100
0000
,  // measure 6
0001
0010
0001
0000
0010
1000
0010
0000
,  // measure 7
2100
0100
0100
3100
,  // measure 8
0000
0201
0000
0310
,  // measure 9
0100
1001
0100
1001
,  // measure 10
0010
0000
0101
0000
1000
0000
0100
0010
,  // measure 11
0001
0110
1000
0110
,  // measure 12
0001
0000
1001
0000
0001
0100
0020
0030
,  // measure 13
0000
0110
1000
0110
,  // measure 14
0001
0000
1100
0000
0010
0000
1000
0001
,  // measure 15
0100
0000
0010
1000
0001
0000
0010
0000
,  // measure 16
0100
0010
0100
0010
0200
0000
0300
0000
,  // measure 17
2200
3300
0202
0303
,  // measure 18
0010
0100
0110
0000
,  // measure 19
0022
0033
2020
3030
,  // measure 20
0100
0000
0100
0000
0010
0100
0010
0000
,  // measure 21
1000
0100
1000
0000
0100
0000
0100
0000
,  // measure 22
0001
0100
0001
0000
0010
0000
0010
0000
,  // measure 23
1000
0010
1000
0000
0100
0000
0100
0000
,  // measure 24
0010
0100
1000
0000
0100
0010
0001
0000
,  // measure 25
2002
0000
0000
0000
,  // measure 26
0000
0000
0000
0000
,  // measure 27
0000
0000
0000
0000
,  // measure 28
3003
0000
0000
0000
,  // measure 29
0002
0000
0103
0000
,  // measure 30
1000
0100
0010
0000
,  // measure 31
2000
0000
3100
0000
,  // measure 32
0001
0100
0010
0000
,  // measure 33
0001
0010
0001
0010
,  // measure 34
1000
0010
0001
1000
,  // measure 35
0001
0100
0001
0100
,  // measure 36
1000
0100
0001
1000
,  // measure 37
0100
0010
0100
0010
,  // measure 38
0001
0100
0001
0100
,  // measure 39
0010
1000
0100
0010
,  // measure 40
0200
0000
0000
0310
,  // measure 41
1001
0000
0000
0000
0100
0010
0100
0000
,  // measure 42
0001
1100
0001
0100
,  // measure 43
0110
0000
0000
0000
0010
0001
0010
0000
,  // measure 44
1010
0001
0011
0100
,  // measure 45
1001
0000
0000
0000
0010
0100
0010
0000
,  // measure 46
0001
1010
0001
0010
,  // measure 47
0110
0000
0000
0000
0100
0001
0100
0000
,  // measure 48
1100
0001
0101
0010
,  // measure 49
1001
0000
0000
0000
0010
0100
0010
0000
,  // measure 50
1000
0011
1000
0010
,  // measure 51
2000
0000
3100
0100
0100
0000
0020
0000
,  // measure 52
0031
0000
0000
0100
0000
0000
0010
0000
0000
1000
0000
0000
0001
0000
0000
0000
,  // measure 53
0110
0000
1100
0000
,  // measure 54
0101
0000
0110
0000
,  // measure 55
1001
0000
0000
0000
1000
0100
0010
0000
,  // measure 56
0001
0000
0110
0000
0001
0100
0010
0000
,  // measure 57
2000
0000
0000
0000
,  // measure 58
0000
0000
0000
0000
,  // measure 59
0000
0000
0000
0000
,  // measure 60
0000
0000
0000
0000
,  // measure 61
3002
0000
0000
0000
,  // measure 62
0023
0000
0000
0000
,  // measure 63
0230
0000
0000
0000
,  // measure 64
2300
0000
0000
3000
,  // measure 65
2002
3003
0220
0330
,  // measure 66
0100
0100
0010
0010
,  // measure 67
2200
3300
0202
0303
,  // measure 68
0010
0010
0200
0320
,  // measure 69
1030
0100
0010
0000
0100
1000
0001
0000
,  // measure 70
0100
0010
0100
0000
0010
0000
1000
0000
,  // measure 71
0001
0100
0010
0000
1000
0100
1000
0000
,  // measure 72
0010
0100
0001
0000
0020
0000
0200
0000
,  // measure 73
0330
0110
0001
1000
,  // measure 74
0100
0001
0100
0000
1000
0100
1000
0000
,  // measure 75
0001
0100
0001
0100
0010
1000
0010
1000
,  // measure 76
0002
0023
2030
3200
,  // measure 77
0302
0003
0011
0001
,  // measure 78
0010
0100
1000
0000
0100
0010
0001
0000
,  // measure 79
2000
3100
0002
0103
,  // measure 80
0010
0100
0010
0000
0020
0000
0030
0000
,  // measure 81
0001
0001
0001
0000
0100
0010
1000
0000
,  // measure 82
1000
1000
1000
0000
0100
0010
0001
0000
,  // measure 83
0010
0100
0010
0000
0001
0100
0001
1000
,  // measure 84
0100
0010
0100
0010
0100
0000
1000
0000
,  // measure 85
0100
0100
0100
0000
0001
0100
1000
0000
,  // measure 86
0010
0010
0010
0000
0001
0010
1000
0000
,  // measure 87
0100
0010
0100
1000
0001
0010
0100
1000
,  // measure 88
0001
1000
0001
0100
0020
0000
0200
0000
,  // measure 89
0330
2002
0000
0000
,  // measure 90
0000
0000
0000
0000
,  // measure 91
0000
0000
0000
0000
,  // measure 92
0000
0000
0000
0000
,  // measure 93
3003
0000
0000
0000
;

//---------------dance-single - ----------------
#NOTEDATA:;
#CHARTNAME:;
#STEPSTYPE:dance-single;
#DESCRIPTION:;
#CHARTSTYLE:;
#DIFFICULTY:Beginner;
#METER:5;
#RADARVALUES:0.224575,0.372955,0.184472,0.112287,0.000000,196.000000,173.000000,23.000000,14.000000,0.000000,0.000000,0.000000,0.000000,0.000000,0.224575,0.372955,0.184472,0.112287,0.000000,196.000000,173.000000,23.000000,14.000000,0.000000,0.000000,0.000000,0.000000,0.000000;
#CREDIT:led_light;
#NOTES:
// measure 0
0000
0000
0000
0000
,  // measure 1
0000
0000
0000
0000
,  // measure 2
0000
0000
0000
0000
,  // measure 3
0000
0000
0000
0000
,  // measure 4
0000
0000
0000
0000
,  // measure 5
1000
0000
1000
0000
,  // measure 6
0001
0000
0001
0000
,  // measure 7
0200
0000
0000
0300
,  // measure 8
0000
0020
0000
0030
,  // measure 9
0010
0000
0010
0000
,  // measure 10
0100
0000
0010
0000
,  // measure 11
1000
0000
1000
0000
,  // measure 12
0001
0000
1000
0000
,  // measure 13
0000
0100
0100
0000
,  // measure 14
0010
0000
0100
0000
,  // measure 15
1000
0000
0001
0000
,  // measure 16
1000
1000
1000
0000
,  // measure 17
1001
0000
0110
0000
,  // measure 18
0100
0100
0100
0000
,  // measure 19
0110
0000
1001
0000
,  // measure 20
0010
0010
0010
0000
,  // measure 21
0001
1000
0001
0000
,  // measure 22
1000
0001
1000
0000
,  // measure 23
0010
0100
0010
0000
,  // measure 24
0200
0000
0300
0000
,  // measure 25
1001
0000
0000
0000
,  // measure 26
0000
0000
0000
0000
,  // measure 27
0000
0000
0000
0000
,  // measure 28
0000
0000
0000
0000
,  // measure 29
2000
0000
3000
0000
,  // measure 30
0002
0000
0003
0000
,  // measure 31
0200
0000
0300
0000
,  // measure 32
0020
0000
0030
0000
,  // measure 33
1000
0000
1000
0000
,  // measure 34
1000
0010
1000
0000
,  // measure 35
0001
0000
0001
0000
,  // measure 36
0001
0010
0001
0000
,  // measure 37
0010
0100
1000
0000
,  // measure 38
0100
0010
0001
0000
,  // measure 39
1000
0001
1000
0000
,  // measure 40
1001
0000
0000
0000
,  // measure 41
0110
0000
0100
0000
,  // measure 42
0010
0010
0010
0000
,  // measure 43
0110
0000
0001
0000
,  // measure 44
1000
1000
1000
0000
,  // measure 45
1001
0000
1000
0000
,  // measure 46
0001
0001
0001
0000
,  // measure 47
1001
0000
0100
0000
,  // measure 48
0010
0010
0010
0000
,  // measure 49
0110
0000
0100
0000
,  // measure 50
0010
0010
0010
0000
,  // measure 51
0000
0001
0001
0000
,  // measure 52
1000
0000
1000
0001
,  // measure 53
1001
0000
1001
0000
,  // measure 54
0110
0000
0110
0000
,  // measure 55
1001
0000
0100
0010
,  // measure 56
0100
0000
1000
0001
,  // measure 57
2000
0000
0000
0000
,  // measure 58
0000
0000
0000
0000
,  // measure 59
0000
0000
0000
0000
,  // measure 60
0000
0000
0000
3000
,  // measure 61
0002
0000
0000
0000
,  // measure 62
0000
0000
0000
0000
,  // measure 63
0000
0000
0000
0000
,  // measure 64
0000
0000
0000
0003
,  // measure 65
1001
0000
0110
0000
,  // measure 66
0010
0010
0010
0000
,  // measure 67
0110
0000
1001
0000
,  // measure 68
0100
0100
0100
0000
,  // measure 69
0010
0000
0010
0000
,  // measure 70
0001
1000
0001
0000
,  // measure 71
0100
0000
0100
0000
,  // measure 72
0020
0000
0000
0000
,  // measure 73
0030
0000
0110
0000
,  // measure 74
0010
0100
0010
0000
,  // measure 75
1000
0100
1000
0100
,  // measure 76
2000
3000
0002
0000
,  // measure 77
0003
0000
1001
0000
,  // measure 78
0001
0100
0001
0000
,  // measure 79
0010
0000
0100
0000
,  // measure 80
1000
1000
1000
0000
,  // measure 81
0001
0000
0001
0001
,  // measure 82
0001
0000
0010
0010
,  // measure 83
0010
0000
1000
0000
,  // measure 84
0100
0100
0100
0000
,  // measure 85
0001
0100
0010
0000
,  // measure 86
1000
0100
0010
0000
,  // measure 87
0001
0001
1000
1000
,  // measure 88
0001
0100
0010
1000
,  // measure 89
0000
2002
0000
0000
,  // measure 90
0000
0000
0000
0000
,  // measure 91
0000
0000
0000
0000
,  // measure 92
0000
0000
0000
0000
,  // measure 93
3003
0000
0000
0000
;
