#VERSION:0.83;
#TITLE:ベースラインやってる?笑;
#SUBTITLE:;
#ARTIST:かめりあ feat. ななひら;
#TITLETRANSLIT:BASSLINE YATTERU? lol;
#SUBTITLETRANSLIT:;
#ARTISTTRANSLIT:Camellia feat. Nanahira;
#GENRE:J-Music;
#ORIGIN:;
#CREDIT:;
#BANNER:BASSLINE YATTERU lol.png;
#BACKGROUND:BASSLINE YATTERU lol-bg.png;
#PREVIEWVID:;
#JACKET:BASSLINE YATTERU lol-jacket.png;
#CDIMAGE:;
#DISCIMAGE:;
#LYRICSPATH:;
#CDTITLE:../cdtitle.png;
#MUSIC:BASSLINE YATTERU lol.ogg;
#OFFSET:-0.253000;
#SAMPLESTART:65.869003;
#SAMPLELENGTH:15.000000;
#SELECTABLE:YES;
#BPMS:0.000=128.000;
#STOPS:;
#DELAYS:;
#WARPS:;
#TIMESIGNATURES:0.000=4=4;
#TICKCOUNTS:0.000=4;
#COMBOS:0.000=1;
#SPEEDS:0.000=1.000=0.000=0;
#SCROLLS:0.000=1.000;
#FAKES:;
#LABELS:0.000=Song Start;
#BGCHANGES:-0.500=BASSLINE YATTERU lol.avi=1.000=0=0=0=StretchNoLoop====,
99999=-nosongbg-=1.000=0=0=0 // don't automatically add -songbackground-
;
#KEYSOUNDS:;
#ATTACKS:
;

//---------------dance-single - ----------------
#NOTEDATA:;
#CHARTNAME:;
#STEPSTYPE:dance-single;
#DESCRIPTION:;
#CHARTSTYLE:;
#DIFFICULTY:Challenge;
#METER:9;
#RADARVALUES:0.302958,0.465357,0.262278,0.397164,0.000000,283.000000,248.000000,35.000000,53.000000,100.000000,0.000000,0.000000,0.000000,0.000000,0.302958,0.465357,0.262278,0.397164,0.000000,283.000000,248.000000,35.000000,53.000000,100.000000,0.000000,0.000000,0.000000,0.000000;
#CREDIT:led_light;
#NOTES:
0000
0000
0000
0000
,
0000
0000
0000
0000
,
0000
0000
0000
0000
,
0000
0000
0000
0000
,
0000
0000
0000
0000
,
0000
0000
0000
0000
,
2000
3001
0000
0001
,
0002
0000
0003
0000
0100
0010
1000
0000
,
0002
1003
0000
1000
,
0200
0000
0320
0030
,
1001
0000
0000
0000
,
0000
0000
0000
0000
0000
MMMM
MMMM
0000
,
0000
0000
0000
0000
,
0000
0000
0000
0000
,
1000
1000
0010
0010
,
0001
0000
0001
0000
0100
MMMM
MMMM
0000
,
1000
1000
0001
0001
,
0010
0100
0010
0000
0200
0000
0300
0000
,
1001
0100
1000
0100
,
1000
0000
1000
0000
0010
MMMM
MMMM
0000
,
0001
0100
0010
0100
,
0001
0001
0010
0110
,
1001
0010
0001
0010
,
0001
0000
0001
0000
0100
MMMM
MMMM
0000
,
1000
0010
0100
0010
,
1000
1000
0100
1000
,
1001
0010
0001
0100
,
1001
0000
0100
0000
0001
0100
1000
0000
,
0110
1000
0010
1000
,
0110
0002
0023
0130
,
1000
0010
0100
0010
1000
0001
0010
0100
,
1000
0100
0010
0100
1000
0001
0100
0010
,
1000
0100
0001
0100
1000
0100
0001
0100
,
2000
0000
0000
0000
,
0001
0001
3001
MMMM
,
0110
0000
0202
0303
2200
3300
0022
0033
,
1000
MMMM
0001
MMMM
1000
MMMM
0001
MMMM
,
2000
0000
3100
0100
0001
0000
1100
0000
,
0002
0103
0020
0130
0002
0103
0020
1030
,
1001
0000
0022
0033
0202
0303
2020
3030
,
0100
MMMM
0010
MMMM
0100
MMMM
0010
MMMM
,
0200
0000
0301
0001
0010
0000
0101
0000
,
2000
0000
3001
MMMM
,
0101
0020
2030
3002
,
1003
0010
0001
0010
2000
0000
3001
0000
,
0011
0000
0100
1000
0002
0000
0023
0000
,
0130
1000
0010
1000
0100
0000
0110
0000
,
1100
0002
0023
0230
,
0310
0001
0100
0001
0020
0000
0130
0000
,
0101
0000
1000
0010
0200
0000
0302
0000
,
0023
0000
0130
MMMM
,
1001
0000
1000
0010
0001
0010
1000
0100
,
1000
MMMM
1000
MMMM
1000
0010
0110
0000
,
1001
0000
0001
0010
1000
0010
0001
0100
,
0010
MMMM
0010
MMMM
0010
0001
0010
1000
,
1001
0000
1000
0100
0001
0100
1000
0010
,
1000
MMMM
1000
MMMM
1000
0100
0110
0000
,
1001
0000
0001
0100
1000
0100
0001
0010
,
0200
0001
1000
0310
,
1001
0100
0000
0100
,
1001
0000
0000
0000
0001
0100
0010
0000
,
1100
0001
0000
0001
,
2000
3100
0002
0103
,
0220
0330
0000
0000
,
0022
0000
0033
0000
0100
1000
0010
0000
,
2200
3300
0000
0000
,
0002
0000
2003
0000
,
3200
0000
0000
0000
,
0000
0000
0000
0000
,
0300
0000
0000
0000
;

//---------------dance-single - ----------------
#NOTEDATA:;
#CHARTNAME:;
#STEPSTYPE:dance-single;
#DESCRIPTION:;
#CHARTSTYLE:;
#DIFFICULTY:Hard;
#METER:13;
#RADARVALUES:0.454973,0.646329,0.254785,0.569519,0.340962,425.000000,391.000000,34.000000,76.000000,0.000000,0.000000,0.000000,0.000000,0.000000,0.454973,0.646329,0.254785,0.569519,0.340962,425.000000,391.000000,34.000000,76.000000,0.000000,0.000000,0.000000,0.000000,0.000000;
#CREDIT:led_light;
#NOTES:
0000
0000
0000
0000
,
0000
0000
0000
0000
,
0000
0000
0000
0000
,
0000
0000
0000
0000
,
0000
0000
0000
0000
,
0000
0000
0000
0000
,
2000
0000
3001
0000
0000
1000
0001
0000
,
0002
0000
0000
0000
0000
0000
0003
0000
0000
0100
0000
0000
0001
0000
1000
0000
0000
0010
0000
0000
0100
0010
0000
0000
,
2000
0000
3001
0000
0000
1000
0001
0000
,
0002
0000
0013
0000
2000
0000
3100
0100
,
0220
0000
0000
0000
,
0000
0000
0000
0000
,
0330
0000
0000
0000
,
0000
0000
0000
0000
,
1000
0000
0000
0000
1000
0010
0000
2000
0000
0000
3100
0000
0010
0000
0100
0000
,
1000
0000
1000
0000
0001
0010
0000
0200
0000
0000
1300
0000
2000
0000
0000
0000
,
3010
0000
0000
0000
0010
0100
0000
0020
0000
0000
1030
0000
0001
0000
0010
0000
,
0100
0000
0100
0000
0001
0100
0000
2000
0000
0000
3001
0000
0010
0000
0100
0000
,
0110
0000
0000
0000
0001
1000
0000
0100
1000
0000
0001
0000
1000
0000
0010
0000
,
0100
0000
0001
0000
0010
0100
0000
0100
1000
0000
1010
0000
1020
0000
0000
0000
,
0130
0000
0000
0000
0010
1000
0000
1000
0100
0000
0010
0000
0100
0000
1000
0000
,
0010
0000
0010
0000
0001
0010
0000
1000
0000
0000
0001
0010
0100
0010
0100
1000
,
0002
0000
0003
0000
0001
1000
0000
0100
1000
0000
0001
0000
0100
0000
0010
0000
,
1000
0000
1000
0000
0100
0010
0000
0010
0001
0000
0101
0000
0201
0000
0000
0000
,
0310
0000
0000
0000
0100
0001
0000
0001
0010
0000
1000
0000
0010
0000
0001
0000
,
0010
0000
0010
0000
0100
1000
0000
0010
0000
0000
1000
0000
0100
0000
0010
0000
,
0002
0100
1000
0103
,
2100
0000
0000
0000
0000
0000
3001
0000
0000
0001
0000
0000
0100
0000
0010
0000
0000
1000
0000
0000
1000
0001
0000
0000
,
0021
0100
1000
0031
,
0110
0000
0002
0203
0320
2030
3002
0003
,
1000
0100
0001
0100
1000
0100
0001
0100
,
1000
0010
0001
0010
1000
0010
0001
0010
,
1000
0000
0100
1000
0000
0100
0010
0000
0100
0010
0000
0100
1000
0000
0001
0100
0000
0010
1000
0000
0010
0100
0000
0001
,
0020
0000
0000
0000
,
0100
0000
0000
0000
0000
0000
0100
0000
0000
0000
0000
0000
0130
0000
0001
0000
0000
0100
0000
0000
1000
0001
0000
0000
,
1001
0000
0220
0330
2200
3300
0202
0303
,
1000
0000
0000
0010
0000
0000
0001
0000
0000
0010
0000
0000
1000
0000
0010
0000
0000
0100
0000
0000
0100
0010
0000
0000
,
2010
0000
3001
0001
0010
0000
0120
0000
,
0032
0013
2000
3010
0002
0013
0200
0310
,
1001
0000
0220
0330
2020
3030
0022
0033
,
1000
0000
0000
0100
0000
0000
0001
0000
0000
0100
0000
0000
1000
0000
0100
0000
0000
0010
0000
0000
0010
0100
0000
0000
,
2001
0000
3010
0010
0100
0000
0210
0000
,
0302
0000
0000
0000
0000
0000
0000
0000
1003
0000
0000
0000
0010
0100
0010
0000
,
0110
0000
0200
1300
0200
0301
0200
0310
,
1000
0000
0000
0000
0000
0000
0100
0000
0000
0000
0000
0000
0010
0000
0000
0100
0000
0000
0010
0000
0000
0001
0000
0000
0010
0000
0000
0000
0100
0000
0000
0000
0000
0000
1000
0000
0000
0000
0000
0000
1000
0000
0010
0000
0000
0000
0000
0000
,
1010
0000
0020
0031
0020
0130
0020
1030
,
0100
0000
0010
0100
0000
0000
0100
0000
0010
0100
0000
0000
0220
0000
0330
0000
,
1001
0000
0020
0031
0200
0310
2000
3100
,
0010
0000
0100
0010
0000
0100
0010
0000
0100
1000
0000
0100
0010
0000
0001
0000
0000
0010
0000
0000
0100
1000
0000
0000
,
1001
0000
0002
0103
0020
1030
0002
0103
,
0020
0000
0200
0330
,
1001
0000
0000
0000
1000
0100
0000
0010
0001
0000
1000
0000
0001
0000
0010
0000
,
0100
0000
0100
0000
1000
0001
0000
0100
0010
0000
1010
0000
1020
0000
0000
0000
,
0130
0000
0000
0000
0001
0100
0000
0100
0010
0000
1000
0000
0010
0000
0001
0000
,
0010
0000
0010
0000
1000
0001
0000
0010
0000
0000
0100
0010
0100
1000
0100
0010
,
0001
0000
0000
0000
1000
0010
0000
0100
0001
0000
1000
0000
0001
0000
0100
0000
,
0010
0000
0010
0000
1000
0001
0000
0010
0100
0000
1100
0000
1200
0000
0000
0000
,
0310
0000
0000
0000
0001
0010
0000
0010
0100
0000
1000
0000
0100
0000
0001
0000
,
0100
0000
0100
0000
1000
0001
0000
0100
0000
0000
0010
0000
0100
0000
0010
0000
,
2000
0000
3001
0000
0000
1000
0001
0000
,
0002
0000
0000
0000
0000
0000
0003
0000
0000
0100
0000
0000
0001
0000
1000
0000
0000
0010
0000
0000
0100
0010
0000
0000
,
2000
0000
3001
0000
0000
1000
0001
0000
,
0002
0000
0013
0000
2000
0000
3100
0100
,
0220
0330
0000
0000
,
0022
0000
0000
0000
0000
0000
0033
0000
0000
1000
0000
0000
0010
0000
0001
0000
0000
1000
0000
0000
0100
0010
0000
0000
,
0210
0301
0000
0001
,
2000
0000
0000
0000
0000
0000
3002
0000
0000
0000
0010
0000
,
0023
0000
0000
0000
,
0000
0000
0000
0000
,
0030
0000
0000
0000
;

//---------------dance-single - ----------------
#NOTEDATA:;
#CHARTNAME:;
#STEPSTYPE:dance-single;
#DESCRIPTION:;
#CHARTSTYLE:;
#DIFFICULTY:Medium;
#METER:8;
#RADARVALUES:0.320087,0.439504,0.427139,0.254785,0.000000,299.000000,242.000000,57.000000,34.000000,0.000000,0.000000,0.000000,0.000000,0.000000,0.320087,0.439504,0.427139,0.254785,0.000000,299.000000,242.000000,57.000000,34.000000,0.000000,0.000000,0.000000,0.000000,0.000000;
#CREDIT:led_light;
#NOTES:
0000
0000
0000
0000
,
0000
0000
0000
0000
,
0000
0000
0000
0000
,
0000
0000
0000
0000
,
0000
0000
0000
0000
,
0000
0000
0000
0000
,
1001
0100
0000
0100
,
1001
0000
0000
0000
0100
0001
0100
0000
,
1010
0100
0000
0100
,
0002
0000
2000
3003
,
0110
0000
0000
0000
,
0000
0000
0000
0000
,
0000
0000
0000
0000
,
0000
0000
0000
0000
,
1000
1000
0010
0010
,
1000
0100
1000
0000
0001
0000
0000
0000
,
0001
0001
0010
0010
,
0100
0001
0100
0000
0020
0000
0030
0000
,
0110
0001
1000
0001
,
0100
0000
0100
0000
0100
0010
1001
0000
,
0001
0001
1000
1000
,
0010
0001
0010
1001
,
0110
0001
1000
0001
,
0010
0000
0010
0000
0010
0100
1001
0000
,
0001
0001
1000
1000
,
0100
0010
0001
0000
0100
0010
1000
0000
,
1001
0100
0100
0100
,
1001
0000
0100
0000
0100
1000
0100
0000
,
0101
0010
0010
0010
,
2001
3200
0320
0031
,
1000
0010
0100
0010
1000
0010
0100
0001
,
0010
0100
0010
0001
0010
0100
0010
0001
,
1000
0010
0100
0001
1000
0010
0100
0001
,
0020
0000
0000
0000
,
0100
0100
0100
0130
,
0110
0101
1100
1100
,
0001
0000
0001
0000
0100
0010
1000
0000
,
1002
0000
0103
0010
0100
0000
0102
0000
,
2003
3020
0032
0013
,
0110
0011
1010
1010
,
0001
0000
0001
0000
0010
0100
1000
0000
,
1002
0000
0013
0100
0010
0000
0012
0000
,
2003
0000
0002
3003
,
1001
0110
1001
0100
,
1000
0001
1000
0000
0010
0000
0100
0000
,
1010
0000
0001
0100
0002
0000
0023
0000
,
0230
0001
1000
0310
,
1001
0110
1001
0010
,
0001
0001
0001
0000
0100
0010
0100
0000
,
0101
0000
1000
0010
0200
0000
0302
0000
,
0023
0000
0200
0330
,
0110
0101
1100
1001
,
0001
0100
0010
1000
0001
0000
1100
0000
,
1001
1001
0110
1001
,
0001
0010
1000
0010
0001
0000
0100
0000
,
0110
0011
1010
1001
,
0001
0010
0100
1000
0001
0000
1010
0000
,
1001
1001
0110
1001
,
0001
0100
1000
0000
0100
0001
0010
0000
,
1001
0100
0000
0100
,
1001
0000
0000
0000
0100
1000
0100
0000
,
0011
0100
0000
0100
,
2000
0000
3002
0103
,
0220
0330
0000
0000
,
2002
0000
3003
0000
0001
0010
0100
0000
,
2200
3300
0000
0000
,
0020
0000
2030
0000
,
3002
0000
0000
0000
,
0000
0000
0000
0000
,
0003
0000
0000
0000
;

//---------------dance-single - ----------------
#NOTEDATA:;
#CHARTNAME:;
#STEPSTYPE:dance-single;
#DESCRIPTION:;
#CHARTSTYLE:;
#DIFFICULTY:Easy;
#METER:6;
#RADARVALUES:0.244079,0.336091,0.224810,0.187342,0.000000,228.000000,198.000000,30.000000,25.000000,0.000000,0.000000,0.000000,0.000000,0.000000,0.244079,0.336091,0.224810,0.187342,0.000000,228.000000,198.000000,30.000000,25.000000,0.000000,0.000000,0.000000,0.000000,0.000000;
#CREDIT:led_light;
#NOTES:
0000
0000
0000
0000
,
0000
0000
0000
0000
,
0000
0000
0000
0000
,
0000
0000
0000
0000
,
0000
0000
0000
0000
,
0000
0000
0000
0000
,
0110
0001
0000
0001
,
1100
0000
0001
0100
,
1001
0010
0000
0010
,
0200
0000
0020
0330
,
1001
0000
0000
0000
,
0000
0000
0000
0000
,
0000
0000
0000
0000
,
0000
0000
0000
0000
,
1000
1000
1000
1000
,
1000
0010
2000
3000
,
0001
0001
0001
0001
,
0001
0010
0200
0300
,
0110
0001
1000
0001
,
1000
1000
0001
0000
,
1000
0010
0001
0010
,
1000
1000
1000
0010
,
0110
1000
0001
1000
,
0001
0001
1000
0000
,
0001
0010
1000
0010
,
0001
0001
0010
0010
,
1010
0001
0010
0010
,
0110
1000
0010
1000
,
1100
0001
0100
0100
,
0110
2000
0200
3300
,
0010
0010
0010
0010
,
0100
0100
0100
0100
,
1000
0001
1000
0001
,
2000
0000
0000
0000
,
0001
0001
0001
3000
,
1001
0002
0203
0302
,
1003
0010
0001
0010
,
0002
0100
0103
1100
,
1000
0001
1000
0001
,
1001
2000
3200
2300
,
3001
0010
1000
0010
,
2000
0100
3100
0101
,
0002
0000
2000
3003
,
0100
1001
0010
0100
,
1000
1000
0100
1000
,
0001
0110
0001
0001
,
0010
1000
0100
0001
,
0010
1001
1100
0110
,
0001
0001
0020
0031
,
1000
0110
1000
1000
,
0002
0000
0020
0033
,
0110
0001
0100
0001
,
1000
0010
0100
0110
,
0001
0001
1000
0100
,
0001
0100
1000
1000
,
1001
0010
1000
0010
,
0100
0001
1000
1001
,
0010
0010
0100
1000
,
0010
0010
1000
0100
,
0110
0001
0000
0001
,
1100
0000
0001
0100
,
1001
0010
0000
0010
,
0200
0000
0020
0330
,
1001
0000
0000
0000
,
0110
0000
1000
1000
,
0011
0000
0000
0000
,
0020
0000
0230
0000
,
2300
0000
0000
0000
,
0000
0000
0000
0000
,
3000
0000
0000
0000
;

//---------------dance-single - ----------------
#NOTEDATA:;
#CHARTNAME:;
#STEPSTYPE:dance-single;
#DESCRIPTION:;
#CHARTSTYLE:;
#DIFFICULTY:Beginner;
#METER:3;
#RADARVALUES:0.122040,0.180972,0.104911,0.044962,0.000000,114.000000,100.000000,14.000000,6.000000,0.000000,0.000000,0.000000,0.000000,0.000000,0.122040,0.180972,0.104911,0.044962,0.000000,114.000000,100.000000,14.000000,6.000000,0.000000,0.000000,0.000000,0.000000,0.000000;
#CREDIT:led_light;
#NOTES:
0000
0000
0000
0000
,
0000
0000
0000
0000
,
0000
0000
0000
0000
,
0000
0000
0000
0000
,
0000
0000
0000
0000
,
0000
0000
0000
0000
,
0000
0001
0000
0001
,
0000
0001
0000
0001
,
0000
1000
0000
1000
,
0000
2000
3000
0000
,
1001
0000
0000
0000
,
0000
0000
0000
0000
,
0000
0000
0000
0000
,
0000
0000
0000
0000
,
0100
0000
0000
0000
,
0100
0000
0000
0000
,
0010
0000
0000
0000
,
0010
0000
0000
0000
,
0110
0000
0000
0000
,
1000
0000
1000
0000
,
0010
0000
0000
0000
,
0001
0000
0001
0000
,
0110
0000
0000
0000
,
0001
0000
0001
0000
,
0100
0000
0000
0000
,
1000
0000
1000
0000
,
1001
0000
0000
0000
,
0100
0000
0000
0000
,
1001
0000
0000
0000
,
0010
0000
0000
0000
,
0001
0000
0001
0000
,
1000
0000
1000
0000
,
0020
0000
0000
0000
,
0030
0000
0000
0000
,
0000
0000
0000
0000
,
0110
0000
0100
0100
,
0000
0010
0000
0010
,
0000
1000
1000
1000
,
0000
1000
1000
0000
,
1001
0000
1000
1000
,
0000
0001
0000
0001
,
0000
0010
0010
0010
,
0020
0000
0030
0000
,
0100
0000
0100
0000
,
0100
0100
0100
0000
,
1000
0000
0100
0000
,
1000
1000
1000
0000
,
0010
0000
0001
0000
,
0010
0010
0010
0000
,
1000
0000
1000
0000
,
0002
0000
0003
0000
,
0110
0000
1000
0000
,
0001
0001
0001
0000
,
0010
0000
0100
0000
,
0010
0010
0010
0000
,
1001
0000
0100
0000
,
0010
0010
0010
0000
,
1000
0000
0001
0000
,
2000
0000
3000
0000
,
1001
0000
0000
0000
,
0100
0000
0100
0000
,
0110
0000
0000
0000
,
0001
0000
0001
0000
,
1001
0000
0000
0000
,
0110
0000
0000
0000
,
1001
0000
0000
0000
,
0010
0000
0100
0000
,
0200
0000
0000
0000
,
0000
0000
0000
0000
,
0300
0000
0000
0000
;

//---------------dance-double - ----------------
#NOTEDATA:;
#CHARTNAME:;
#STEPSTYPE:dance-double;
#DESCRIPTION:;
#CHARTSTYLE:;
#DIFFICULTY:Challenge;
#METER:9;
#RADARVALUES:0.301888,0.465357,0.262278,0.397164,0.000000,282.000000,247.000000,35.000000,53.000000,200.000000,0.000000,0.000000,0.000000,0.000000,0.301888,0.465357,0.262278,0.397164,0.000000,282.000000,247.000000,35.000000,53.000000,200.000000,0.000000,0.000000,0.000000,0.000000;
#CREDIT:led_light;
#NOTES:
00000000
00000000
00000000
00000000
,
00000000
00000000
00000000
00000000
,
00000000
00000000
00000000
00000000
,
00000000
00000000
00000000
00000000
,
00000000
00000000
00000000
00000000
,
00000000
00000000
00000000
00000000
,
00200000
00310000
00000000
00010000
,
00002000
00000000
00003000
00000000
00000100
00000001
00001000
00000000
,
00000020
00000130
00000000
00000100
,
00000002
00000000
00002003
00003000
,
00000110
00000000
00000000
00000000
,
00000000
00000000
00000000
00000000
00000000
MMMMMMMM
MMMMMMMM
00000000
,
00000000
00000000
00000000
00000000
,
00000000
00000000
00000000
00000000
,
00000001
00000001
00000010
00000010
,
00001000
00000000
00001000
00000000
00010000
MMMMMMMM
MMMMMMMM
00000000
,
00001000
00001000
00010000
00010000
,
01000000
00100000
02000000
03000000
,
10010000
01000000
10000000
00100000
,
10000000
00000000
10000000
00000000
01000000
MMMMMMMM
MMMMMMMM
00000000
,
00010000
00001000
00010000
00001000
,
00010000
00010000
00000010
00001001
,
00000110
00001000
00000001
00000010
,
00000001
00000000
00000001
00000000
00000100
MMMMMMMM
MMMMMMMM
00000000
,
00001000
00010000
00001000
00010000
,
00001000
00001000
00100000
01000000
,
10010000
00100000
00100000
00100000
,
10010000
00000000
01000000
00000000
01000000
00010000
00001000
00000000
,
00011000
00000100
00000100
00000100
,
00001001
00000020
00000230
00000310
,
00001000
00000100
00001000
00000100
00000010
00000100
00010000
00001000
,
00100000
00010000
00100000
00010000
01000000
00100000
00010000
00100000
,
10000000
01000000
00100000
01000000
10000000
01000000
00010000
01000000
,
00200000
00000000
00000000
00000000
,
00001000
00001000
00301000
MMMMMMMM
,
00011000
00000000
00220000
00330000
00022000
00033000
00022000
00033000
,
00100000
MMMMMMMM
00100000
MMMMMMMM
00100000
MMMMMMMM
00100000
MMMMMMMM
,
00200000
00000000
00310000
00010000
00010000
00000000
11000000
00000000
,
00020000
01030000
00200000
10300000
00020000
01030000
00200000
00310000
,
00011000
00000000
00002200
00003300
00022000
00033000
00022000
00033000
,
00000100
MMMMMMMM
00000100
MMMMMMMM
00000100
MMMMMMMM
00000100
MMMMMMMM
,
00000200
00000000
00001300
00001000
00001000
00000000
00000110
00000000
,
00000002
00000000
00001003
MMMMMMMM
,
00000101
00000020
00020030
00032000
,
00103000
00010000
00001000
00010000
00200000
00000000
01300000
00000000
,
11000000
00000000
00100000
10000000
00200000
00000000
02300000
00000000
,
03001000
00010000
00100000
01000000
00010000
00000000
00011000
00000000
,
10010000
00200000
20300000
32000000
,
03010000
00001000
00010000
00001000
00020000
00000000
00031000
00000000
,
00001100
00000000
00000001
00000100
00000020
00000000
00002030
00000000
,
00003200
00000000
00000310
MMMMMMMM
,
00001001
00000000
00001000
00000100
00000010
00000001
00001000
00000100
,
00001000
MMMMMMMM
00001000
MMMMMMMM
00001000
00010000
00011000
00000000
,
00110000
00000000
10000000
00100000
00010000
00100000
10000000
01000000
,
00100000
MMMMMMMM
00100000
MMMMMMMM
00100000
10000000
00100000
00010000
,
10010000
00000000
00010000
01000000
00100000
10000000
00010000
01000000
,
00010000
MMMMMMMM
00010000
MMMMMMMM
00010000
00001000
00011000
00000000
,
00001010
00000000
00000001
00000010
00001000
00000010
00000001
00000100
,
00000020
00000001
00001000
00000130
,
00001001
00000010
00000000
00000010
,
00011000
00000000
00000000
00000000
00000100
00010000
00001000
00000000
,
00110000
00001000
00000000
00001000
,
00020000
01030000
20000000
30100000
,
02200000
03300000
00000000
00000000
,
20020000
00000000
30030000
00000000
10000000
01000000
00010000
00000000
,
00022000
00033000
00000000
00000000
,
00020000
00000000
00030200
00000000
,
00000320
00000000
00000000
00000000
,
00000000
00000000
00000000
00000000
,
00000030
00000000
00000000
00000000
;

//---------------dance-double - ----------------
#NOTEDATA:;
#CHARTNAME:;
#STEPSTYPE:dance-double;
#DESCRIPTION:;
#CHARTSTYLE:;
#DIFFICULTY:Hard;
#METER:13;
#RADARVALUES:0.443197,0.646329,0.254785,0.584506,0.340962,414.000000,380.000000,34.000000,78.000000,0.000000,0.000000,0.000000,0.000000,0.000000,0.443197,0.646329,0.254785,0.584506,0.340962,414.000000,380.000000,34.000000,78.000000,0.000000,0.000000,0.000000,0.000000,0.000000;
#CREDIT:led_light;
#NOTES:
// measure 0
00000000
00000000
00000000
00000000
,  // measure 1
00000000
00000000
00000000
00000000
,  // measure 2
00000000
00000000
00000000
00000000
,  // measure 3
00000000
00000000
00000000
00000000
,  // measure 4
00000000
00000000
00000000
00000000
,  // measure 5
00000000
00000000
00000000
00000000
,  // measure 6
20000000
00000000
31000000
00000000
00000000
10000000
01000000
00000000
,  // measure 7
00020000
00000000
00000000
00000000
00000000
00000000
00030000
00000000
00000000
00001000
00000000
00000000
00000100
00000000
00000010
00000000
00000000
00001000
00000000
00000000
00001000
00000010
00000000
00000000
,  // measure 8
00000002
00000000
00000013
00000000
00000000
00001000
00000100
00000000
,  // measure 9
00020000
00000000
00031000
00000000
00002000
00000000
00013000
00010000
,  // measure 10
00022000
00000000
00000000
00000000
,  // measure 11
00000000
00000000
00000000
00000000
,  // measure 12
00033000
00000000
00000000
00000000
,  // measure 13
00000000
00000000
00000000
00000000
,  // measure 14
00000010
00000000
00000000
00000000
00000100
00000001
00000000
00000200
00000000
00000000
00000310
00000000
00001000
00000000
00000100
00000000
,  // measure 15
00000010
00000000
00000010
00000000
00000100
00010000
00000000
00002000
00000000
00000000
00013000
00000000
00020000
00000000
00000000
00000000
,  // measure 16
00031000
00000000
00000000
00000000
01000000
00010000
00000000
02000000
00000000
00000000
03100000
00000000
10000000
00000000
00010000
00000000
,  // measure 17
00100000
00000000
00100000
00000000
10000000
00100000
00000000
00020000
00000000
00000000
00130000
00000000
01000000
00000000
10000000
00000000
,  // measure 18
10010000
00000000
00000000
00000000
00010000
01000000
00000000
01000000
00010000
00000000
01000000
00000000
00100000
00000000
10000000
00000000
,  // measure 19
00010000
00000000
00010000
00000000
00100000
01000000
00000000
01000000
00010000
00000000
00011000
00000000
00012000
00000000
00000000
00000000
,  // measure 20
00013000
00000000
00000000
00000000
00000100
00001000
00000000
00001000
00000010
00000000
00000100
00000000
00000010
00000000
00001000
00000000
,  // measure 21
00000001
00000000
00000001
00000000
00000010
00000100
00000000
00010000
00000000
00000000
00001000
00100000
00010000
01000000
00010000
01000000
,  // measure 22
00200000
00000000
00300000
00000000
01000000
00010000
00000000
00010000
01000000
00000000
00100000
00000000
10000000
00000000
01000000
00000000
,  // measure 23
00100000
00000000
00100000
00000000
01000000
00010000
00000000
00010000
00001000
00000000
00011000
00000000
00021000
00000000
00000000
00000000
,  // measure 24
00030010
00000000
00000000
00000000
00001000
00000100
00000000
00000100
00000010
00000000
00000100
00000000
00001000
00000000
00010000
00000000
,  // measure 25
00100000
00000000
00100000
00000000
00001000
00010000
00000000
00100000
00000000
00000000
01000000
00000000
00100000
00000000
10000000
00000000
,  // measure 26
00020000
00001000
10000000
00130000
,  // measure 27
00012000
00000000
00000000
00000000
00000000
00000000
01003000
00000000
00000000
00100000
00000000
00000000
10000000
00000000
01000000
00000000
00000000
00100000
00000000
00000000
00100000
00010000
00000000
00000000
,  // measure 28
00012000
00000100
00000001
00003010
,  // measure 29
00000110
00000000
00000002
00000023
00000230
00020300
00032000
00003000
,  // measure 30
00010000
01000000
00010000
01000000
10000000
01000000
00010000
00001000
,  // measure 31
00000100
00000001
00000100
00000001
00000010
00001000
00010000
00100000
,  // measure 32
01000000
00000000
00100000
01000000
00000000
00100000
10000000
00000000
00010000
10000000
00000000
01000000
00100000
00000000
00001000
00100000
00000000
00001000
00010000
00000000
00000100
00001000
00000000
00000010
,  // measure 33
00000200
00000000
00000000
00000000
,  // measure 34
00000010
00000000
00000000
00000000
00000000
00000000
00000010
00000000
00000000
00000000
00000000
00000000
00000310
00000000
00000100
00000000
00000000
00001000
00000000
00000000
00010000
00001000
00000000
00000000
,  // measure 35
00011000
00000000
00220000
00330000
02020000
03030000
00022000
00033000
,  // measure 36
00100000
00000000
00000000
10000000
00000000
00000000
00100000
00000000
00000000
00001000
00000000
00000000
00100000
00000000
01000000
00000000
00000000
10000000
00000000
00000000
10000000
00010000
00000000
00000000
,  // measure 37
10200000
00000000
01300000
01000000
00010000
00000000
00012000
00000000
,  // measure 38
00203000
00310000
02000000
03001000
00200000
00310000
02000000
03001000
,  // measure 39
00011000
00000000
00002200
00003300
00002020
00003030
00022000
00033000
,  // measure 40
00000100
00000000
00000000
00000001
00000000
00000000
00000100
00000000
00000000
00010000
00000000
00000000
00000100
00000000
00000010
00000000
00000000
00000001
00000000
00000000
00000001
00001000
00000000
00000000
,  // measure 41
00000201
00000000
00000310
00000010
00001000
00000000
00021000
00000000
,  // measure 42
00030200
00000000
00000000
00000000
00000000
00000000
00000000
00000000
00000310
00000000
00000000
00000000
00000100
00000010
00000100
00000000
,  // measure 43
00000110
00000002
00002003
00023000
,  // measure 44
10030000
00000000
00000000
00000000
00000000
00000000
01000000
00000000
00000000
00000000
00000000
00000000
00100000
00000000
00000000
00010000
00000000
00000000
00100000
00000000
00000000
00010000
00000000
00000000
00100000
00000000
00000000
00000000
01000000
00000000
00000000
00000000
00000000
00000000
10000000
00000000
00000000
00000000
00000000
00000000
10000000
00000000
00010000
00000000
00000000
00000000
00000000
00000000
,  // measure 45
10010000
00000000
20000000
30020000
02030000
00000000
03200000
00000000
,  // measure 46
10300000
00000000
01000000
00100000
00000000
00000000
00010000
00000000
01000000
00100000
00000000
00000000
02200000
00000000
03300000
00000000
,  // measure 47
10010000
02000000
23000000
30200000
,  // measure 48
01300000
00000000
00010000
00100000
00000000
00010000
00100000
00000000
00001000
00010000
00000000
00001000
00010000
00000000
00000100
00000000
00000000
00001000
00000000
00000000
00000001
00000100
00000000
00000000
,  // measure 49
00000110
00000000
00000002
00002003
00003020
00000000
00000230
00000000
,  // measure 50
00002300
00000000
00020000
00033000
,  // measure 51
00011000
00000000
00000000
00000000
00001000
00100000
00000000
00001000
00010000
00000000
00001000
00000000
01000000
00000000
00001000
00000000
,  // measure 52
00010000
00000000
00010000
00000000
01000000
10000000
00000000
10000000
01000000
00000000
01100000
00000000
01200000
00000000
00000000
00000000
,  // measure 53
00310000
00000000
00000000
00000000
01000000
00010000
00000000
00010000
10000000
00000000
00100000
00000000
01000000
00000000
00010000
00000000
,  // measure 54
00100000
00000000
00100000
00000000
10000000
00100000
00000000
00010000
00000000
00000000
10000000
00010000
01000000
00010000
01000000
00001000
,  // measure 55
00010000
00000000
00000000
00000000
00000100
00010000
00000000
00010000
00001000
00000000
00010000
00000000
00000010
00000000
00001000
00000000
,  // measure 56
00000100
00000000
00000100
00000000
00000010
00000001
00000000
00000001
00000010
00000000
00000110
00000000
00000210
00000000
00000000
00000000
,  // measure 57
00001300
00000000
00000000
00000000
00000010
00001000
00000000
00001000
00000001
00000000
00000100
00000000
00000010
00000000
00001000
00000000
,  // measure 58
00000100
00000000
00000100
00000000
00000001
00000100
00000000
00001000
00000000
00000000
00000001
00000000
00000100
00000000
00000010
00000000
,  // measure 59
00002000
00000000
00003100
00000000
00000000
00000010
00000100
00000000
,  // measure 60
00020000
00000000
00000000
00000000
00000000
00000000
00030000
00000000
00000000
01000000
00000000
00000000
10000000
00000000
00100000
00000000
00000000
01000000
00000000
00000000
01000000
00100000
00000000
00000000
,  // measure 61
20000000
00000000
31000000
00000000
00000000
00100000
00010000
00000000
,  // measure 62
20000000
31000000
00020000
00031000
,  // measure 63
00000220
00000330
00000000
00000000
,  // measure 64
00002002
00000000
00000000
00000000
00000000
00000000
00003003
00000000
00000000
00000001
00000000
00000000
00000100
00000000
00000010
00000000
00000000
00001000
00000000
00000000
00001000
00000100
00000000
00000000
,  // measure 65
00001200
00010300
00000000
00010000
,  // measure 66
00002000
00000000
00000000
00000000
00000000
00000000
00203000
00000000
00000000
00000000
01000000
00000000
,  // measure 67
02300000
00000000
00000000
00000000
,  // measure 68
00000000
00000000
00000000
00000000
,  // measure 69
03000000
00000000
00000000
00000000
;

//---------------dance-double - ----------------
#NOTEDATA:;
#CHARTNAME:;
#STEPSTYPE:dance-double;
#DESCRIPTION:;
#CHARTSTYLE:;
#DIFFICULTY:Medium;
#METER:8;
#RADARVALUES:0.316875,0.439504,0.412152,0.247291,0.000000,296.000000,241.000000,55.000000,33.000000,0.000000,0.000000,0.000000,0.000000,0.000000,0.316875,0.439504,0.412152,0.247291,0.000000,296.000000,241.000000,55.000000,33.000000,0.000000,0.000000,0.000000,0.000000,0.000000;
#CREDIT:led_light;
#NOTES:
// measure 0
00000000
00000000
00000000
00000000
,  // measure 1
00000000
00000000
00000000
00000000
,  // measure 2
00000000
00000000
00000000
00000000
,  // measure 3
00000000
00000000
00000000
00000000
,  // measure 4
00000000
00000000
00000000
00000000
,  // measure 5
00000000
00000000
00000000
00000000
,  // measure 6
00000110
00000001
00000000
00000001
,  // measure 7
00001001
00000000
00000000
00000000
00000001
00000010
00001000
00000000
,  // measure 8
00110000
01000000
00000000
01000000
,  // measure 9
20000000
00000000
00020000
30030000
,  // measure 10
01100000
00000000
00000000
00000000
,  // measure 11
00000000
00000000
00000000
00000000
,  // measure 12
00000000
00000000
00000000
00000000
,  // measure 13
00000000
00000000
00000000
00000000
,  // measure 14
10000000
10000000
00010000
00010000
,  // measure 15
00100000
01000000
00100000
00000000
00001000
00000000
00000000
00000000
,  // measure 16
00010000
00010000
00001000
00001000
,  // measure 17
00000100
00000010
00000100
00000000
00000002
00000000
00000003
00000000
,  // measure 18
00001001
00000100
00001000
00001000
,  // measure 19
00000010
00000000
00000010
00000000
00010000
00001000
00011000
00000000
,  // measure 20
00100000
00100000
00001000
00001000
,  // measure 21
00000100
00001000
00010000
01010000
,  // measure 22
11000000
00100000
00010000
00010000
,  // measure 23
01000000
00000000
01000000
00000000
00001000
00010000
00011000
00000000
,  // measure 24
00000100
00000100
00010000
00010000
,  // measure 25
01000000
00010000
00001000
00000000
00000100
00000001
00000010
00000000
,  // measure 26
00000110
00001000
00001000
00001000
,  // measure 27
00011000
00000000
00010000
00000000
00001000
00010000
00100000
00000000
,  // measure 28
01100000
00010000
00010000
00010000
,  // measure 29
01100000
00020000
00230000
10300000
,  // measure 30
00010000
01000000
00010000
01000000
10000000
01000000
10000000
01000000
,  // measure 31
00010000
00001000
00010000
00001000
00000100
00000001
00000100
00000001
,  // measure 32
00001000
00000010
00000100
00000001
00000010
00001000
00010000
00100000
,  // measure 33
20000000
00000000
00000000
00000000
,  // measure 34
01000000
00100000
01000000
30100000
,  // measure 35
01100000
11000000
01100000
01100000
,  // measure 36
00010000
00000000
00010000
00000000
10000000
01000000
00010000
00000000
,  // measure 37
01200000
00000000
00301000
00001000
00001000
00000000
00012000
00000000
,  // measure 38
00023000
00030020
00000230
00000310
,  // measure 39
00000110
00000011
00000110
00000110
,  // measure 40
00001000
00000000
00001000
00000000
00000001
00000010
00001000
00000000
,  // measure 41
00021000
00000000
00031000
00001000
01000000
00000000
01100000
00000000
,  // measure 42
20000000
00000000
00020000
30030000
,  // measure 43
00100000
10010000
01000000
10010000
,  // measure 44
10000000
00010000
00100000
00000000
00002000
00000000
00013000
00000000
,  // measure 45
00001010
00000000
00000100
00000010
00000200
00000000
00000302
00000000
,  // measure 46
00000013
00000100
00000010
00000000
00001000
00000000
00001000
00000000
,  // measure 47
00010000
00101000
00010000
01001000
,  // measure 48
00100000
00100000
00100000
00000000
20000000
00000000
30010000
00000000
,  // measure 49
00110000
00000000
01000000
10000000
02000000
00000000
03200000
00000000
,  // measure 50
00302000
00000000
00020000
00033000
,  // measure 51
00011000
00001010
00011000
00110000
,  // measure 52
01000000
10000000
00100000
01000000
00100000
00000000
01100000
00000000
,  // measure 53
00110000
10100000
00110000
10010000
,  // measure 54
00010000
00100000
01000000
00010000
00001000
00000000
00010000
00000000
,  // measure 55
00011000
00110000
00011000
00001010
,  // measure 56
00000100
00000001
00000010
00000100
00000010
00000000
00000110
00000000
,  // measure 57
00001010
00000011
00001010
00001001
,  // measure 58
00001000
00000010
00000100
00000000
00001000
00010000
00001000
00000000
,  // measure 59
00011000
00100000
00000000
00100000
,  // measure 60
10010000
00000000
00000000
00000000
10000000
01000000
00010000
00000000
,  // measure 61
00011000
00000100
00000000
00000100
,  // measure 62
00002000
00000000
00000020
00003030
,  // measure 63
00000202
00000303
00000000
00000000
,  // measure 64
00022000
00000000
00033000
00000000
00100000
00010000
01000000
00000000
,  // measure 65
22000000
33000000
00000000
00000000
,  // measure 66
00200000
00000000
00302000
00000000
,  // measure 67
00023000
00000000
00000000
00000000
,  // measure 68
00000000
00000000
00000000
00000000
,  // measure 69
00030000
00000000
00000000
00000000
;

//---------------dance-double - ----------------
#NOTEDATA:;
#CHARTNAME:;
#STEPSTYPE:dance-double;
#DESCRIPTION:;
#CHARTSTYLE:;
#DIFFICULTY:Easy;
#METER:6;
#RADARVALUES:0.245150,0.310238,0.232304,0.194835,0.000000,229.000000,198.000000,31.000000,26.000000,0.000000,0.000000,0.000000,0.000000,0.000000,0.245150,0.310238,0.232304,0.194835,0.000000,229.000000,198.000000,31.000000,26.000000,0.000000,0.000000,0.000000,0.000000,0.000000;
#CREDIT:led_light;
#NOTES:
// measure 0
00000000
00000000
00000000
00000000
,  // measure 1
00000000
00000000
00000000
00000000
,  // measure 2
00000000
00000000
00000000
00000000
,  // measure 3
00000000
00000000
00000000
00000000
,  // measure 4
00000000
00000000
00000000
00000000
,  // measure 5
00000000
00000000
00000000
00000000
,  // measure 6
10010000
01000000
00000000
01000000
,  // measure 7
10010000
00000000
00100000
00001000
,  // measure 8
00011000
00010000
00000000
00010000
,  // measure 9
00000020
00000000
00000200
00000330
,  // measure 10
00001001
00000000
00000000
00000000
,  // measure 11
00000000
00000000
00000000
00000000
,  // measure 12
00000000
00000000
00000000
00000000
,  // measure 13
00000000
00000000
00000000
00000000
,  // measure 14
00000001
00000001
00001000
00001000
,  // measure 15
00000100
00000100
00020000
00030000
,  // measure 16
00001000
00001000
00100000
00100000
,  // measure 17
00010000
00010000
02000000
03000000
,  // measure 18
01100000
00010000
10000000
10000000
,  // measure 19
01000000
10000000
00100000
00000000
,  // measure 20
01000000
00001000
01000000
00001000
,  // measure 21
00010000
00000100
00000010
00001000
,  // measure 22
00011000
00000100
00010000
00010000
,  // measure 23
00001000
00010000
00000010
00000000
,  // measure 24
00000100
00000001
00000100
00000001
,  // measure 25
00000010
00000010
00000100
00000100
,  // measure 26
00011000
00001000
00010000
00001000
,  // measure 27
00011000
00100000
10000000
01000000
,  // measure 28
01100000
00100000
01000000
00100000
,  // measure 29
01100000
00002000
00023000
01030000
,  // measure 30
10000000
10000000
10000000
10000000
,  // measure 31
00100000
00100000
00100000
00100000
,  // measure 32
00010000
00001000
00010000
00001000
,  // measure 33
00020000
00000000
00000000
00000000
,  // measure 34
00001000
00001000
00001000
00030000
,  // measure 35
00011000
00000200
00000320
00000230
,  // measure 36
00010300
00010000
00001000
00000100
,  // measure 37
00000002
00001000
00001003
00000110
,  // measure 38
00000001
00000100
00000001
00000100
,  // measure 39
00001000
00200000
02300000
03200000
,  // measure 40
00301000
00001000
00010000
00100000
,  // measure 41
20000000
00010000
30010000
01100000
,  // measure 42
02000000
00000000
03100000
00000000
,  // measure 43
00001000
00011000
00100000
00110000
,  // measure 44
01000000
01000000
20000000
30100000
,  // measure 45
01000000
01010000
00001000
00011000
,  // measure 46
00001000
00010000
00001000
00002000
,  // measure 47
00013000
00011000
00000100
00000110
,  // measure 48
00000001
00000001
00002000
00003100
,  // measure 49
00010000
00011000
00000010
00001010
,  // measure 50
00000200
00000000
00000020
00000330
,  // measure 51
00001001
00000001
00000100
00000010
,  // measure 52
00001000
00000100
00010000
00011000
,  // measure 53
00001000
01000000
00001000
00100000
,  // measure 54
00010000
01000000
00100000
00000000
,  // measure 55
10010000
10000000
01000000
00100000
,  // measure 56
00010000
01000000
00001000
00011000
,  // measure 57
00010000
00000100
00010000
00000010
,  // measure 58
00001000
00000100
00000010
00000100
,  // measure 59
00001001
00000100
00000000
00000100
,  // measure 60
00001001
00000000
00000010
00010000
,  // measure 61
00011000
00001000
00000000
00001000
,  // measure 62
00200000
00000000
02000000
03300000
,  // measure 63
10010000
00000000
00000000
00000000
,  // measure 64
01100000
00000000
10000000
10000000
,  // measure 65
00110000
00000000
00000000
00000000
,  // measure 66
00002000
00000000
00003200
00000000
,  // measure 67
00000302
00000000
00000000
00000000
,  // measure 68
00000000
00000000
00000000
00000000
,  // measure 69
00000003
00000000
00000000
00000000
;
