#VERSION:0.83;
#TITLE:B L A C K O U T;
#SUBTITLE:;
#ARTIST:八王子P feat. IA;
#TITLETRANSLIT:;
#SUBTITLETRANSLIT:;
#ARTISTTRANSLIT:8#Prince feat. IA;
#GENRE:J-Music;
#ORIGIN:;
#CREDIT:;
#BANNER:B L A C K O U T.png;
#BACKGROUND:B L A C K O U T-bg.png;
#PREVIEWVID:;
#JACKET:B L A C K O U T-jacket.png;
#CDIMAGE:;
#DISCIMAGE:;
#LYRICSPATH:;
#CDTITLE:../cdtitle.png;
#MUSIC:B L A C K O U T.ogg;
#OFFSET:1.479000;
#SAMPLESTART:87.150002;
#SAMPLELENGTH:15.000000;
#SELECTABLE:YES;
#BPMS:0.000=132.000;
#STOPS:;
#DELAYS:;
#WARPS:;
#TIMESIGNATURES:0.000=4=4;
#TICKCOUNTS:0.000=4;
#COMBOS:0.000=1;
#SPEEDS:0.000=1.000=0.000=0;
#SCROLLS:0.000=1.000;
#FAKES:;
#LABELS:0.000=Song Start;
#BGCHANGES:-99.000=../bg.avi=1.000=0=0=1=====,
99999=-nosongbg-=1.000=0=0=0 // don't automatically add -songbackground-
;
#KEYSOUNDS:;
#ATTACKS:
;

//---------------dance-single - ----------------
#NOTEDATA:;
#CHARTNAME:;
#STEPSTYPE:dance-single;
#DESCRIPTION:;
#CHARTSTYLE:;
#DIFFICULTY:Beginner;
#METER:2;
#RADARVALUES:0.131037,0.183050,0.016092,0.000000,0.000000,114.000000,112.000000,2.000000,0.000000,0.000000,0.000000,0.000000,0.000000,0.000000,0.131037,0.183050,0.016092,0.000000,0.000000,114.000000,112.000000,2.000000,0.000000,0.000000,0.000000,0.000000,0.000000,0.000000;
#CREDIT:led_light;
#NOTES:
0000
0000
0000
0000
,
0000
0000
0000
0000
,
0000
0000
0000
0000
,
0000
0000
0000
0000
,
0000
0000
0000
0000
,
1000
0000
0000
0000
,
1000
0000
0000
0000
,
0001
0000
0001
0000
,
0100
0100
0100
0000
,
1001
0000
0000
0000
,
1000
0000
0000
0000
,
0001
0000
0000
0000
,
1000
0000
0000
0000
,
0001
0000
0001
0000
,
1000
0000
1000
0000
,
0100
0000
0010
0000
,
0001
0000
0000
0000
,
0001
0000
0001
0000
,
1000
0000
1000
0000
,
0010
0000
0010
0000
,
0100
0000
0100
0000
,
0010
0000
1000
0000
,
0001
0000
0100
0000
,
1000
0000
0001
0000
,
0010
0010
0010
0000
,
1000
0000
0010
0000
,
0001
0000
0010
0000
,
1000
0000
0100
0000
,
0001
0000
0100
0000
,
1000
0000
0100
0000
,
1000
0000
0100
0000
,
0001
0000
0010
0000
,
0001
0000
0010
0000
,
0001
0000
0000
0000
,
1000
0000
0000
0000
,
0010
0000
0000
0000
,
0100
0000
0000
0000
,
0001
0000
0001
0000
,
1000
0000
1000
0000
,
0100
0000
0100
0000
,
0010
0000
0000
0000
,
1000
0000
1000
0000
,
0001
0000
0001
0000
,
0010
0000
0100
0000
,
0010
0000
0100
0000
,
1000
0000
1000
0000
,
0001
0000
0001
0000
,
1000
0000
0001
0000
,
0100
0100
0100
0000
,
1000
0000
1000
0000
,
0001
0000
0001
0000
,
0100
0000
0010
0000
,
0100
0000
0010
0000
,
1000
0000
0010
0000
,
0001
0000
0100
0000
,
0010
0000
0100
0000
,
0010
0000
0000
0000
,
1000
0000
1000
0000
,
0001
0000
0001
0000
,
1000
0000
1000
0000
,
0010
0000
0100
0000
,
0001
0000
0010
0000
,
1000
0000
0100
0000
,
0001
0000
0010
0000
,
0100
0100
0100
0000
,
1001
0000
0000
0000
;

//---------------dance-single - ----------------
#NOTEDATA:;
#CHARTNAME:;
#STEPSTYPE:dance-single;
#DESCRIPTION:;
#CHARTSTYLE:;
#DIFFICULTY:Easy;
#METER:6;
#RADARVALUES:0.254029,0.296501,0.048277,0.144831,0.000000,221.000000,215.000000,6.000000,18.000000,0.000000,0.000000,0.000000,0.000000,0.000000,0.254029,0.296501,0.048277,0.144831,0.000000,221.000000,215.000000,6.000000,18.000000,0.000000,0.000000,0.000000,0.000000,0.000000;
#CREDIT:led_light;
#NOTES:
0000
0000
0000
0000
,
0000
0000
0000
0000
,
0000
0000
0000
0000
,
0000
0000
0000
0000
,
0000
0000
0000
0000
,
0001
0001
0010
0010
,
1000
1000
0100
0100
,
0001
0010
1000
0100
,
2000
0000
0010
3010
,
0002
0000
0000
0103
,
2000
0000
0000
3001
,
0020
0000
0000
0130
,
0200
0000
0000
1300
,
0001
0001
1000
1000
,
0001
0001
1000
1000
,
0010
0010
0100
0100
,
0200
0000
0000
0000
0310
0100
0010
0000
,
1001
0100
0100
0001
,
1000
0100
1000
0100
,
0001
0010
0001
0010
,
1000
0001
1000
0001
,
0010
1000
0100
1000
,
0010
0001
0100
0001
,
0010
0100
0010
0100
,
0020
0000
0100
0130
,
1001
0001
0100
0001
,
1000
0100
0001
0010
,
1000
0100
0001
0010
,
2000
0100
0000
3100
,
0100
0001
1000
0100
,
0001
0100
1000
1000
,
0001
0100
1000
0001
,
0010
0100
0100
0100
,
0020
0000
0000
0130
,
0200
0000
0000
0301
,
0002
0000
0000
1003
,
2000
0000
0000
3010
,
1000
0001
1000
0001
,
1000
0001
0100
0100
,
0001
0001
0010
0010
,
0100
0000
0000
0100
,
1001
0100
0010
0100
,
1000
0001
1000
0001
,
0010
0001
0100
1000
,
0010
0000
0100
0100
,
1000
1000
0010
0100
,
0001
0001
0010
0000
,
1000
0100
1000
0100
,
0002
0000
0003
0001
,
1001
0001
0100
0100
,
2000
0100
0000
3100
,
0010
0010
0001
0001
,
0100
0100
1000
0010
,
0001
0100
0001
0100
,
1000
1000
1000
0001
,
0010
0010
0100
0100
,
0020
0000
0000
0000
0130
0010
0100
0000
,
1001
0010
0010
1000
,
0001
0010
0001
0010
,
1000
0100
1000
0100
,
0001
1000
0001
1000
,
0100
0001
0010
0001
,
0100
1000
0010
1000
,
0100
0010
0100
0010
,
0200
0000
0000
0000
0010
0010
0310
0000
,
2002
0000
0000
0000
,
0000
0000
0000
0000
,
3003
0000
0000
0000
;

//---------------dance-single - ----------------
#NOTEDATA:;
#CHARTNAME:;
#STEPSTYPE:dance-single;
#DESCRIPTION:;
#CHARTSTYLE:;
#DIFFICULTY:Medium;
#METER:9;
#RADARVALUES:0.335640,0.404319,0.088508,0.112646,0.000000,292.000000,281.000000,11.000000,14.000000,0.000000,0.000000,0.000000,0.000000,0.000000,0.335640,0.404319,0.088508,0.112646,0.000000,292.000000,281.000000,11.000000,14.000000,0.000000,0.000000,0.000000,0.000000,0.000000;
#CREDIT:led_light;
#NOTES:
0000
0000
0000
0000
,
0000
0000
0000
0000
,
0000
0000
0000
0000
,
0000
0000
0000
0000
,
0000
0000
0000
0000
,
0001
0001
1000
0100
,
1000
1000
0001
0100
,
0001
0001
1000
0010
,
0001
0001
1000
1000
0001
0001
0100
0000
,
1000
0000
0000
1000
0000
0000
1000
0000
,
0001
0000
0000
0001
0000
0000
0001
0000
,
0010
0000
0000
0010
0000
0000
0010
0000
,
0100
0000
0000
0100
0000
0000
0100
0000
,
2000
0100
0000
3100
,
0002
0100
0000
0103
,
2000
3010
0002
0013
,
0110
0000
0000
0000
0100
1000
0001
0000
,
1001
0000
0001
0000
1000
0010
1000
0000
,
0001
0000
1000
0000
0001
0010
0001
0000
,
0001
0100
1000
0000
1000
0100
0001
0000
,
0001
0100
1000
0100
0001
0000
1001
0000
,
0001
0000
1000
0000
0001
0100
0001
0000
,
1000
0000
0001
0000
1000
0100
1000
0000
,
1000
0010
0001
0000
0001
0010
1000
0000
,
1000
0100
0001
0100
1000
0000
0010
0000
,
0110
0100
0100
0001
,
1000
0100
0001
0100
,
1000
0010
0001
0010
,
1000
0000
1000
0000
0100
0000
0100
0100
,
0100
1000
0010
0010
,
0001
0100
0001
0010
,
1000
0001
0010
0010
,
0010
0010
0010
0000
0100
0100
0100
0000
,
0001
0000
0000
0001
0000
0000
0001
0000
,
1000
0000
0000
1000
0000
0000
1000
0000
,
0100
0000
0000
0100
0000
0000
0100
0000
,
0010
0000
0000
0010
0000
0000
0010
0000
,
0002
0010
1000
0013
,
2000
0100
0001
3100
,
0002
0013
0200
1300
,
2002
0000
3003
0110
,
1001
0000
0010
0001
1000
0001
0010
0000
,
1000
0000
0010
1000
0001
1000
0010
0000
,
0100
0001
0100
0000
1000
0100
1000
0000
,
0010
1000
0010
0000
0001
0010
0001
0001
,
0001
0000
1000
0000
0001
0100
1000
0000
,
1000
0000
0001
0000
1000
0100
0001
0000
,
0010
0000
1000
0000
0100
0000
0010
0010
,
0020
0000
0000
0130
,
1001
0000
1000
0000
0010
0001
0100
0000
,
1000
0000
0001
0000
0010
1000
0100
0000
,
0001
0100
1000
0000
1000
0010
0001
0000
,
0100
0010
0100
0000
1000
0001
1000
1000
,
1000
0000
0100
0000
0010
1000
0001
0000
,
0010
0000
0100
0100
0100
0000
0100
0000
,
0100
0000
1000
0001
1000
0001
1000
0000
,
0020
0000
0000
0000
0100
0100
0130
0000
,
1001
0000
0001
0000
1000
0100
1000
0000
,
0001
0000
1000
0000
0001
0100
0001
0000
,
0001
0010
1000
0000
1000
0010
0001
0000
,
0001
0010
1000
0010
0001
0000
1001
0000
,
0001
0000
1000
0000
0001
0010
0001
0000
,
1000
0000
0001
0000
1000
0010
1000
0000
,
1000
0100
0001
0000
0001
0100
1000
0000
,
1000
0010
0001
0010
1000
0001
0100
0000
,
2002
0000
0000
0000
,
0000
0000
0000
0000
,
3003
0000
0000
0000
;

//---------------dance-single - ----------------
#NOTEDATA:;
#CHARTNAME:;
#STEPSTYPE:dance-single;
#DESCRIPTION:;
#CHARTSTYLE:;
#DIFFICULTY:Hard;
#METER:12;
#RADARVALUES:0.468976,0.539092,0.128738,0.032185,0.140808,408.000000,392.000000,16.000000,4.000000,0.000000,0.000000,0.000000,0.000000,0.000000,0.468976,0.539092,0.128738,0.032185,0.140808,408.000000,392.000000,16.000000,4.000000,0.000000,0.000000,0.000000,0.000000,0.000000;
#CREDIT:led_light;
#NOTES:
0000
0000
0000
0000
,
0000
0000
0000
0000
,
0000
0000
0000
0000
,
0000
0000
0000
0000
,
0000
0000
0000
0000
,
1000
0000
0001
0000
1000
0010
1000
0000
,
0001
0000
1000
0000
0001
0010
0001
0000
,
1000
0000
0100
0000
0001
0100
1000
0000
,
0001
0100
1000
0100
0001
1000
1001
0000
,
0010
0000
0000
0010
0000
0000
0010
0000
0000
0010
0000
0000
0010
0000
0000
0000
,
1000
0000
0000
1000
0000
0000
1000
0000
0000
1000
0000
0000
1000
0000
0000
0000
,
0100
0000
0000
0100
0000
0000
0100
0000
0000
0100
0000
0000
0100
0000
0000
0000
,
0001
0000
0000
0001
0000
0000
0001
0000
0000
0001
0000
0000
0001
0000
0000
0000
,
0010
0000
0000
0010
0000
0000
0100
0000
0000
0100
0000
0000
1000
0000
0000
0000
,
0010
0000
0000
0010
0000
0000
0100
0000
0000
0100
0000
0000
0001
0000
0000
0000
,
0010
0000
0000
0010
0000
0000
0100
0000
0000
0100
0000
0000
1000
0000
0000
0000
,
2000
0000
0000
0010
0000
0000
0001
0000
0000
0100
3000
0000
0110
0000
0000
0000
,
1001
0001
0100
0001
1000
0001
0100
0000
,
0001
1000
0100
1000
0001
1000
0100
0000
,
0010
0001
0100
0001
0010
0001
0100
0000
,
0010
1000
0100
1000
0010
1000
0100
0000
,
0010
0001
1000
0010
0100
0001
0010
0010
,
0010
1000
0001
0010
0100
1000
0010
0010
,
0010
0001
1000
0100
0001
0010
0001
0100
,
1000
0000
0010
0000
0001
0000
1000
0001
1000
0001
1000
0000
0100
0000
0010
0000
,
0011
0001
1000
0000
0010
0001
1000
0000
,
1000
0100
0010
0001
0010
0100
1000
0000
,
0100
0001
0100
1000
0100
0001
0100
1000
,
0010
0001
0010
1000
0010
0001
0010
0010
,
0100
1000
0001
0000
0100
1000
0001
0000
,
0001
0010
0100
1000
0100
0010
0001
0000
,
0010
1000
0010
0001
0010
1000
0010
0001
,
0100
1000
0100
0001
0100
1000
0100
0100
,
0001
0000
0000
0001
0000
0000
0010
0000
0000
0010
0000
0000
1000
0000
0000
0000
,
1000
0000
0000
1000
0000
0000
0100
0000
0000
0100
0000
0000
0001
0000
0000
0000
,
1000
0000
0000
1000
0000
0000
0100
0000
0000
0100
0000
0000
0001
0000
0000
0000
,
0001
0000
0000
0001
0000
0000
0010
0000
0000
0010
0000
0000
1000
0000
0000
0000
,
0001
0000
0000
0010
0000
0000
0100
0000
0000
1000
0000
0000
0001
0000
0000
0000
,
1000
0000
0000
0010
0000
0000
0100
0000
0000
0001
0000
0000
1000
0000
0000
0000
,
0010
0000
0000
0100
0000
0000
0010
0000
0000
0100
0000
0000
0010
0000
0010
0000
,
0110
0000
0000
0000
1000
0010
0010
0000
,
1001
0000
1000
0000
0001
1000
0100
0000
,
0001
0000
0010
0000
1000
0100
0001
0000
,
1000
0100
0001
1000
0100
0001
0010
0000
,
0001
0100
0100
1000
1000
0010
0010
0010
,
1000
0010
0100
0001
0100
0010
1000
0000
,
0001
0100
0010
1000
0010
0100
0001
0000
,
0001
0100
1000
0010
1000
0100
0001
0010
,
0001
0000
0100
0000
1000
0000
0100
0010
0100
0000
0010
0000
0110
0000
0000
0000
,
1001
0000
0001
0010
0100
0010
0001
0000
,
1000
0100
0010
0100
1000
0001
0011
0000
,
1100
0000
1000
0010
0100
0010
1000
0000
,
0001
0100
0010
0100
0001
1000
1010
0000
,
0101
0001
0100
1000
0010
0001
1000
0000
,
1100
1000
0100
0001
0010
1000
0001
0000
,
1000
0100
0001
0001
0100
1000
0010
0100
,
0120
0000
0000
0000
0100
0100
0130
0000
,
1001
1000
0010
1000
0001
1000
0010
0000
,
1000
0001
0010
0001
1000
0001
0010
0000
,
0100
1000
0010
1000
0100
1000
0010
0000
,
0100
0001
0010
0001
0100
0001
0010
0000
,
0100
1000
0001
0100
0010
1000
0100
0100
,
0100
0001
1000
0100
0010
0001
0100
0100
,
0100
1000
0001
0010
1000
0100
1000
0010
,
0001
0000
0100
0000
1000
0000
0001
1000
0001
1000
0001
0000
0010
0000
0100
0000
,
2002
0000
0000
0000
,
0000
0000
0000
0000
,
3003
0000
0000
0000
;

//---------------dance-single - ----------------
#NOTEDATA:;
#CHARTNAME:;
#STEPSTYPE:dance-single;
#DESCRIPTION:;
#CHARTSTYLE:;
#DIFFICULTY:Challenge;
#METER:15;
#RADARVALUES:0.713809,0.781684,0.386215,0.032185,0.748292,621.000000,573.000000,48.000000,4.000000,0.000000,0.000000,0.000000,0.000000,0.000000,0.713809,0.781684,0.386215,0.032185,0.748292,621.000000,573.000000,48.000000,4.000000,0.000000,0.000000,0.000000,0.000000,0.000000;
#CREDIT:led_light;
#NOTES:
// measure 0
0000
0000
0000
0000
,  // measure 1
0000
0000
0000
0000
,  // measure 2
0000
0000
0000
0000
,  // measure 3
0000
0000
0000
0000
,  // measure 4
0000
0000
0000
0000
,  // measure 5
0100
0000
0001
0000
1000
0000
0001
1000
0000
0001
0010
0100
1000
0001
1000
0000
,  // measure 6
0010
0000
1000
0000
0001
0000
1000
0001
0000
1000
0010
0100
0001
1000
0001
0000
,  // measure 7
0010
0000
0100
0000
1000
0000
0001
0100
0000
0100
0001
1000
0001
1000
0100
0000
,  // measure 8
1000
0000
0010
0000
0100
0000
1000
0100
0000
0001
1000
0001
1001
0000
0000
0000
,  // measure 9
0110
0000
0000
0001
0000
0000
0010
0000
0000
0100
0000
0000
1000
0000
0000
0000
,  // measure 10
0110
0000
0000
1000
0000
0000
0100
0000
0000
0010
0000
0000
0001
0000
0000
0000
,  // measure 11
1001
0000
0000
0010
0000
0000
0100
0000
0000
0001
0000
0000
1000
0000
0000
0000
,  // measure 12
1001
0000
0000
0010
0000
0000
0100
0000
0000
1000
0000
0000
0001
0000
0000
0000
,  // measure 13
0011
0000
0100
1000
0000
1000
0100
0000
0100
0001
0000
0001
0100
0000
1000
0000
,  // measure 14
1100
0000
0010
0001
0000
0001
0010
0000
0010
1000
0000
1000
0010
0000
0001
0000
,  // measure 15
1010
0000
1000
0100
0000
0001
0100
0000
1000
0010
0000
0001
0010
0000
1000
0000
,  // measure 16
0001
0000
1000
0100
0000
1000
0100
0000
0001
0010
0100
0000
1001
0000
0000
0000
,  // measure 17
1100
0000
1000
0000
0001
0000
0100
0001
0000
0001
0100
0001
1000
0100
1000
0000
,  // measure 18
0101
0000
0001
0000
1000
0000
0100
1000
0000
1000
0100
1000
0001
0100
0001
0000
,  // measure 19
0011
0000
0100
0000
1000
0000
0100
1000
0000
0100
0010
0001
0010
0100
1000
0000
,  // measure 20
1010
0000
0100
0000
0001
0000
0100
0001
0000
0100
0010
1000
0010
0100
0001
0000
,  // measure 21
1100
0000
0001
0000
0100
0000
1000
0100
0001
0010
1000
0010
0001
0100
1000
0000
,  // measure 22
0101
0000
1000
0000
0100
0000
0001
0100
1000
0010
0001
0010
1000
0100
0001
0000
,  // measure 23
0011
0000
1000
0000
0010
0000
0001
0010
0100
1000
0010
0100
0001
0100
0010
0000
,  // measure 24
1010
0000
0001
0000
0010
0000
1000
0010
0100
0001
0010
0100
1000
0100
0010
0000
,  // measure 25
0001
1000
0100
1000
0001
1000
0100
1000
,  // measure 26
1000
0001
0100
0001
1000
0001
0100
0001
,  // measure 27
1000
0001
0100
0010
0001
1000
0010
0100
,  // measure 28
1000
0000
0100
0000
0001
0000
0010
0000
0001
0000
0100
0000
0010
0010
0010
0010
,  // measure 29
0010
0001
0100
0001
1000
0001
0100
0001
,  // measure 30
0010
1000
0100
1000
0001
1000
0100
1000
,  // measure 31
0010
0001
0100
1000
0010
1000
0100
0001
,  // measure 32
0010
0000
0100
0000
1000
0000
0001
0010
0001
0010
0001
0000
0100
0010
0100
0010
,  // measure 33
1000
0000
0000
0100
0000
0000
0001
0000
0000
0010
0000
0000
1000
0000
0000
0000
,  // measure 34
0001
0000
0000
0100
0000
0000
1000
0000
0000
0010
0000
0000
0001
0000
0000
0000
,  // measure 35
0010
0000
0000
1000
0000
0000
0100
0000
0000
0001
0000
0000
0010
0000
0000
0000
,  // measure 36
0100
0000
0000
1000
0000
0000
0010
0000
0000
0001
0000
0000
0100
0000
0000
0000
,  // measure 37
0010
0000
0010
1000
0000
1000
0010
0000
0010
0001
0000
0001
0100
0000
1000
0000
,  // measure 38
0100
0000
0100
0001
0000
0001
0010
0000
0010
1000
0000
1000
0010
0000
0001
0000
,  // measure 39
0100
0000
0010
1000
0000
0001
0100
0000
0001
0010
0000
0100
1000
0000
0001
0000
,  // measure 40
2100
0000
0000
0000
0000
0000
0000
0000
3001
0100
1000
0000
0110
0000
0000
0000
,  // measure 41
1001
0000
0100
0010
0000
0010
0100
0000
1000
0001
0010
0000
1100
0000
1000
0000
,  // measure 42
0101
0000
0010
1000
0000
1000
0010
0000
0100
0001
1000
0000
0110
0000
0100
0000
,  // measure 43
1001
0000
0010
0100
0000
0100
0010
0000
0001
1000
0100
0000
0011
0000
0001
0000
,  // measure 44
1010
0000
0100
0001
0000
0001
0100
0000
0010
1000
0001
0000
0110
0000
0010
0000
,  // measure 45
1001
0000
0001
0100
0001
0100
0001
0000
1000
0010
1000
0010
1000
0000
0100
0000
,  // measure 46
0011
0000
1000
0100
0010
0100
1000
0000
0001
0010
0100
0010
0001
0000
1000
0000
,  // measure 47
0101
0000
1000
0010
0001
0010
1000
0000
0001
0100
1000
0100
0001
0000
1000
0000
,  // measure 48
0010
1000
0010
1000
0001
0100
0001
0100
0010
0100
0010
0100
0110
0000
0000
0000
,  // measure 49
1001
0000
0001
0010
0000
0100
1000
0000
0001
0010
0000
0100
1000
0000
0001
0000
,  // measure 50
0100
0000
0010
1000
0000
0001
0100
0000
0010
1000
0000
0001
0101
0000
0100
0000
,  // measure 51
1100
0000
0001
1000
0000
0010
0100
0000
0001
1000
0000
0010
0100
0000
0001
0000
,  // measure 52
1000
0000
0100
0010
0000
0001
1000
0000
0100
0010
0000
0001
0011
0000
0010
0000
,  // measure 53
1010
0000
1000
0100
0000
0001
0010
0000
1000
0100
0000
0001
0010
0000
1000
0000
,  // measure 54
0010
0000
0001
0100
0000
1000
0010
0000
0001
0100
0000
1000
0010
0000
0001
0000
,  // measure 55
0100
0000
1000
0001
0000
1000
0001
0000
0010
0000
0100
0000
0110
0000
0000
0000
,  // measure 56
1002
0000
0000
0000
0000
0000
0000
0000
1003
0100
0001
0000
1100
0000
0000
0000
,  // measure 57
0011
0000
0001
0000
1000
0000
0010
1000
0000
1000
0010
1000
0001
0010
0001
0000
,  // measure 58
1010
0000
1000
0000
0001
0000
0010
0001
0000
0001
0010
0001
1000
0010
1000
0000
,  // measure 59
1100
0000
0010
0000
0001
0000
0010
0001
0000
0010
0100
1000
0100
0010
0001
0000
,  // measure 60
0101
0000
0010
0000
1000
0000
0010
1000
0000
0010
0100
0001
0100
0010
1000
0000
,  // measure 61
0011
0000
1000
0000
0010
0000
0001
0010
1000
0100
0001
0100
1000
0010
0001
0000
,  // measure 62
1010
0000
0001
0000
0010
0000
1000
0010
0001
0100
1000
0100
0001
0010
1000
0000
,  // measure 63
1100
0000
0001
0000
0100
0000
1000
0100
0010
0001
0100
0010
1000
0010
0100
0000
,  // measure 64
0101
0000
1000
0000
0100
0000
0001
0100
0010
1000
0100
0010
0001
0010
0100
0000
,  // measure 65
2002
0000
0000
0000
,  // measure 66
0000
0000
0000
0000
,  // measure 67
3003
0000
0000
0000
;

//---------------dance-double - ----------------
#NOTEDATA:;
#CHARTNAME:;
#STEPSTYPE:dance-double;
#DESCRIPTION:;
#CHARTSTYLE:;
#DIFFICULTY:Easy;
#METER:6;
#RADARVALUES:0.254029,0.296501,0.056323,0.144831,0.000000,221.000000,214.000000,7.000000,18.000000,0.000000,0.000000,0.000000,0.000000,0.000000,0.254029,0.296501,0.056323,0.144831,0.000000,221.000000,214.000000,7.000000,18.000000,0.000000,0.000000,0.000000,0.000000,0.000000;
#CREDIT:led_light;
#NOTES:
00000000
00000000
00000000
00000000
,
00000000
00000000
00000000
00000000
,
00000000
00000000
00000000
00000000
,
00000000
00000000
00000000
00000000
,
00000000
00000000
00000000
00000000
,
00000010
00000010
00000100
00000100
,
00000001
00000001
00001000
00001000
,
00010000
00010000
01000000
01000000
,
20000000
00000000
00000000
00000000
00100000
00100000
30100000
00000000
,
00020000
00000000
00000000
01030000
,
00200000
00000000
00000000
00301000
,
00000200
00000000
00000000
00010300
,
00002000
00000000
00000000
00003010
,
00000001
00000001
00001000
00001000
,
00000010
00000010
00000100
00000100
,
00010000
00010000
01000000
01000000
,
00200000
00000000
00300000
01000000
,
10010000
01000000
00010000
01000000
,
10000000
00100000
10000000
01000000
,
00010000
00100000
00001000
00100000
,
10000000
01000000
00010000
00011000
,
00001000
00000010
00000001
00000100
,
00001000
00000010
00000100
00001000
,
00000001
00001000
00000001
00001000
,
00000020
00000000
00000100
00000130
,
00001001
00000100
00000100
00000100
,
00000001
00000010
00000001
00001000
,
00000100
00010000
00001000
00100000
,
00020000
10000000
00000000
01030000
,
01000000
00010000
10000000
01000000
,
00100000
00001000
00100000
00010000
,
00001000
00000100
00001000
00000001
,
00000010
00000100
00000100
00000100
,
00000002
00000000
00000000
00000103
,
00002000
00000000
00000000
00003010
,
00020000
00000000
00000000
01030000
,
20000000
00000000
00000000
30100000
,
10000000
00010000
00100000
00001000
,
01000000
00010000
00010000
00000010
,
00001000
00000100
00000001
00000100
,
00000010
00000000
00000000
00000100
,
00001001
00000010
00000100
00000010
,
00001000
00000100
00000001
00000100
,
00010000
00010000
01000000
01000000
,
00100000
00000000
01000000
01000000
,
10000000
10000000
00100000
01000000
,
00010000
00001000
00100000
00000000
,
00010000
01000000
10000000
00100000
,
00020000
00000000
00030000
00010000
,
10010000
00001000
01000000
00010000
,
20000000
01000000
00000000
31000000
,
00100000
00010000
00001000
00000010
,
00000100
00000100
00000001
00001000
,
00000001
00000100
00000001
00000010
,
00001000
00010000
10000000
00010000
,
00100000
10000000
01000000
00010000
,
00200000
00000000
00000000
00000000
01000000
01000000
01300000
00000000
,
10010000
00010000
10000000
00010000
,
10000000
00100000
00010000
00100000
,
10000000
01000000
10000000
01000000
,
00010000
00001000
00010000
00001000
,
00000100
00000001
00000010
00000001
,
00000010
00001000
00000100
00001000
,
00000100
00000001
00000100
00010000
,
02000000
00000000
00000000
00000000
00100000
00100000
03100000
00000000
,
20020000
00000000
00000000
00000000
,
00000000
00000000
00000000
00000000
,
30030000
00000000
00000000
00000000
;

//---------------dance-double - ----------------
#NOTEDATA:;
#CHARTNAME:;
#STEPSTYPE:dance-double;
#DESCRIPTION:;
#CHARTSTYLE:;
#DIFFICULTY:Medium;
#METER:9;
#RADARVALUES:0.336789,0.404319,0.104600,0.120692,0.000000,293.000000,280.000000,13.000000,15.000000,0.000000,0.000000,0.000000,0.000000,0.000000,0.336789,0.404319,0.104600,0.120692,0.000000,293.000000,280.000000,13.000000,15.000000,0.000000,0.000000,0.000000,0.000000,0.000000;
#CREDIT:led_light;
#NOTES:
00000000
00000000
00000000
00000000
,
00000000
00000000
00000000
00000000
,
00000000
00000000
00000000
00000000
,
00000000
00000000
00000000
00000000
,
00000000
00000000
00000000
00000000
,
00100000
00100000
00001000
00010000
,
00000010
00000010
00010000
00001000
,
01000000
10000000
10000000
00100000
,
00010000
00010000
00001000
00001000
00010000
00010000
00011000
00000000
,
00000001
00000000
00000000
00000001
00000000
00000000
00000001
00000000
,
00001000
00000000
00000000
00001000
00000000
00000000
00001000
00000000
,
00010000
00000000
00000000
00010000
00000000
00000000
00010000
00000000
,
10000000
00000000
00000000
10000000
00000000
00000000
10000000
00000000
,
20000000
01000000
00000000
31000000
,
00020000
01000000
00000000
01030000
,
00002000
00003010
00000002
00000103
,
00001002
00000000
00000000
00000000
00000100
00000100
00000103
00000000
,
00001001
00000000
00001000
00000000
00010000
00000010
00010000
00000000
,
00000100
00000000
00000010
00000000
00000001
00000100
00000001
00000000
,
00001000
00000100
00000001
00000000
00000001
00000100
00001000
00000000
,
00000010
00001000
00010000
01000000
10000000
00000000
00100000
00000000
,
10010000
00000000
00010000
00000000
00001000
00100000
00001000
00000000
,
01000000
00000000
00100000
00000000
10000000
01000000
10000000
00000000
,
00010000
01000000
10000000
00000000
10000000
01000000
00010000
00000000
,
00100000
00010000
00001000
00000100
00000001
00000000
00000110
00000000
,
00000001
00000100
00001000
00000100
,
00000001
00000010
00001000
00000010
,
00000001
00001000
00010000
00001000
,
00000010
00000000
00010000
00000000
00100000
00000000
01000000
01000000
,
01000000
00010000
10000000
00010000
,
00100000
01000000
00100000
00010000
,
10000000
00010000
00100000
00100000
,
01000000
01000000
01000000
00000000
00100000
00100000
00100000
00000000
,
10000000
00000000
00000000
10000000
00000000
00000000
10000000
00000000
,
00010000
00000000
00000000
00010000
00000000
00000000
00010000
00000000
,
00001000
00000000
00000000
00001000
00000000
00000000
00001000
00000000
,
00000010
00000000
00000000
00000010
00000000
00000000
00000010
00000000
,
00000002
00000010
00001000
00000103
,
00002000
00000010
00010000
00103000
,
00020000
01030000
20000000
30100000
,
20020000
00000000
30030000
01100000
,
10010000
00000000
00100000
10000000
00010000
10000000
00100000
00000000
,
00010000
00000000
00001000
00100000
00010000
00100000
00001000
00000000
,
01000000
00010000
01000000
00000000
00100000
00010000
00100000
00000000
,
00000010
00001000
00000010
00000000
00000100
00001000
00000100
00000100
,
00000100
00000000
00000001
00000000
00001000
00000100
00000001
00000000
,
00001000
00000000
00000100
00000000
00000001
00000010
00001000
00000000
,
00010000
00000000
00001000
00000000
00000100
00000000
00000010
00000010
,
00000020
00000000
00000000
00000130
,
00001001
00000000
00000100
00000000
00000010
00000001
00000100
00000000
,
00001000
00000000
00000100
00000000
00000010
00010000
00001000
00000000
,
00010000
01000000
10000000
00000000
10000000
00100000
00010000
00000000
,
00001000
00010000
00001000
00000000
00000100
00000010
00000001
00000001
,
00000001
00000000
00000100
00000000
00000010
00001000
00000001
00000000
,
00000100
00000000
00010000
00010000
00010000
00000000
01000000
00000000
,
00100000
00000000
10000000
00010000
01000000
00010000
10000000
00000000
,
02000000
00000000
00000000
00000000
00100000
00100000
03100000
00000000
,
10010000
00000000
00010000
00000000
00001000
01000000
00001000
00000000
,
00100000
00000000
01000000
00000000
10000000
00100000
10000000
00000000
,
00010000
00100000
10000000
00000000
10000000
00100000
00010000
00000000
,
01000000
00010000
00001000
00000010
00000001
00000000
00000100
00000000
,
00001001
00000000
00001000
00000000
00010000
00000100
00010000
00000000
,
00000010
00000000
00000100
00000000
00000001
00000010
00000001
00000000
,
00001000
00000010
00000001
00000000
00000001
00000010
00001000
00000000
,
00000100
00001000
00010000
00100000
10000000
00000000
01100000
00000000
,
20020000
00000000
00000000
00000000
,
00000000
00000000
00000000
00000000
,
30030000
00000000
00000000
00000000
;

//---------------dance-double - ----------------
#NOTEDATA:;
#CHARTNAME:;
#STEPSTYPE:dance-double;
#DESCRIPTION:;
#CHARTSTYLE:;
#DIFFICULTY:Hard;
#METER:12;
#RADARVALUES:0.479321,0.539092,0.136785,0.032185,0.140808,417.000000,400.000000,17.000000,4.000000,0.000000,0.000000,0.000000,0.000000,0.000000,0.479321,0.539092,0.136785,0.032185,0.140808,417.000000,400.000000,17.000000,4.000000,0.000000,0.000000,0.000000,0.000000,0.000000;
#CREDIT:led_light;
#NOTES:
00000000
00000000
00000000
00000000
,
00000000
00000000
00000000
00000000
,
00000000
00000000
00000000
00000000
,
00000000
00000000
00000000
00000000
,
00000000
00000000
00000000
00000000
,
00000001
00000000
00001000
00000000
00000001
00000100
00001000
00000000
,
00010000
00000000
10000000
00000000
00010000
00100000
10000000
00000000
,
00010000
00000000
01000000
00000000
10000000
00100000
00010000
00000000
,
00001000
00000100
00000001
00000010
00001000
00000001
00001001
00000000
,
00000010
00000000
00000000
00000010
00000000
00000000
00000010
00000000
00000000
00000010
00000000
00000000
00000010
00000000
00000000
00000000
,
00000100
00000000
00000000
00000100
00000000
00000000
00000100
00000000
00000000
00000100
00000000
00000000
00000100
00000000
00000000
00000000
,
00010000
00000000
00000000
00010000
00000000
00000000
00010000
00000000
00000000
00010000
00000000
00000000
00010000
00000000
00000000
00000000
,
00100000
00000000
00000000
00100000
00000000
00000000
00100000
00000000
00000000
00100000
00000000
00000000
00100000
00000000
00000000
00000000
,
10000000
00000000
00000000
10000000
00000000
00000000
01000000
00000000
00000000
01000000
00000000
00000000
00100000
00000000
00000000
00000000
,
00010000
00000000
00000000
00010000
00000000
00000000
01000000
00000000
00000000
01000000
00000000
00000000
00100000
00000000
00000000
00000000
,
00010000
00000000
00000000
00010000
00000000
00000000
00001000
00000000
00000000
00001000
00000000
00000000
00000010
00000000
00000000
00000000
,
00000002
00000000
00000000
00000010
00000000
00000000
00001000
00000000
00000000
00000100
00000003
00000000
00000110
00000000
00000000
00000000
,
00001001
00000001
00000100
00000001
00001000
00000001
00000100
00001000
,
00010000
00001000
00100000
00001000
00010000
00001000
00100000
00010000
,
01000000
00010000
00100000
00010000
10000000
00010000
01000000
00100000
,
10000000
01000000
00100000
01000000
10000000
00010000
00100000
00010000
,
01000000
10000000
01000000
00010000
00100000
00001000
01000000
01000000
,
01000000
00010000
00100000
00001000
00000100
00000001
00000010
00000010
,
00000010
00000001
00001000
00000100
00000010
00000001
00000100
00001000
,
00000010
00000000
00001000
00000000
00000100
00000000
00000001
00001000
00000001
00001000
00000001
00000000
00001000
00000000
00000100
00000000
,
00010100
00001000
01000000
00000000
00010000
00001000
01000000
00000000
,
10000000
01000000
00010000
00100000
01000000
10000000
00010000
00000000
,
10000000
00100000
00010000
00100000
10000000
01000000
00010000
01000000
,
00001000
00010000
00000010
00001000
00000001
00000100
00001000
00001000
,
00011000
00010000
00000100
00000000
00001000
00010000
00000100
00000000
,
00000001
00000100
00001000
00000010
00000100
00000001
00001000
00000000
,
00000001
00000010
00001000
00000010
00000001
00000100
00001000
00000100
,
00010000
00001000
00100000
00010000
10000000
01000000
00010000
00010000
,
00100000
00000000
00000000
00100000
00000000
00000000
10000000
00000000
00000000
10000000
00000000
00000000
01000000
00000000
00000000
00000000
,
00100000
00000000
00000000
00100000
00000000
00000000
00010000
00000000
00000000
00010000
00000000
00000000
01000000
00000000
00000000
00000000
,
00000010
00000000
00000000
00000010
00000000
00000000
00001000
00000000
00000000
00001000
00000000
00000000
00000100
00000000
00000000
00000000
,
00000010
00000000
00000000
00000010
00000000
00000000
00000001
00000000
00000000
00000001
00000000
00000000
00000100
00000000
00000000
00000000
,
00000001
00000000
00000000
00000100
00000000
00000000
00000010
00000000
00000000
00001000
00000000
00000000
00010000
00000000
00000000
00000000
,
10000000
00000000
00000000
01000000
00000000
00000000
00100000
00000000
00000000
00010000
00000000
00000000
00001000
00000000
00000000
00000000
,
00000010
00000000
00000000
00000100
00000000
00000000
00000010
00000000
00000000
00001000
00000000
00000000
00010000
00000000
00001000
00000000
,
00011000
00000000
00010000
00100000
,
10010000
00000000
00100000
00000000
00010000
10000000
01000000
00000000
,
00010000
00000000
00100000
00000000
10000000
01000000
00010000
00000000
,
00001000
00000100
00000001
00001000
00000100
00000001
00001000
00000000
,
00000010
00000001
00000100
00001000
00010000
00001000
00000010
00000010
,
00000010
00000100
00000001
00000100
00001000
00000010
00000001
00000010
,
00001000
00010000
01000000
00100000
10000000
00100000
01000000
00000000
,
00010000
00100000
10000000
01000000
10000000
00100000
00010000
00001000
,
00000100
00000000
00000001
00000000
00001000
00000000
00000001
00001000
00000001
00000000
00001000
00000000
00001001
00000000
00000000
00000000
,
00001001
00000000
00001000
00000010
00000100
00000010
00001000
00000000
,
00000001
00000010
00000100
00000010
00000001
00001000
00010100
00000000
,
01001000
00000000
00010000
00100000
01000000
00100000
00010000
00000000
,
10000000
00100000
01000000
00100000
10000000
00010000
01001000
00000000
,
00010100
00001000
00000010
00000001
00000100
00001000
00010000
00000000
,
01001000
00010000
00100000
10000000
01000000
00010000
00001000
00000000
,
00000010
00000001
00000100
00001000
00010000
01000000
10000000
00100000
,
02100000
00000000
00000000
00000000
00100000
00100000
03100000
00000000
,
10010000
10000000
01000000
10000000
00010000
10000000
01000000
00010000
,
00001000
00010000
00000010
00010000
00001000
00010000
00000010
00001000
,
00000100
00001000
00000010
00001000
00000001
00001000
00000100
00000010
,
00000001
00000100
00000010
00000100
00000001
00001000
00000010
00001000
,
00000100
00000001
00000100
00001000
00000010
00010000
00000100
00000100
,
00000100
00001000
00000010
00010000
01000000
10000000
00100000
00100000
,
00100000
10000000
00010000
01000000
00100000
10000000
01000000
00010000
,
00100000
00000000
00010000
00000000
01000000
00000000
10000000
00010000
10000000
00010000
10000000
00000000
00010000
00000000
01000000
00000000
,
02002000
00000000
00000000
00000000
,
00000000
00000000
00000000
00000000
,
03003000
00000000
00000000
00000000
;

//---------------dance-double - ----------------
#NOTEDATA:;
#CHARTNAME:;
#STEPSTYPE:dance-double;
#DESCRIPTION:;
#CHARTSTYLE:;
#DIFFICULTY:Challenge;
#METER:15;
#RADARVALUES:0.714958,0.781684,0.394261,0.032185,0.748292,622.000000,573.000000,49.000000,4.000000,0.000000,0.000000,0.000000,0.000000,0.000000,0.714958,0.781684,0.394261,0.032185,0.748292,622.000000,573.000000,49.000000,4.000000,0.000000,0.000000,0.000000,0.000000,0.000000;
#CREDIT:led_light;
#NOTES:
00000000
00000000
00000000
00000000
,
00000000
00000000
00000000
00000000
,
00000000
00000000
00000000
00000000
,
00000000
00000000
00000000
00000000
,
00000000
00000000
00000000
00000000
,
00000010
00000000
00000001
00000000
00001000
00000000
00000001
00000100
00000000
00000010
00000100
00001000
00010000
00001000
00010000
00000000
,
00100000
00000000
10000000
00000000
00010000
00000000
10000000
01000000
00000000
00100000
01000000
00010000
00001000
00010000
00001000
00000000
,
00000100
00000000
00000001
00000000
00000010
00000000
00000100
00001000
00000000
00001000
00000010
00000100
00000001
00000010
00000100
00000000
,
00001000
00000000
00000001
00000000
00000100
00000000
00001000
00010000
00000000
00001000
00010000
00001000
00011000
00000000
00000000
00000000
,
00101000
00000000
00000000
00010000
00000000
00000000
00001000
00000000
00000000
00000100
00000000
00000000
00000001
00000000
00000000
00000000
,
00010010
00000000
00000000
00001000
00000000
00000000
00010000
00000000
00000000
01000000
00000000
00000000
10000000
00000000
00000000
00000000
,
01100000
00000000
00000000
10000000
00000000
00000000
00010000
00000000
00000000
00001000
00000000
00000000
00000001
00000000
00000000
00000000
,
00000110
00000000
00000000
00000001
00000000
00000000
00001000
00000000
00000000
00010000
00000000
00000000
10000000
00000000
00000000
00000000
,
00110000
00000000
10000000
01000000
00000000
01000000
00010000
00000000
00010000
00001000
00000000
00001000
00000010
00000000
00000001
00000000
,
00001010
00000000
00000001
00000100
00000000
00000100
00001000
00000000
00001000
00010000
00000000
00010000
00100000
00000000
10000000
00000000
,
10100000
00000000
10000000
01000000
00000000
00010000
01000000
00000000
10000000
00100000
00000000
00010000
00100000
00000000
10000000
00000000
,
01000000
00000000
00100000
00001000
00000000
01000000
00010000
00000000
00100000
00001000
00010000
00000000
00011000
00000000
00000000
00000000
,
00001001
00000000
00000001
00000000
00000100
00000000
00001000
00000100
00000000
00000001
00000010
00000001
00001000
00000010
00001000
00000000
,
00010100
00000000
00001000
00000000
00010000
00000000
01000000
10000000
00000000
10000000
00100000
10000000
00010000
00100000
00010000
00000000
,
10100000
00000000
10000000
00000000
01000000
00000000
01000000
10000000
00000000
00100000
01000000
00010000
00100000
01000000
10000000
00000000
,
10010000
00000000
01000000
00000000
00010000
00000000
00001000
00000010
00000000
00000010
00000100
00001000
00000010
00000100
00000001
00000000
,
00000011
00000000
00000100
00000000
00001000
00000000
00000010
00000001
00000100
00000001
00000010
00001000
00010000
01000000
10000000
00000000
,
01010000
00000000
10000000
00000000
01000000
00000000
00010000
01000000
10000000
00100000
00010000
00100000
10000000
01000000
00010000
00000000
,
00011000
00000000
00001000
00000000
00000010
00000000
00000001
00000010
00000100
00001000
00000010
00000100
00000001
00000100
00000001
00000000
,
00001001
00000000
00000010
00000000
00001000
00000000
00000010
00000001
00000100
00001000
00010000
00100000
10000000
01000000
00100000
00000000
,
01000000
10000000
00010000
10000000
01000000
10000000
00010000
01000000
,
00100000
00010000
10000000
00010000
01000000
00010000
10000000
00010000
,
01000000
00100000
10000000
00010000
01000000
00001000
00100000
00010000
,
10000000
00000000
00100000
00000000
00010000
00000000
00001000
00000000
00000100
00000000
00000001
00000000
00001000
00001000
00001000
00001000
,
00001000
00000001
00000010
00000001
00001000
00000001
00000010
00000001
,
00000100
00001000
00000001
00001000
00000010
00001000
00000001
00001000
,
00000010
00000100
00000001
00001000
00000010
00000100
00001000
00010000
,
00100000
00000000
01000000
00000000
00010000
00000000
10000000
00100000
10000000
00100000
10000000
00000000
00010000
01000000
00010000
01000000
,
00100000
00000000
00000000
10000000
00000000
00000000
01000000
00000000
00000000
00010000
00000000
00000000
00001000
00000000
00000000
00000000
,
00000010
00000000
00000000
00000001
00000000
00000000
00000100
00000000
00000000
00001000
00000000
00000000
00010000
00000000
00000000
00000000
,
00010000
00000000
00000000
01000000
00000000
00000000
10000000
00000000
00000000
00100000
00000000
00000000
00010000
00000000
00000000
00000000
,
00001000
00000000
00000000
00000100
00000000
00000000
00000001
00000000
00000000
00000010
00000000
00000000
00001000
00000000
00000000
00000000
,
00000010
00000000
00000010
00000001
00000000
00000001
00001000
00000000
00001000
00010000
00000000
00010000
01000000
00000000
10000000
00000000
,
00100000
00000000
00100000
10000000
00000000
10000000
00010000
00000000
00010000
00001000
00000000
00001000
00000100
00000000
00000001
00000000
,
00000010
00000000
00001000
00000010
00000000
00000001
00000010
00000000
00001000
00010000
00000000
00010000
00001000
00000000
00010000
00000000
,
00210000
00000000
00000000
00000000
00000000
00000000
00000000
00000000
00301000
00010000
01000000
00000000
01100000
00000000
00000000
00000000
,
10010000
00000000
00010000
01000000
00000000
00010000
01000000
00000000
10000000
00100000
10000000
00000000
00110000
00000000
00010000
00000000
,
00101000
00000000
00010000
00001000
00000000
01000000
00010000
00000000
00100000
00001000
00010000
00000000
00011000
00000000
00001000
00000000
,
00010100
00000000
00001000
00000010
00000000
00001000
00000010
00000000
00000001
00000100
00000001
00000000
00000011
00000000
00000100
00000000
,
00001100
00000000
00000001
00000100
00000000
00001000
00000010
00000000
00001000
00000001
00000100
00000000
00000110
00000000
00000100
00000000
,
00001001
00000000
00000010
00000100
00000010
00000100
00000010
00000000
00010000
00001000
00010000
00001000
00010000
00000000
01000000
00000000
,
10010000
00000000
00100000
01000000
00100000
01000000
00100000
00000000
00010000
00001000
00010000
00001000
00010000
00000000
00000100
00000000
,
00000101
00000000
00000001
00000100
00001000
00000100
00000001
00000000
00001000
00000010
00000001
00000010
00001000
00000000
00010000
00000000
,
00100000
10000000
00100000
10000000
00010000
01000000
00010000
01000000
00001000
00010000
00001000
00010000
00011000
00000000
00000000
00000000
,
00011000
00000000
00001000
00100000
00000000
00010000
01000000
00000000
00001000
00100000
00000000
00010000
01000000
00000000
00001000
00000000
,
00010010
00000000
00001000
00000100
00000000
00010000
00000010
00000000
00001000
00000100
00000000
00010000
00011000
00000000
00001000
00000000
,
00000110
00000000
00000001
00001000
00000000
00000100
00000010
00000000
00000001
00001000
00000000
00000100
00000010
00000000
00000001
00000000
,
00000100
00000000
00001000
00010000
00000000
00001000
00000100
00000000
00001000
00010000
00000000
00100000
10100000
00000000
10000000
00000000
,
11000000
00000000
00010000
10000000
00000000
01000000
00100000
00000000
00010000
10000000
00000000
01000000
00100000
00000000
00010000
00000000
,
01000000
00000000
10000000
01000000
00000000
00010000
00100000
00000000
10000000
01000000
00000000
00010000
00100000
00000000
00010000
00000000
,
01000000
00000000
00100000
10000000
00000000
00100000
10000000
00000000
00010000
00000000
01000000
00000000
01010000
00000000
00000000
00000000
,
00201000
00000000
00000000
00000000
00000000
00000000
00000000
00000000
00301000
00010000
01000000
00000000
01100000
00000000
00000000
00000000
,
10010000
00000000
10000000
00000000
01000000
00000000
00010000
01000000
00000000
10000000
00100000
10000000
00010000
00100000
00010000
00000000
,
01001000
00000000
00010000
00000000
00001000
00000000
00000100
00000001
00000000
00000001
00000010
00000001
00001000
00000010
00001000
00000000
,
00000011
00000000
00000001
00000000
00000100
00000000
00000100
00000001
00000000
00000010
00000100
00001000
00000010
00000100
00000001
00000000
,
00001001
00000000
00000100
00000000
00001000
00000000
00010000
00100000
00000000
00100000
01000000
00010000
00100000
01000000
10000000
00000000
,
10100000
00000000
01000000
00000000
00010000
00000000
00100000
10000000
01000000
10000000
00100000
00010000
00001000
00000100
00000001
00000000
,
00001100
00000000
00000001
00000000
00000100
00000000
00001000
00000100
00000001
00000010
00001000
00000010
00000001
00000100
00001000
00000000
,
00011000
00000000
00010000
00000000
00100000
00000000
10000000
00100000
01000000
00010000
00100000
01000000
10000000
01000000
10000000
00000000
,
10010000
00000000
00100000
00000000
00010000
00000000
00100000
10000000
01000000
00010000
00001000
00000010
00000001
00000100
00000010
00000000
,
00002002
00000000
00000000
00000000
,
00000000
00000000
00000000
00000000
,
00003003
00000000
00000000
00000000
;
