#VERSION:0.83;
#TITLE:At The Time of Christmas Carol;
#SUBTITLE:;
#ARTIST:Michael Fortunati;
#TITLETRANSLIT:;
#SUBTITLETRANSLIT:;
#ARTISTTRANSLIT:;
#GENRE:World Music;
#ORIGIN:;
#CREDIT:;
#BANNER:At The Time of Christmas Carol.png;
#BACKGROUND:At The Time of Christmas Carol-bg.png;
#PREVIEWVID:;
#JACKET:At The Time of Christmas Carol-jacket.png;
#CDIMAGE:;
#DISCIMAGE:;
#LYRICSPATH:;
#CDTITLE:../cdtitle.png;
#MUSIC:At The Time of Christmas Carol.ogg;
#OFFSET:1.935000;
#SAMPLESTART:82.191002;
#SAMPLELENGTH:15.000000;
#SELECTABLE:YES;
#BPMS:0.000=124.040,
79.000=123.900;
#STOPS:;
#DELAYS:;
#WARPS:;
#TIMESIGNATURES:0.000=4=4;
#TICKCOUNTS:0.000=4;
#COMBOS:0.000=1;
#SPEEDS:0.000=1.000=0.000=0;
#SCROLLS:0.000=1.000;
#FAKES:;
#LABELS:0.000=Song Start;
#BGCHANGES:-99.000=../bg.avi=1.000=0=0=1=====,
99999=-nosongbg-=1.000=0=0=0 // don't automatically add -songbackground-
;
#KEYSOUNDS:;
#ATTACKS:
;

//---------------dance-single - ----------------
#NOTEDATA:;
#CHARTNAME:;
#STEPSTYPE:dance-single;
#DESCRIPTION:;
#CHARTSTYLE:;
#DIFFICULTY:Hard;
#METER:11;
#RADARVALUES:0.438109,0.464865,0.076098,0.410931,0.102733,403.000000,393.000000,10.000000,54.000000,0.000000,0.000000,0.000000,0.000000,0.000000,0.438109,0.464865,0.076098,0.410931,0.102733,403.000000,393.000000,10.000000,54.000000,0.000000,0.000000,0.000000,0.000000,0.000000;
#CREDIT:led_light;
#NOTES:
// measure 0
0000
0000
0000
0000
,  // measure 1
0000
0000
0000
0000
,  // measure 2
0000
0000
0000
0000
,  // measure 3
0000
0000
0000
0000
,  // measure 4
0000
0000
0000
0000
,  // measure 5
0200
0000
0000
0010
0000
0000
0320
0000
0000
0000
0130
0000
1000
0000
0001
0000
,  // measure 6
1000
0010
0000
0000
0010
0000
0000
0010
0000
0000
0100
0000
0001
0000
1000
0000
,  // measure 7
0020
0000
0000
0130
0000
0000
0002
0000
0000
0000
0103
0000
0001
0000
0010
0000
,  // measure 8
0200
0001
0010
1300
,  // measure 9
1001
1000
0010
0000
0100
0001
0010
0100
,  // measure 10
2000
0000
3001
0000
1000
0010
0100
0010
,  // measure 11
2000
0000
3100
0000
0010
1000
0010
0001
,  // measure 12
2000
0000
0010
0000
3001
0000
0100
0001
,  // measure 13
1000
1000
0010
0100
0001
0010
0100
0010
,  // measure 14
0002
0000
0100
0000
1003
0000
0001
0100
,  // measure 15
0001
0010
0001
0100
0010
1000
0100
0010
,  // measure 16
0200
0000
0000
0001
0000
0000
0010
0000
0000
0000
0310
0000
0100
0000
1000
0000
,  // measure 17
0001
0010
0000
0000
0010
0000
0000
0010
0000
0000
0010
0000
0100
0000
1000
0000
,  // measure 18
0020
0000
0000
0100
0000
0000
0230
0000
0000
0000
0310
0000
1000
0000
0100
0000
,  // measure 19
0020
0000
0000
0000
0000
0000
0000
0000
0000
0000
0030
0010
0100
0000
1000
0001
,  // measure 20
2000
0000
0100
0000
3001
0100
0010
1000
,  // measure 21
0002
0000
0103
0000
0001
0010
0100
0100
,  // measure 22
2000
0000
3002
0000
1003
0100
0010
0001
,  // measure 23
0002
0000
1003
0000
0001
1000
0010
0100
,  // measure 24
0020
0000
0001
0000
1030
0001
1000
0200
,  // measure 25
0001
0000
1300
0000
1000
0000
0001
2000
,  // measure 26
0010
0000
0010
0000
3001
0000
0100
0001
,  // measure 27
0010
0110
1000
1001
,  // measure 28
0002
0000
0010
0000
1003
0010
0100
0001
,  // measure 29
2000
0000
3010
0000
1000
0100
0010
0010
,  // measure 30
0002
0000
2003
0000
3001
0010
0100
1000
,  // measure 31
2000
0000
3001
0000
1000
0001
0100
0010
,  // measure 32
0200
0000
0000
0000
1000
0000
0000
0000
0301
0000
1000
0000
0000
0001
0000
0000
,  // measure 33
0020
0000
1000
0000
0031
0000
1000
0002
,  // measure 34
0100
0000
0100
0000
1003
1000
0100
0010
,  // measure 35
0100
1000
0010
0010
0100
0001
0010
0100
,  // measure 36
0020
0000
0130
1000
0001
1000
0010
0100
,  // measure 37
0001
1000
0001
0000
1000
0100
0001
0100
,  // measure 38
2000
0100
0001
0100
,  // measure 39
3001
0000
0010
0000
0100
1000
0010
0100
,  // measure 40
0020
0000
0130
0001
1000
0001
0010
0100
,  // measure 41
1000
0001
1000
0000
0001
0100
1000
0100
,  // measure 42
0002
1000
0000
0100
0000
1000
0000
0103
,  // measure 43
0000
0000
0010
0000
0110
0000
0000
0000
2000
0000
0000
3100
0010
0000
0001
0000
,  // measure 44
1001
1000
0010
0100
0001
0010
0100
1000
,  // measure 45
2000
0000
3001
0000
0001
0100
0010
0100
,  // measure 46
0002
1003
0002
0013
0100
0010
0001
1000
,  // measure 47
0002
0000
0100
0000
1003
0000
0100
1000
,  // measure 48
0001
0001
0010
0100
1000
0010
0100
0010
,  // measure 49
2000
0000
0100
0000
3001
0000
1000
0100
,  // measure 50
1000
0010
1000
0100
0010
0001
0100
0010
,  // measure 51
2000
0000
0000
0000
0100
0000
0000
0000
3002
0000
0000
0103
0010
0000
1000
0000
,  // measure 52
1001
0001
0010
0001
1000
0010
0001
0010
,  // measure 53
0200
0010
0310
1000
0001
0010
0100
0010
,  // measure 54
0002
1003
0200
1300
0010
0001
0010
1000
,  // measure 55
0002
0000
0000
0000
0013
0000
0000
0010
0000
0000
0100
0000
1000
0000
0001
0000
,  // measure 56
1000
1000
0010
0100
0001
0010
0100
0010
,  // measure 57
0002
0000
0000
0000
0100
0000
0000
1003
0000
0000
0001
0000
1000
0000
0200
0000
,  // measure 58
0000
1300
0010
1000
0100
0010
0001
0100
,  // measure 59
0020
0000
0000
0100
0000
0000
0100
0000
0000
0000
0130
0000
0001
0000
1000
0000
,  // measure 60
0100
0001
0000
0000
0001
0000
0000
0001
0000
0000
0001
0000
0100
0000
1000
0000
,  // measure 61
0010
0000
0000
0010
0000
0000
0020
0000
0000
0000
0130
0000
0001
0000
1000
0000
,  // measure 62
0001
0010
0000
0000
0010
0000
0000
0010
0000
0000
0010
0000
0100
0000
1000
0000
,  // measure 63
1001
0000
0000
0010
0000
0000
2100
0000
0000
0000
3001
0000
2000
0000
0000
0000
,  // measure 64
3010
0100
0000
0000
0100
0000
0000
0100
0000
0000
0010
0000
1000
0000
0001
0000
,  // measure 65
1001
0000
0000
0010
0000
0000
0102
0000
0000
0000
1003
0000
0001
0000
0010
0000
,  // measure 66
0200
0000
0000
0000
0001
0000
0000
0000
0010
0000
0300
1000
0010
0000
0100
0010
,  // measure 67
0002
0000
0000
0000
0000
1000
1000
1003
;

//---------------dance-single - ----------------
#NOTEDATA:;
#CHARTNAME:;
#STEPSTYPE:dance-single;
#DESCRIPTION:;
#CHARTSTYLE:;
#DIFFICULTY:Medium;
#METER:7;
#RADARVALUES:0.303306,0.335736,0.076098,0.251124,0.007610,279.000000,269.000000,10.000000,33.000000,0.000000,0.000000,0.000000,0.000000,0.000000,0.303306,0.335736,0.076098,0.251124,0.007610,279.000000,269.000000,10.000000,33.000000,0.000000,0.000000,0.000000,0.000000,0.000000;
#CREDIT:led_light;
#NOTES:
0000
0000
0000
0000
,
0000
0000
0000
0000
,
0000
0000
0000
0000
,
0000
0000
0000
0000
,
0000
0000
0000
0000
,
0010
0000
0010
0000
0100
1000
0001
0000
,
1000
0100
0010
0000
0100
1000
0010
0000
,
0100
0000
0100
0000
0010
1000
0001
0000
,
0220
0300
1000
0031
,
1001
0000
0010
0000
0100
0010
0100
0000
,
0002
0003
1000
1000
,
0010
0000
0001
0000
0010
1000
0001
0000
,
0002
0003
0000
0001
,
0001
0000
1000
0000
0100
0001
0100
0000
,
2000
0000
3000
0001
,
1000
0100
1000
0000
0010
0001
0010
0000
,
2000
0100
0000
0100
,
3001
0100
0010
0000
1000
0100
0010
0000
,
0002
0100
0000
0103
,
0220
0000
0000
0330
,
1000
0000
1000
0000
0001
0000
0010
0100
,
1000
0000
0001
0000
0000
0000
0001
0100
,
0010
0000
1000
0000
0100
0000
0001
0100
,
2000
0000
3001
0000
0000
0000
0001
1000
,
0001
0000
0100
0000
1000
0000
1000
0100
,
0001
0000
0001
0000
1000
0000
0001
0010
,
1000
0000
1000
0000
0010
0000
0001
1000
,
0001
0101
1000
1100
,
0001
0000
0001
0000
1000
0000
0010
0100
,
0001
0000
1000
0000
0000
0000
1000
0100
,
0010
0000
0001
0000
0100
0000
1000
0100
,
0002
0000
1003
0000
0000
0000
1000
0001
,
1000
0000
0100
0000
0001
0000
0001
0100
,
1000
0000
1000
0000
0001
0000
1000
0010
,
0001
0000
0001
0000
1000
0100
0000
0100
,
0000
0001
0000
0010
0100
1000
0001
0000
,
0110
0000
0001
2000
0000
3010
0000
0002
,
0000
0103
0000
0000
2000
0000
3001
1000
,
0002
0100
1000
0100
,
1003
0000
0001
0000
0010
0100
0010
0000
,
0110
0000
0001
2000
0000
3010
0000
0002
,
0000
0103
0000
0000
1000
0100
0000
0001
,
0200
1000
0000
0010
0000
1000
0000
0310
,
0000
0010
0100
0000
2000
0000
3001
0000
,
1001
0000
0010
0000
0100
0010
0100
0000
,
2000
3000
0001
0001
,
0010
0000
1000
0000
0010
0001
1000
0000
,
2000
3000
0000
1000
,
1000
0000
0001
0000
0100
1000
0100
0000
,
0002
0000
0003
1000
,
0001
0100
0001
0000
0010
1000
0010
0000
,
0002
0103
2000
3100
,
0110
0000
0001
0000
1000
0001
1000
0000
,
0020
0030
0100
0100
,
0001
0000
0010
0000
0001
0100
0010
0000
,
0020
0030
0000
0010
,
0010
0000
1000
0000
0100
0001
0100
0000
,
0020
0000
0030
0010
,
0100
0000
0010
0000
0001
1000
0010
0000
,
2000
0100
0000
0100
,
3001
0000
0001
0000
1000
0100
0010
0000
,
0002
0010
0000
0010
,
1003
0000
1000
0000
0001
0010
0100
0000
,
1000
0000
0000
1000
0000
0000
2000
0000
0000
0000
0000
0000
3001
0000
0000
0000
,
0100
0010
1000
0000
0001
0100
0001
0000
,
0010
0000
0000
0010
0000
0000
0020
0000
0000
0000
0000
0000
0130
0000
0000
0000
,
2001
0000
0100
0000
0001
0000
3010
0100
,
0020
0000
0000
0000
0000
1030
0001
1000
;

//---------------dance-single - ----------------
#NOTEDATA:;
#CHARTNAME:;
#STEPSTYPE:dance-single;
#DESCRIPTION:;
#CHARTSTYLE:;
#DIFFICULTY:Easy;
#METER:5;
#RADARVALUES:0.222859,0.257783,0.038049,0.319613,0.000000,205.000000,200.000000,5.000000,42.000000,0.000000,0.000000,0.000000,0.000000,0.000000,0.222859,0.257783,0.038049,0.319613,0.000000,205.000000,200.000000,5.000000,42.000000,0.000000,0.000000,0.000000,0.000000,0.000000;
#CREDIT:led_light;
#NOTES:
0000
0000
0000
0000
,
0000
0000
0000
0000
,
0000
0000
0000
0000
,
0000
0000
0000
0000
,
0000
0000
0000
0000
,
0010
0010
0100
0100
,
1000
0001
0010
0100
,
1000
1000
0001
0001
,
0220
0000
0000
0330
,
1001
0001
0010
0010
,
2000
3000
0001
0001
,
0100
1000
0010
0010
,
0002
0003
0000
0001
,
0010
1000
0001
0010
,
0200
0000
0300
0100
,
1000
0010
0001
0100
,
2000
0100
0000
0100
,
3001
0010
1000
0100
,
0002
0100
0000
0103
,
0220
0000
0000
0330
,
0002
0000
1000
1003
,
2000
3000
1000
0001
,
0002
0000
1003
0100
,
0002
0103
0000
0100
,
2000
0000
3010
0010
,
0002
0003
0100
0100
,
2000
3000
0001
1000
,
0010
0010
0100
0100
,
0002
0000
0013
0100
,
0200
0300
0100
1000
,
2000
0000
3001
0100
,
2000
3100
0000
0100
,
0002
0000
0013
0010
,
2000
3000
0100
0100
,
0001
0001
1000
0001
,
0100
0010
0100
0010
,
1000
0100
0001
0100
,
2000
3000
0010
0001
,
0020
0030
2000
3000
,
0010
1000
0100
0010
,
0001
0010
1000
0010
,
0002
0003
0100
1000
,
0200
0000
0000
0000
0000
0000
0000
0300
,
0000
0000
0002
1003
,
0110
1000
0010
0010
,
0002
0003
1000
1000
,
0100
0001
0010
0010
,
2000
3000
0000
1000
,
0010
0001
1000
0010
,
0200
0000
0300
0100
,
0001
0010
1000
0100
,
0002
0100
1000
0013
,
0110
0001
0010
0010
,
2000
3001
0100
0100
,
1000
0010
0001
0010
,
2000
0100
3001
1000
,
0010
0010
0001
0100
,
0200
1000
0310
0001
,
1000
0010
0100
0001
,
0002
0100
0000
0100
,
1003
0100
0001
0010
,
2000
0100
0000
0100
,
3001
0100
1000
0010
,
0002
0000
0000
2000
0000
0000
3003
0000
,
0001
0010
0100
0100
,
2000
0000
0000
0002
0000
0000
3003
0000
,
0020
0000
0000
0000
,
0030
0000
0000
0100
;

//---------------dance-single - ----------------
#NOTEDATA:;
#CHARTNAME:;
#STEPSTYPE:dance-single;
#DESCRIPTION:;
#CHARTSTYLE:;
#DIFFICULTY:Beginner;
#METER:2;
#RADARVALUES:0.092405,0.180448,0.030439,0.038049,0.000000,85.000000,81.000000,4.000000,5.000000,0.000000,0.000000,0.000000,0.000000,0.000000,0.092405,0.180448,0.030439,0.038049,0.000000,85.000000,81.000000,4.000000,5.000000,0.000000,0.000000,0.000000,0.000000,0.000000;
#CREDIT:led_light;
#NOTES:
0000
0000
0000
0000
,
0000
0000
0000
0000
,
0000
0000
0000
0000
,
0000
0000
0000
0000
,
0000
0000
0000
0000
,
0100
0000
0000
0000
,
0010
0000
0000
0000
,
0100
0000
0000
0000
,
1001
0000
0000
0000
,
1000
0000
0001
0000
,
1000
0000
0000
0000
,
0100
0000
0010
0000
,
0100
0000
0000
0000
,
0001
0000
0001
0000
,
1000
0000
0000
0000
,
0010
0000
0100
0000
,
0010
0000
0000
0000
,
0010
0000
0000
0000
,
1000
0000
0000
0000
,
1001
0000
0000
0000
,
0001
0000
0000
0000
,
1000
0000
0000
0000
,
1000
0000
0000
0000
,
0001
0000
0000
0000
,
0010
0000
0000
0000
,
0010
0000
0000
0000
,
0100
0000
0000
0000
,
1000
0000
1000
0000
,
1000
0000
0000
0000
,
0001
0000
0000
0000
,
0001
0000
0000
0000
,
1000
0000
0000
0000
,
0010
0000
0000
0000
,
0010
0000
0000
0000
,
0100
0000
0100
0000
,
0001
0000
0001
0000
,
1000
0000
0000
0000
,
1000
0000
0000
0000
,
0002
0000
0003
0000
,
0000
0000
0000
0000
,
0001
0000
0000
0000
,
0001
0000
0000
0000
,
2000
0000
0000
0000
0000
0000
0000
3000
,
0000
0000
0000
0000
,
0001
0000
1000
0000
,
0001
0000
0000
0000
,
0010
0000
0100
0000
,
0010
0000
0000
0000
,
1000
0000
1000
0000
,
0001
0000
0000
0000
,
0100
0000
0010
0000
,
0100
0000
0100
0000
,
1000
0000
0001
0000
,
1000
0000
1000
0000
,
0010
0000
0100
0000
,
0010
0000
0010
0000
,
0001
0000
0001
0000
,
1000
0000
0001
0000
,
0100
0000
0010
0000
,
0200
0000
0000
0000
,
0300
0000
0000
0000
,
2000
0000
0000
0000
,
3000
0000
0000
0000
,
1001
0000
0100
0000
,
0000
0010
0010
0000
,
0110
0000
0001
0000
,
2000
0000
0000
0000
,
3000
0000
0000
0001
;
