#TITLE:Another Night;
#SUBTITLE:;
#ARTIST:MYRNE feat. Nevve;
#TITLETRANSLIT:;
#SUBTITLETRANSLIT:;
#ARTISTTRANSLIT:;
#GENRE:Monstercat;
#CREDIT:;
#BANNER:Another Night.png;
#BACKGROUND:Another Night-bg.png;
#LYRICSPATH:;
#CDTITLE:../cdtitle.png;
#MUSIC:Another Night.ogg;
#OFFSET:2.666000;
#SAMPLESTART:53.333000;
#SAMPLELENGTH:15.000000;
#LASTBEATHINT:2.499000;
#SELECTABLE:YES;
#BPMS:0.000000=90.000000
;
#STOPS:
;
#BGCHANGES:-99.000=../bg.avi=1.000=0=0=1=====,
99999=-nosongbg-=1.000=0=0=0 // don't automatically add -songbackground-
;
#KEYSOUNDS:;
#ATTACKS:;

//---------------dance-single - ----------------
#NOTES:
     dance-single:
     :
     Challenge:
     14:
     0.604635,0.857435,0.583785,0.608110,0.839191,522.000000,450.000000,72.000000,75.000000,0.000000,0.000000,0.604635,0.857435,0.583785,0.608110,0.839191,522.000000,450.000000,72.000000,75.000000,0.000000,0.000000:
0000
0000
0000
0000
,
0000
0000
0000
0000
,
0000
0000
0000
0000
,
0000
0000
0000
0000
,
0000
0000
0000
0000
,
2000
0000
0000
0000
0000
0000
0000
0002
0000
0000
0000
0000
3000
0000
0000
0000
,
0200
0000
0000
0000
0003
0000
0300
0100
0010
1000
0002
0000
0200
0000
0300
0000
,
2003
0000
0000
0000
0100
0000
0000
0002
0000
0000
3000
0000
0010
0000
0000
0000
,
0200
0000
0003
0000
0010
0000
0300
0100
0001
1000
0200
0000
0020
0000
0030
0000
,
1300
0000
0001
0000
1000
0000
0001
0100
0001
0000
1000
0000
0001
0000
1000
0000
,
0100
0000
0010
0000
0100
0000
0010
0001
0100
0010
1000
0000
0100
0000
1000
0000
,
0001
0000
0010
0000
0001
0000
0010
0100
1000
0100
2000
0000
3001
0100
0002
0000
,
1003
0000
0010
0000
1000
0000
0010
1000
0100
0010
0001
0000
0200
0000
0301
0000
,
1000
0000
0100
0000
0002
0000
0103
0000
2000
0000
3010
0100
0002
0000
0013
0000
,
0001
0000
0100
0000
2000
0000
3100
0000
0002
0000
0013
0100
1000
0010
0100
0010
,
2000
0000
3001
0010
0002
0000
1003
0100
2000
0000
3000
0001
0100
0000
0010
0000
,
2000
0000
3100
0000
0020
0000
0130
1000
0001
0010
0200
0000
1300
0000
0001
0010
,
0001
0000
0010
0000
2000
0000
3010
0000
0002
0000
0103
0010
2000
0000
3100
0000
,
2000
0000
3010
0000
0002
0000
0013
0000
2000
0000
3100
0010
0002
0000
2003
0000
,
3020
0000
0031
0001
0020
0000
1030
0001
0010
1000
0010
0000
2100
0000
3001
0000
,
1000
0000
0010
0000
0010
0000
0001
0000
0010
0000
0010
0000
1000
0001
0100
0010
1000
0100
0010
0000
0000
0000
0000
0000
,
0012
0000
1003
1100
1001
0011
0201
0000
0310
1010
0011
1001
,
2100
0000
0000
0000
3010
0000
0110
0000
1001
0000
1100
0000
0102
0000
0000
0000
0013
0000
0100
0010
0100
0010
0100
1000
,
0002
0000
1003
1010
0110
0101
2001
0000
3100
0110
1100
0011
,
2001
0000
3010
0110
1010
0011
0210
0000
1300
0010
0011
1010
,
0102
0000
1003
1010
1001
0101
0021
0000
0130
1100
0101
1001
,
2010
0000
0000
0000
3100
0000
0110
0000
1001
0000
1010
0000
0012
0000
0000
0000
0103
0000
0010
0100
0010
0100
0010
1000
,
0002
0000
1003
1100
0110
0011
2001
0000
3010
0110
1010
0101
,
2001
0000
3100
1002
0000
0103
2010
0000
3100
0110
1000
0001
,
1000
0010
1000
0010
0100
0010
0100
0001
0100
0001
1000
0100
0010
0001
0010
0001
1000
0100
0001
0100
1000
0010
0100
0010
,
2000
0000
0000
0000
3001
0000
0110
0000
1001
0000
1010
0000
0102
0000
0000
0000
1003
0000
1100
0000
0010
0100
0010
0100
,
1000
0100
1000
0100
0010
0001
0100
0010
0100
0010
1000
0001
0010
0100
1000
0001
1000
0100
0010
0001
0100
0010
1000
0100
,
0020
0000
0031
0101
1100
0101
2010
0000
3100
0020
0230
2300
,
3001
0010
0001
0010
0100
0010
0100
1000
0100
1000
0001
0100
0010
1000
0010
1000
0001
0100
1000
0100
0001
0010
0100
0010
,
0002
0000
0000
0000
1003
0000
0110
0000
1001
0000
0011
0000
2100
0000
0000
0000
3001
0000
0101
0000
0010
0100
0010
0100
,
0001
0100
0001
0100
0010
1000
0100
0010
0100
0010
0001
1000
0010
0100
0001
1000
0001
0100
0010
1000
0100
0010
0001
0100
,
0020
0000
0000
0000
1030
0000
1100
0000
0101
0000
1100
0000
1000
0010
1000
0010
0100
0001
0010
0000
0000
0000
0000
0000
,
0200
0000
0000
0000
,
0000
0000
0000
0000
0000
0310
1001
0000
,
0110
0000
1000
0010
1000
0000
0100
0010
0000
0100
0010
0000
0001
1000
0000
0001
,
0100
0010
0100
0010
1000
0000
0001
0010
0000
0001
0010
0000
0100
1000
0100
1000
,
1001
0000
0001
0010
0001
0000
0100
0010
0000
0100
0010
0000
1000
0001
0000
1000
,
0100
0010
0100
0010
0001
0000
1000
0000
0010
0100
0020
0000
0030
0000
0000
0000
,
0200
0000
0000
0000
0010
0000
0000
0000
0301
1000
0100
0000
0200
0000
0310
0100
,
2000
0000
3000
0000
2000
0000
3001
0000
0100
0010
1000
0000
0002
0000
0103
0001
,
0020
0000
0030
0000
0200
0000
0310
0001
1000
0010
0100
0000
2000
0000
3100
0010
,
2000
0000
3000
0000
2000
0000
3000
0100
0010
0100
1000
0000
0002
0000
0000
0000
,
0003
0000
0000
0000
;

//---------------dance-single - ----------------
#NOTES:
     dance-single:
     :
     Hard:
     11:
     0.391507,0.476353,0.048649,0.486488,0.535137,338.000000,332.000000,6.000000,60.000000,0.000000,0.000000,0.391507,0.476353,0.048649,0.486488,0.535137,338.000000,332.000000,6.000000,60.000000,0.000000,0.000000:
0000
0000
0000
0000
,
0000
0000
0000
0000
,
0000
0000
0000
0000
,
0000
0000
0000
0000
,
0000
0000
0000
0000
,
2000
0000
0002
3000
,
0200
0000
0000
0000
0003
0000
0000
0000
0310
1000
0001
0000
2000
0000
0000
0000
,
0002
3000
0020
0003
,
0200
0000
0000
0000
0030
0000
0000
0000
0310
0001
0100
0000
0020
0000
0000
0000
,
1030
0100
1000
0100
1000
0010
1000
0010
,
0100
0001
0100
0001
0010
0100
0020
0030
,
0001
0010
0001
0010
1000
0010
0001
0010
,
0100
1000
0100
1000
0001
0100
0020
0030
,
1000
0100
0001
0100
2000
3000
0002
0003
,
1000
0010
0001
0010
2000
3000
0002
0003
,
0100
0000
0000
0010
1000
0000
0000
1000
0002
0000
0000
0000
0013
0000
0000
0000
,
0100
1000
0002
0003
0010
0001
2000
3000
,
0001
0100
1000
0100
0002
0003
2000
3000
,
0001
0010
1000
0010
0002
0003
2000
3000
,
0010
0000
0000
0100
0001
0000
0000
0010
0200
0000
0000
0000
1300
0000
0000
0000
,
0001
0010
1000
0001
0100
1000
0010
0010
0010
0110
0000
0000
,
2002
0000
3003
0001
0010
0100
2000
3000
1000
0010
0100
0001
,
0020
0030
0010
0100
1000
0100
0020
0030
0010
0001
0001
0001
,
0002
0003
0001
1000
0100
0010
0002
0003
0001
0100
0010
1000
,
0200
0000
1300
0020
0000
0031
0020
0000
1030
0100
0010
0100
,
2002
3003
1000
0010
0100
0001
0020
0030
0010
0100
1000
0001
,
2000
3000
1000
0010
1000
0001
0020
0030
0010
0100
0100
0100
,
0200
0300
0100
1000
0001
0010
0002
0003
0001
0100
0010
1000
,
0002
0000
0013
2000
0000
3010
0002
0000
1003
0001
0001
0001
,
1000
1000
0100
0001
0001
0100
1000
1000
0010
0001
0001
0010
,
2000
0000
3001
1000
0100
1000
0002
0000
0013
0100
1000
1000
,
0001
0001
0010
1000
1000
0010
0001
0001
0100
1000
1000
0100
,
0002
0000
1003
0001
0010
0001
2000
0000
3100
0020
0230
2300
,
3001
0001
0100
1000
1000
0100
0001
0001
0010
1000
1000
0010
,
0002
0000
1003
0001
0100
0001
2000
0000
3010
0100
0001
0001
,
1000
1000
0010
0001
0001
0010
1000
1000
0100
0001
0001
0100
,
2000
0000
3001
1000
0010
0100
0001
0010
0100
0010
0000
0000
,
0200
0000
0000
0000
,
0000
0000
0000
0000
0000
0310
1001
0000
,
0110
0000
0001
0100
0001
0000
1000
0100
0000
1000
0100
0000
0010
0001
0000
1000
,
0001
0100
0001
0000
0010
0000
0100
1000
0000
0100
1000
0000
0010
0100
0010
0000
,
1001
0000
0001
0010
0001
0000
1000
0100
0000
1000
0100
0000
1000
0010
0000
0100
,
0001
1000
0001
0000
0010
0000
0100
0000
1000
0001
2000
0000
3000
0000
0000
0000
,
0002
0000
0000
0000
0010
0000
0000
0000
0013
0001
0100
0000
0010
0000
1000
0000
,
0002
0000
0000
0000
0100
0000
0000
0000
0103
0001
0010
0000
0100
0000
1000
0000
,
0020
0000
0030
0000
0010
0000
0001
0000
0010
1000
0001
0000
0010
0000
0100
0000
,
2000
0000
3000
0000
2000
0000
3000
0000
0001
0010
0001
0000
0200
0000
0000
0000
,
0300
0000
0000
0000
;

//---------------dance-single - ----------------
#NOTES:
     dance-single:
     :
     Medium:
     8:
     0.268727,0.342974,0.048649,0.575677,0.202703,232.000000,226.000000,6.000000,71.000000,0.000000,0.000000,0.268727,0.342974,0.048649,0.575677,0.202703,232.000000,226.000000,6.000000,71.000000,0.000000,0.000000:
0000
0000
0000
0000
,
0000
0000
0000
0000
,
0000
0000
0000
0000
,
0000
0000
0000
0000
,
0000
0000
0000
0000
,
2000
0000
3020
0000
,
0032
0000
0000
0000
0013
1000
0002
0003
,
0020
0000
2030
0000
,
3002
0000
0000
0000
0103
1000
0002
0003
,
2000
0100
3020
0100
,
2030
0000
0100
0000
3001
0100
0020
0030
,
2000
0000
0010
0000
3100
0010
0100
1000
,
0002
0000
0010
0000
0103
0010
2000
3000
,
0001
0010
0100
0000
2000
0000
3001
0000
,
1000
0100
0010
0000
0002
0000
1003
0000
,
0010
0010
0020
0130
,
0001
1000
0001
0000
0010
0200
0310
0000
,
0001
0100
1000
0000
0002
0000
0013
0000
,
1000
0100
0001
0000
2000
0000
3010
0000
,
0100
0100
0200
0310
,
0002
0003
2000
3000
1000
0001
0110
0000
,
2002
0000
0000
3003
0000
0000
0001
0000
0000
0000
0001
0000
0200
0000
0000
0300
0000
0000
0010
0000
0000
0000
0010
0000
,
2000
0000
0000
3000
0000
0000
0100
0000
0000
0000
0100
0000
0020
0000
0000
0030
0000
0000
0001
0000
1000
0000
0001
0000
,
2000
0000
0000
3000
0000
0000
0010
0000
0000
0000
0010
0000
0002
0000
0000
0003
0000
0000
0010
0000
0000
0000
0010
0000
,
2000
0000
3100
0020
0000
0130
2000
0000
0000
3001
0100
0010
,
2000
0000
0000
3000
0000
0000
0001
0000
0000
0000
0001
0000
0020
0000
0000
0030
0000
0000
0100
0000
0000
0000
0100
0000
,
2000
0000
0000
3000
0000
0000
0010
0000
0000
0000
0010
0000
0200
0000
0000
0300
0000
0000
0001
0000
1000
0000
0001
0000
,
2000
0000
0000
3000
0000
0000
0100
0000
0000
0000
0100
0000
0002
0000
0000
0003
0000
0000
0100
0000
0000
0000
0100
0000
,
2000
0000
3010
0200
0000
0310
2000
0000
3001
0010
0100
0010
,
0002
0000
0000
1003
0100
0001
0200
0000
0000
1300
0001
0010
,
0200
0000
0000
1300
0100
0010
0002
0000
0000
2003
0000
0000
,
3020
0000
0000
0031
0010
1000
0002
0000
0000
0103
0010
1000
,
0200
0000
0000
0310
0100
1000
0002
0000
0000
0023
0000
0000
,
0032
0000
0000
1003
0010
0001
0020
0000
0000
1030
0001
0100
,
0020
0000
0000
1030
0010
0100
0002
0000
0000
2003
0000
0000
,
3200
0000
0000
0301
0100
1000
0002
0000
0000
0013
0100
1000
,
0020
0000
0000
0130
0010
1000
0002
0000
0000
0013
0000
0000
,
0200
0000
0000
0000
,
0000
0000
0000
0000
0000
0310
0110
0000
,
2000
0000
0000
0000
3001
0000
0000
0010
0000
0000
0010
0000
0110
0000
0000
0000
,
0001
0000
0100
0000
0010
0000
0000
1000
0000
0000
1000
0000
1001
0000
0000
0000
,
0002
0000
0000
0000
1003
0000
0000
0100
0000
0000
0100
0000
0110
0000
0000
0000
,
0001
1000
0001
0000
0100
0020
0030
0000
,
0200
0000
1000
0000
1300
0100
0001
0000
,
2000
0000
0010
0000
3010
1000
0100
0000
,
0020
0000
1000
0000
1030
0010
0001
0000
,
2000
0000
0100
0000
3100
1000
0020
0000
,
0030
0000
0000
0000
;

//---------------dance-single - ----------------
#NOTES:
     dance-single:
     :
     Easy:
     4:
     0.179537,0.209595,0.064865,0.364866,0.000000,155.000000,147.000000,8.000000,45.000000,0.000000,0.000000,0.179537,0.209595,0.064865,0.364866,0.000000,155.000000,147.000000,8.000000,45.000000,0.000000,0.000000:
0000
0000
0000
0000
,
0000
0000
0000
0000
,
0000
0000
0000
0000
,
0000
0000
0000
0000
,
0000
0000
0000
0000
,
2000
0000
3200
0000
,
0320
0000
0031
1000
,
0002
0000
0203
0000
,
0320
0000
1030
0001
,
2000
0100
3002
0100
,
2003
0000
0100
0000
3010
0100
0020
0000
,
2030
0010
3001
0010
,
0002
0000
0010
0000
1003
0100
1000
0000
,
0001
0001
0002
0103
,
1000
1000
2000
3100
,
0001
1000
0002
0003
,
0010
0100
0020
0031
,
1000
1000
2000
3010
,
0001
0001
0002
0013
,
1000
0001
2000
3000
,
0100
0010
0200
0310
,
0012
0103
2000
3100
,
0200
0301
0020
0031
,
0002
0103
0200
1300
,
1000
0001
0020
1030
,
2100
3010
0002
0013
,
0020
1030
0200
1300
,
2000
3010
0020
0031
,
0001
1000
0200
0301
,
1000
0100
0010
0001
,
2000
3000
0001
1001
,
0001
0010
0100
1000
,
0020
0030
1000
1001
,
0001
0100
0010
1000
,
0002
0003
1000
1001
,
1000
0010
0100
0001
,
0020
0030
0001
1001
,
0200
0000
0000
0000
,
0000
0000
0000
0310
,
1001
0001
1000
1000
,
0010
0100
0010
0001
,
1001
1000
0001
0001
,
0010
0100
0020
0030
,
2000
0000
3001
1000
,
0002
0000
0013
0100
,
0020
0030
0001
0100
,
0020
0030
1000
0002
,
0003
0000
0000
0000
;

//---------------dance-single - ----------------
#NOTES:
     dance-single:
     :
     Beginner:
     2:
     0.090348,0.151622,0.016216,0.202703,0.000000,78.000000,76.000000,2.000000,25.000000,0.000000,0.000000,0.090348,0.151622,0.016216,0.202703,0.000000,78.000000,76.000000,2.000000,25.000000,0.000000,0.000000:
0000
0000
0000
0000
,
0000
0000
0000
0000
,
0000
0000
0000
0000
,
0000
0000
0000
0000
,
0000
0000
0000
0000
,
2000
0000
0000
3000
,
0002
0000
0000
0003
,
0200
0000
0000
0300
,
0020
0000
0000
0030
,
1000
0000
1000
0000
,
0001
0000
0001
0000
,
0010
0000
0010
0000
,
0100
0000
0100
0000
,
1000
0000
0001
0000
,
1000
0000
0001
0000
,
0100
0100
0100
0000
,
0010
0010
0010
0000
,
1000
0000
0001
0000
,
0010
0000
0100
0000
,
1000
1000
1000
0000
,
0001
0001
0002
0003
,
1001
0000
0001
0000
,
1000
0000
0010
0000
,
0001
0000
1000
0000
,
0100
0100
0200
0300
,
0110
0000
0010
0000
,
0100
0000
0001
0000
,
0010
0000
0100
0000
,
1000
1000
2000
3000
,
0002
0003
2000
3000
,
0020
0000
0030
0000
,
2000
3000
0200
0300
,
0020
0000
0030
0000
,
0002
0003
0200
0300
,
0020
0000
0030
0000
,
2000
3000
0002
0003
,
0020
0000
0030
0000
,
0200
0000
0000
0000
,
0000
0000
0000
0300
,
1000
0000
0001
0000
,
0010
0000
0001
0001
,
0001
0000
1000
0000
,
0100
0000
2000
3000
,
0020
0000
0000
0030
,
0200
0000
0000
0300
,
0002
0000
0000
0003
,
2000
0000
0000
3000
;
