#TITLE:Another Night;
#SUBTITLE:;
#ARTIST:MYRNE feat. Nevve;
#TITLETRANSLIT:;
#SUBTITLETRANSLIT:;
#ARTISTTRANSLIT:;
#GENRE:;
#CREDIT:;
#BANNER:Another Night [ITG Edit].png;
#BACKGROUND:Another Night [ITG Edit]-bg.png;
#LYRICSPATH:;
#CDTITLE:;
#MUSIC:Another Night [ITG Edit].ogg;
#OFFSET:2.675000;
#SAMPLESTART:53.333000;
#SAMPLELENGTH:15.000000;
#LASTBEATHINT:2.512500;
#SELECTABLE:YES;
#BPMS:0.000000=90.000000
;
#STOPS:
;
#BGCHANGES:;
#KEYSOUNDS:;
#ATTACKS:;

//---------------dance-single - ----------------
#NOTES:
     dance-single:
     :
     Challenge:
     10:
     0.628959,0.857435,0.754056,0.608110,0.839191,543.000000,450.000000,93.000000,75.000000,101.000000,0.000000,0.628959,0.857435,0.754056,0.608110,0.839191,543.000000,450.000000,93.000000,75.000000,101.000000,0.000000:
// measure 0
0000
0000
0000
0000
,  // measure 1
0000
0000
0000
0000
,  // measure 2
0000
0000
0000
0000
,  // measure 3
0000
0000
0000
0000
,  // measure 4
0000
0000
0000
0000
,  // measure 5
2000
0000
0000
0000
0000
0000
0000
0002
0000
0000
0000
0000
3000
0000
0000
0000
,  // measure 6
0200
0000
0000
0000
0003
0000
0300
0100
0010
1000
0002
0000
0200
0000
0300
0000
,  // measure 7
2003
0000
0000
0000
0100
0000
0000
0002
0000
0000
3000
0000
0010
0000
0000
0000
,  // measure 8
0200
0000
0003
0000
0010
0000
0300
0100
0001
1000
0200
0000
0020
0000
0030
0000
,  // measure 9
1300
0000
0001
0000
1000
0000
0001
0100
0001
0000
1000
0000
0001
0000
1000
0000
,  // measure 10
0100
0000
0010
0000
0100
0000
0010
0001
0100
0010
1000
0000
0100
0000
1000
0000
,  // measure 11
0001
0000
0010
0000
0001
0000
0010
0100
1000
0100
2000
0000
3001
0100
0002
0000
,  // measure 12
1003
0000
0010
0000
1000
0000
0010
1000
0100
0010
0001
0000
0200
0000
0301
0000
,  // measure 13
1000
0000
0100
0000
0002
0000
0103
0000
2000
0000
3010
0100
0002
0000
0013
0000
,  // measure 14
0001
0000
0100
0000
2000
0000
3100
0000
0002
0000
0013
0100
1000
0010
0100
0010
,  // measure 15
2000
0000
3001
0010
0002
0000
1003
0100
2000
0000
3000
0001
0100
0000
0010
0000
,  // measure 16
2000
0000
3100
0000
0020
0000
0130
1000
0001
0010
0200
0000
1300
0000
0001
0010
,  // measure 17
0001
0000
0010
0000
2000
0000
3010
0000
0002
0000
0103
0010
2000
0000
3100
0000
,  // measure 18
2000
0000
3010
0000
0002
0000
0013
0000
2000
0000
3100
0010
0002
0000
2003
0000
,  // measure 19
3020
0000
0031
0M01
2000
0000
3010
001M
0100
1000
0010
0000
2100
0000
3001
0000
,  // measure 20
1000
0000
0010
0M00
0010
0000
0001
0000
0010
0M00
0010
0000
0100
01M0
1000
0001
0010
0M10
1000
0000
0000
0000
0000
0000
,  // measure 21
MM12
0000
1003
11MM
1MM1
MM11
M2M1
0000
0310
1M1M
MM11
1MM1
,  // measure 22
21MM
0000
0000
0000
3010
0000
M11M
0000
1MM1
0000
11MM
0000
M1M2
0000
0000
0000
0013
0000
0101
1010
0101
1010
0101
1010
,  // measure 23
0102
0000
1003
1M1M
M11M
M1M1
2MM1
0000
3100
M11M
11MM
MM11
,  // measure 24
2MM1
0000
3010
M11M
1M1M
MM11
M21M
0000
1300
0010
0011
1010
,  // measure 25
M1M2
0000
1003
1M1M
1MM1
M1M1
MM21
0000
0130
11MM
M1M1
1MM1
,  // measure 26
2M1M
0000
0000
0000
3100
0000
M11M
0000
1MM1
0000
1M1M
0000
MM12
0000
0000
0000
0103
0000
0011
1100
0011
1100
0011
1100
,  // measure 27
0012
0000
1003
11MM
M11M
MM11
2MM1
0000
3010
M11M
1M1M
M1M1
,  // measure 28
2MM1
0000
3100
1002
0000
0103
2010
0000
3100
0110
1000
0001
,  // measure 29
1000
0010
1000
0010
0100
0010
0100
0001
0100
0001
1000
0100
0010
0001
0010
0001
1000
0100
0001
0100
1000
0010
0100
0010
,  // measure 30
2000
0000
0000
0000
3001
0000
0110
0000
1001
0000
1010
0000
0102
0000
0000
0000
1003
0000
1100
0000
0010
0100
0010
0100
,  // measure 31
1000
0100
1000
0100
0010
0001
0100
0010
0100
0010
1000
0001
0010
0100
1000
0001
1000
0100
0010
0001
0100
0010
1000
0100
,  // measure 32
0020
0000
0031
0101
1100
0101
2010
0000
3100
0020
0230
2300
,  // measure 33
3001
0010
0001
0010
0100
0010
0100
1000
0100
1000
0001
0100
0010
1000
0010
1000
0001
0100
1000
0100
0001
0010
0100
0010
,  // measure 34
0002
0000
0000
0000
1003
0000
0110
0000
1001
0000
0011
0000
2100
0000
0000
0000
3001
0000
0101
0000
0010
0100
0010
0100
,  // measure 35
0001
0100
0001
0100
0010
1000
0100
0010
0100
0010
0001
1000
0010
0100
0001
1000
0001
0100
0010
1000
0100
0010
0001
0100
,  // measure 36
0020
0000
0000
0000
1030
0000
1100
0000
0101
0000
1100
0000
1000
0010
1000
0010
0100
0001
0010
0000
0000
0000
0000
0000
,  // measure 37
0200
0000
0000
0000
,  // measure 38
0000
0000
0000
0000
0000
0310
1001
0000
,  // measure 39
0110
0000
1000
0010
1000
0000
0100
1010
0000
0100
1010
0000
0001
1000
0000
0001
,  // measure 40
0100
0010
0100
0010
1000
0000
0001
1010
0000
0001
1010
0000
0101
1000
0100
1000
,  // measure 41
0101
0000
0001
0010
0001
0000
0100
0011
0000
0100
0011
0000
1000
0001
0000
1000
,  // measure 42
0100
0010
0100
0010
0001
0000
1000
0000
0010
0100
0020
0000
MM3M
0000
0000
0000
,  // measure 43
0200
0000
0000
0000
0010
0000
0000
0000
0301
1000
0100
0000
0200
0000
0310
0100
,  // measure 44
2000
0000
3000
0000
2000
0000
3001
0000
0100
0010
1000
0000
0002
0000
0103
0001
,  // measure 45
0020
0000
0030
0000
0200
0000
0310
0001
1000
0010
0100
0000
2000
0000
3100
0010
,  // measure 46
2000
0000
3000
0000
2000
0000
3000
0100
0010
0100
1000
0000
0002
0000
0000
0000
,  // measure 47
0003
0000
0000
0000
;
