#TITLE:Annihilator Method;
#SUBTITLE:;
#ARTIST:DM Ashura;
#TITLETRANSLIT:;
#SUBTITLETRANSLIT:;
#ARTISTTRANSLIT:;
#GENRE:Crossover;
#CREDIT:;
#BANNER:Annihilator Method.png;
#BACKGROUND:Annihilator Method-bg.png;
#LYRICSPATH:;
#CDTITLE:../cdtitle.png;
#MUSIC:Annihilator Method.ogg;
#OFFSET:-0.152000;
#SAMPLESTART:11.392000;
#SAMPLELENGTH:15.000000;
#SELECTABLE:YES;
#BPMS:0.000000=192.000000
,132.000000=96.000000
,164.000000=192.000000
,234.000000=96.000000
,235.000000=192.000000
;
#STOPS:
;
#BGCHANGES:-3.000=Annihilator Method.avi=1.000=0=0=0=StretchNoLoop====,
99999=-nosongbg-=1.000=0=0=0 // don't automatically add -songbackground-
;
#KEYSOUNDS:;
#ATTACKS:;

//---------------dance-single - ----------------
#NOTES:
     dance-single:
     :
     Beginner:
     4:
     0.178551,0.304317,0.196406,0.330319,0.000000,140.000000,118.000000,22.000000,37.000000,0.000000,0.000000,0.178551,0.304317,0.196406,0.330319,0.000000,140.000000,118.000000,22.000000,37.000000,0.000000,0.000000:
0000
0000
0000
0000
,
2002
0000
0000
3003
0000
0000
0000
0000
,
0000
0000
0000
0000
,
0000
0000
0000
0000
,
0000
0000
0000
0000
,
2002
0000
0000
3003
0000
0000
0000
0000
,
0000
0000
0000
0000
,
0000
0000
0000
0000
,
0000
0000
0000
0000
,
2002
0000
0000
3003
0000
0000
0000
0000
,
2002
0000
0000
3003
0000
0000
0000
0000
,
0220
0000
0000
0330
0000
0000
0000
0000
,
0220
0000
0000
0330
0000
0000
0000
0000
,
2002
0000
0000
3003
0000
0000
0000
0000
,
2002
0000
0000
3003
0000
0000
0000
0000
,
0220
0000
0000
0330
0000
0000
0000
0000
,
0000
0000
0000
0000
,
1000
0000
0001
0000
,
1000
0000
0001
0000
,
0010
0000
0100
0000
,
0010
0010
0010
0000
,
0001
0000
1000
0000
,
0001
0000
1000
1000
,
1000
0000
0001
0000
,
0100
0100
0100
0000
,
0001
0000
1000
0000
,
0001
0000
1000
0000
,
0100
0000
0010
0000
,
0100
0100
0100
0000
,
1000
0000
0001
0000
,
0001
0000
1000
0000
,
0100
0100
0100
0100
,
0020
0000
0000
0000
,
0030
0000
0100
0000
,
2000
0000
3000
0000
,
0001
0000
0001
0000
,
2000
0000
3000
0000
,
0020
0000
0030
0000
,
0002
0000
0003
0000
,
0200
0000
0300
0000
,
2000
0000
3000
0000
,
0001
0000
0001
0000
,
1000
0000
0001
0000
,
0100
0000
0010
0000
,
0100
0000
0100
0000
,
1000
0000
0001
0000
,
1000
0000
1000
0000
,
0010
0000
0100
0000
,
0010
0000
0010
0000
,
2002
0000
3003
0000
,
0220
0000
0330
0000
,
2002
0000
3003
0000
,
0220
0000
0330
0000
,
1001
0000
1001
0000
,
0110
0000
0110
0000
,
0100
0100
0100
0100
,
0200
0000
0000
0000
,
0300
0000
0000
0000
,
0000
0000
0000
0001
,
0000
1000
0000
0001
,
0000
0001
0000
0100
,
0000
0010
0000
0001
,
0000
0001
0000
0010
,
0000
1000
0000
0001
,
0000
1000
0000
0001
,
0000
0010
0000
0100
,
0000
1000
0000
0001
,
0001
0001
0000
1000
,
1000
1000
0000
0010
,
0010
0010
0000
0100
,
0100
0100
0000
0110
,
0000
0000
0000
1001
,
0000
0000
0000
0110
,
0000
1001
0000
0200
,
0000
0000
0000
0300
0000
0000
0000
0000
0000
0000
0000
0000
2002
0000
0000
0000
,
0000
0000
0000
3003
;

//---------------dance-single - ----------------
#NOTES:
     dance-single:
     :
     Challenge:
     17:
     0.814956,1.014391,0.419594,0.901681,0.678493,639.000000,592.000000,47.000000,101.000000,0.000000,0.000000,0.814956,1.014391,0.419594,0.901681,0.678493,639.000000,592.000000,47.000000,101.000000,0.000000,0.000000:
// measure 0
0000
0000
0000
0000
,  // measure 1
2200
0000
3300
0202
0000
0000
0303
0000
,  // measure 2
0000
0000
0000
0000
,  // measure 3
0000
0000
0000
0000
,  // measure 4
0000
0000
0000
0000
,  // measure 5
2020
0000
3030
0022
0000
0000
0033
0000
,  // measure 6
0000
0000
0000
0000
,  // measure 7
0000
0000
0000
0000
,  // measure 8
0000
0000
0000
0110
,  // measure 9
2200
0000
3300
0202
0000
0303
0110
0000
,  // measure 10
0022
0000
0033
2020
0000
3030
1001
0000
,  // measure 11
2200
0000
0000
0000
3300
0000
0202
0000
0000
0000
0303
0000
0110
0000
0010
2000
,  // measure 12
0002
0000
3003
0021
0000
0130
1000
0001
,  // measure 13
2002
0000
0000
0000
3003
0000
0202
0000
0000
0000
0303
0000
0010
0000
1000
0001
,  // measure 14
0010
0000
0000
0110
0000
0000
0022
0000
0000
0000
0033
0000
1001
0000
0000
0000
,  // measure 15
1020
0000
0000
0000
0130
0002
0020
0000
0003
0000
0130
1000
0001
0000
0000
0000
,  // measure 16
1000
0100
1000
0100
1000
0100
1000
0100
0010
0001
0100
0010
1000
0100
0010
0001
,  // measure 17
1000
0000
0001
0100
0010
0000
0100
0000
0001
0000
0010
0100
0001
0000
0100
0010
,  // measure 18
0001
0000
1000
0100
0010
0000
0100
0000
1000
0000
0010
0100
1000
0000
0100
0010
,  // measure 19
1000
0001
0010
0100
0010
0001
2000
3000
,  // measure 20
2200
0000
3300
0000
0202
0000
0303
0000
1000
0100
0001
0100
2000
0000
3001
0000
,  // measure 21
1001
0000
0001
0010
0100
0000
0010
0000
0001
0000
0100
0010
0001
0000
0010
0100
,  // measure 22
0001
0000
1000
0010
0100
0000
0010
0000
2020
0000
3030
0000
0022
0000
0033
0000
,  // measure 23
1000
0000
1000
0000
0001
0000
0001
0000
0100
0000
0010
1000
0001
0000
0010
0000
,  // measure 24
0100
0000
0100
0000
1000
0000
1000
0000
0001
0100
0001
0000
0010
0100
1000
0001
,  // measure 25
1000
0000
0001
0100
0010
0000
0100
0000
0001
0000
0010
0100
0001
0000
0100
0010
,  // measure 26
0001
0000
1000
0100
0010
0000
0100
0000
1000
0000
0010
0100
1000
0000
0100
0010
,  // measure 27
1000
0001
0010
0100
0010
0001
1000
0100
,  // measure 28
2200
0000
3300
0000
0202
0000
0303
0000
1000
0100
0001
0100
2000
0000
3001
0000
,  // measure 29
1001
0000
0001
1000
0010
0000
0001
0000
0010
0000
0020
0000
2000
0000
3030
0000
,  // measure 30
1001
0000
0001
1000
0100
0000
0001
0000
0100
0000
0200
0000
2000
0000
3300
0000
,  // measure 31
1100
1000
0001
0100
0101
0001
1000
0100
,  // measure 32
0010
0001
0010
0001
0100
0001
0100
0001
1000
0100
0001
0100
0010
0001
0100
0010
,  // measure 33
2000
0000
0000
0000
0000
0000
0000
0000
3001
0000
0000
0000
0010
0100
1000
0001
2000
0000
0000
0000
0000
0000
3010
0000
0200
0000
0000
0000
0302
0000
0000
0000
,  // measure 34
0023
0000
0000
0000
0200
0000
0300
0000
0031
0100
0010
2000
0000
3200
0010
0000
,  // measure 35
2300
0000
0000
0000
0000
0000
3001
0000
0020
0000
0000
0000
0100
0000
0000
0000
0032
0000
0000
0000
2003
0000
0000
0000
3020
0000
0000
0000
0000
0000
0130
0001
,  // measure 36
2000
0000
0000
0000
0000
0000
0000
0000
0002
0000
0000
0000
3003
0000
1000
0100
0020
0000
0100
0000
0100
0000
0000
0000
0031
0000
1000
0100
1000
0000
0001
0000
,  // measure 37
2001
0000
0000
0000
3001
0000
1000
0000
0020
0000
0000
0000
0230
0000
0000
0000
0302
0000
1000
0000
1003
0000
0000
0000
1001
0000
0000
0000
0001
0010
0100
1000
,  // measure 38
0002
0000
0000
0000
1003
0000
0200
0000
0010
0000
0000
0000
2300
0000
0000
0000
3001
0000
0020
0000
0000
0000
0130
1000
0001
0000
1000
0000
0020
0000
0000
0000
,  // measure 39
0200
0000
0330
0000
0210
0000
0302
0000
1003
0100
0010
0002
0000
2003
0100
0000
,  // measure 40
3002
0000
0000
0000
0000
0000
0000
0000
2003
0000
0000
0000
0000
0000
3001
1000
0020
0000
0130
0001
0100
0000
0010
0000
1000
0100
0010
0001
1000
0000
0001
0000
,  // measure 41
1001
0000
0000
0000
0001
0000
0001
0010
0001
0000
0000
0000
1000
0000
1000
0100
,  // measure 42
1000
0000
0000
0000
0010
0100
0010
0100
0010
0000
1000
0000
0100
0000
0010
0000
,  // measure 43
0001
0000
0000
0000
0001
0000
0001
0100
0001
0000
0000
0000
1000
0000
1000
0010
,  // measure 44
1000
0000
0000
0000
0100
0010
0100
0010
0100
0000
1000
0000
0001
0000
0100
0010
,  // measure 45
1000
0000
0000
0000
0001
0000
0100
0001
0100
0000
0000
0000
0001
0000
1000
0100
,  // measure 46
1000
0000
0000
0000
0001
0100
0010
1000
0001
0000
0010
0000
0100
0000
0010
0000
,  // measure 47
0001
0000
0000
0000
1000
0000
0100
1000
0100
0000
0000
0000
1000
0000
0001
0100
,  // measure 48
0001
0000
0000
0000
1000
0100
0010
0001
1000
0000
0010
0000
0100
0000
0010
0000
,  // measure 49
2020
0000
0000
0000
3030
0000
0001
0010
0100
0000
0010
0000
0001
0000
1000
0000
,  // measure 50
2200
0000
0000
0000
3300
0000
0001
0100
0010
0000
0100
0000
0001
1000
0001
0020
,  // measure 51
0200
0000
0000
0000
0330
0000
0010
0001
1000
0000
0100
0000
1000
0001
1000
0020
,  // measure 52
0200
0000
0000
0000
0330
0000
0010
1000
0001
0000
0100
0000
0001
0000
0010
0100
,  // measure 53
0010
0000
0001
0000
1000
0000
0100
0010
0100
0000
1000
0000
0001
0000
0100
0010
,  // measure 54
0100
0000
0001
0000
1000
0000
0010
0100
0010
0000
1000
0000
0001
0000
0100
0010
,  // measure 55
1000
0000
0001
0100
0001
0000
1000
0100
1000
0000
0001
0010
0001
0000
0100
0010
,  // measure 56
2000
3002
0023
2030
3002
0203
2300
0002
,  // measure 57
3003
0000
0000
0000
,  // measure 58
0000
0000
0000
0000
0000
0000
1001
0001
,  // measure 59
0100
0000
0010
0001
0010
0000
0100
0000
0001
0000
0010
1000
0010
0000
0100
0000
,  // measure 60
1000
0000
0001
0010
0001
0000
1000
0000
0010
0000
0100
0000
0001
0000
1000
0000
,  // measure 61
0010
0000
0100
1000
0100
0000
0010
0000
1000
0000
0100
0001
0100
0000
0010
0000
,  // measure 62
0001
0000
1000
0100
1000
0000
0001
0000
0100
0010
1000
0001
0010
0000
1000
0000
,  // measure 63
0010
0000
0001
1000
0010
0000
0001
0000
0010
0000
1000
0001
0010
0000
1000
0000
,  // measure 64
0010
0000
0001
1000
0010
0000
0001
0010
1000
0000
0001
0000
0010
0000
0100
0000
,  // measure 65
0001
0000
0100
0010
0001
0000
1000
0000
0100
0000
0010
1000
0010
0000
0100
0000
,  // measure 66
1000
0000
0001
0100
0001
0000
1000
0001
1000
0100
0010
0001
1000
0000
0100
0000
,  // measure 67
0100
0000
0010
0001
1000
0000
0100
0000
0100
0000
0010
0001
1000
0000
0010
0000
,  // measure 68
0010
0000
0100
0001
0010
0000
0100
0000
1000
0000
0001
0000
1000
0000
0010
0000
,  // measure 69
0010
0000
0100
0001
1000
0000
0010
0000
0010
0000
0100
0001
1000
0000
0100
0000
,  // measure 70
0100
0000
0010
0001
0100
0000
0010
0000
1000
0100
0010
0001
1000
0000
0001
0000
,  // measure 71
0001
0000
0100
0001
0000
0100
0001
0000
0010
0000
0100
0000
1100
0000
1000
0000
,  // measure 72
0001
0000
0010
0001
0000
0010
0001
0000
0100
0000
0010
0000
1010
0000
1000
0000
,  // measure 73
0100
0000
0010
0000
0011
0000
0001
0000
0100
0000
0010
0000
0000
1100
0000
0000
,  // measure 74
0101
0000
0000
0011
0000
0000
1010
0000
0110
0000
0001
1000
0020
0000
0000
0000
,  // measure 75
0000
0000
0000
0030
;

//---------------dance-single - ----------------
#NOTES:
     dance-single:
     :
     Easy:
     8:
     0.394087,0.507196,0.633855,0.723130,0.008928,309.000000,238.000000,71.000000,81.000000,0.000000,0.000000,0.394087,0.507196,0.633855,0.723130,0.008928,309.000000,238.000000,71.000000,81.000000,0.000000,0.000000:
0000
0000
0000
0000
,
2002
0000
3003
2002
0000
0000
3003
0000
,
0000
0000
0000
0000
,
0000
0000
0000
0000
,
0000
0000
0000
0000
,
0220
0000
0330
0220
0000
0000
0330
0000
,
0000
0000
0000
0000
,
0000
0000
0000
0000
,
0000
0000
0000
0010
,
2002
0000
3003
2002
0000
3003
0010
0000
,
0202
0000
0303
0202
0000
0303
0010
0000
,
2200
0000
3300
2200
0000
3300
0010
0000
,
0002
0000
0000
0203
0000
0000
0310
0000
,
2002
0000
3003
2002
0000
3003
0100
0000
,
2020
0000
3030
2020
0000
3030
0100
0000
,
0022
0000
0033
0022
0000
0033
0100
0000
,
0020
0000
0000
0030
,
0110
0001
1000
0010
,
0100
0010
1000
0001
,
1000
0100
0001
0100
,
1100
0101
2002
3003
,
0110
0001
1000
0010
,
0001
0000
0010
0000
2010
3000
0012
0003
,
1000
1000
0001
0010
,
0100
0100
0200
0300
,
0110
0001
1000
0100
,
0010
0100
1000
0001
,
1000
0010
0001
0010
,
1010
0011
2002
3003
,
0110
0001
1000
0100
,
0110
0001
1000
0010
,
0001
0001
0010
0010
,
2000
3020
0032
0203
,
2300
3001
0002
2003
,
3020
0000
0001
0000
0030
0001
0010
1000
,
0002
0000
0023
0000
0230
0000
1300
0001
,
2000
0000
3001
0000
0002
0000
1003
1000
,
2001
0000
3020
0000
0130
0001
1001
0001
,
0020
2030
3020
0032
,
2003
0100
3002
0100
,
2003
0000
0010
0000
3200
0000
0020
0330
,
1001
0000
0101
0000
,
1010
0000
0001
0010
,
0110
0000
1010
0000
,
0101
0000
0100
1000
,
1001
0000
1010
0000
,
0101
0000
1000
0100
,
0110
0000
0101
0000
,
1010
0000
0010
0001
,
2002
3003
0010
0100
,
2002
3003
0100
0010
,
2002
3003
0010
0100
,
2002
3003
0100
0010
,
1001
0100
1001
0010
,
0101
1000
1100
0001
,
0101
1010
1100
0011
,
0020
0230
2300
0002
,
3003
0000
0000
0000
,
0000
0000
0000
1001
,
0001
0010
0010
1000
,
0010
0001
1001
1000
,
0010
0001
0001
0010
,
1000
0001
0021
0130
,
1000
0001
0010
0100
,
1000
0001
0011
0100
,
1000
0010
0100
0001
,
0001
0010
0110
0100
,
0101
0100
1100
0100
,
0101
0100
1000
0010
,
0011
0010
1010
0010
,
0011
0010
1000
1001
,
0100
0010
0010
1001
,
0010
0100
0100
1100
,
0010
0000
0000
0000
0101
0000
0000
0000
0010
0000
0000
0000
0000
1000
0000
0000
,
0001
0000
0000
0100
0000
0000
0000
0000
0010
0000
0000
0000
2002
0000
0000
0000
,
0000
0000
0000
3003
;

//---------------dance-single - ----------------
#NOTES:
     dance-single:
     :
     Medium:
     11:
     0.480812,0.574822,0.294609,0.526725,0.013391,377.000000,344.000000,33.000000,59.000000,0.000000,0.000000,0.480812,0.574822,0.294609,0.526725,0.013391,377.000000,344.000000,33.000000,59.000000,0.000000,0.000000:
0000
0000
0000
0000
,
2000
0000
0000
0002
0000
0000
3003
0000
,
0000
0000
0000
0000
,
0000
0000
0000
0000
,
0000
0000
0000
0000
,
0002
0000
0000
2000
0000
0000
3003
0000
,
0000
0000
0000
0000
,
0000
0000
0000
0000
,
0000
0000
0000
1000
,
2200
0000
0300
0002
0000
3000
0103
0000
,
0220
0000
0300
2000
0000
0030
3100
0000
,
0022
0000
0030
2000
0000
0003
3010
0010
,
0002
0000
0000
0023
0000
1030
0001
0000
,
2200
0000
0300
0002
0000
3000
0103
1000
,
0001
0000
0000
0001
0000
0000
0002
0000
0000
0000
0000
0000
0013
0000
0000
0000
,
2010
0000
3100
0002
0000
0103
1000
0000
,
0002
0000
0000
0003
,
0110
0000
0001
0000
1000
0000
0010
0001
,
0010
0000
1000
0000
0001
0000
0010
1000
,
0010
0000
0010
0000
0100
1000
0001
0000
,
1001
0000
0110
0000
0001
1000
0010
0000
,
0110
0000
0001
0000
1000
0000
0100
0001
,
0100
1000
1001
1001
,
0010
0000
0010
0000
0100
0001
1000
0000
,
0100
0001
0100
0010
0100
1000
0001
0000
,
0110
0000
0001
0000
1000
0000
0010
0001
,
0010
0000
1000
0000
0001
0000
0010
1000
,
0010
0100
0010
0000
0100
1000
0001
0000
,
1001
0000
0110
0000
0001
1000
0010
0000
,
0110
0000
0001
0000
1000
0010
0001
0000
,
0110
0000
0001
0000
1000
0100
0001
0000
,
0100
1000
0100
1000
0001
0010
0001
0010
,
0100
1000
0001
1000
0010
0100
0001
0010
,
0200
0000
0301
0100
2000
0000
3010
0001
,
0020
0100
1030
1000
,
0002
0023
2030
3200
,
0302
0000
0013
0000
2000
0000
3100
0100
,
1002
0000
0023
0000
0130
0100
0110
0001
,
2000
0000
3010
0010
0002
0000
0103
0100
,
2000
0000
3020
0000
0031
0010
1000
0001
,
0020
0000
0230
0000
2300
0000
0002
3003
,
1001
0000
0000
0001
0001
0000
0000
0010
,
0010
0000
1000
0010
1000
0000
0010
0000
,
0011
0000
0000
0001
0001
0000
0000
1000
,
1000
0000
0010
0001
0010
0000
1000
0000
,
1100
0000
0000
0100
0100
0000
0000
0001
,
0001
0000
0100
1000
0001
0000
0010
0000
,
0110
0000
0000
0001
0001
0000
0000
0010
,
0010
0000
0001
1000
0010
0000
0100
0000
,
2002
0000
3003
0010
0100
1000
0001
0000
,
0220
0000
0330
1000
0001
0100
0010
0000
,
2002
0000
3003
0100
0010
0001
1000
0000
,
0220
0000
0330
0001
1000
0010
0100
0000
,
0001
0100
0001
0000
1000
0100
1000
0000
,
0001
0010
0001
0000
1000
0010
1000
0000
,
0001
0001
0100
0100
0010
0010
1000
1000
,
0002
0203
0320
2030
3200
0320
0032
2000
,
3003
0000
0000
0000
,
0000
0000
0000
0110
,
0001
0100
0010
0000
0100
0001
0010
0000
,
0100
1000
0010
0000
0100
0000
0110
0000
,
1000
0100
0010
0000
0100
1000
0010
0000
,
0100
0001
0010
0000
0100
0010
0001
0000
,
1000
0010
0001
0000
0010
1000
0001
0000
,
0010
0100
1000
0000
1000
0000
0001
0000
,
1000
0100
0001
0000
0100
1000
0001
0000
,
0001
0000
0100
0010
0100
0001
0010
0100
,
1000
0001
1000
0100
0010
0001
1000
0010
,
0100
0001
1000
0100
0010
0000
0100
1000
,
0001
1000
0010
0100
0001
1000
0001
0100
,
0010
1000
0100
0010
0001
0000
1001
0000
,
0001
0000
0100
0010
1000
0000
1001
0000
,
0001
0000
0010
0100
1000
0000
1001
0000
,
0100
0000
0000
0000
0011
0000
0001
0000
0100
0000
0010
0000
0000
1000
0000
0000
,
0100
0000
0000
0001
0000
0000
0100
0000
0010
0000
0000
0000
2002
0000
0000
0000
,
0000
0000
0000
3003
;

//---------------dance-single - ----------------
#NOTES:
     dance-single:
     :
     Hard:
     15:
     0.720580,0.845326,0.374956,0.803478,0.499942,565.000000,523.000000,42.000000,90.000000,0.000000,0.000000,0.720580,0.845326,0.374956,0.803478,0.499942,565.000000,523.000000,42.000000,90.000000,0.000000,0.000000:
0000
0000
0000
0000
,
0220
0000
0330
2002
0000
0000
3003
0000
,
0000
0000
0000
0000
,
0000
0000
0000
0000
,
0000
0000
0000
0000
,
0220
0000
0330
2002
0000
0000
3003
0000
,
0000
0000
0000
0000
,
0000
0000
0000
0000
,
0000
0000
0000
0110
,
0220
0000
0330
2002
0000
0003
3100
0000
,
2002
0000
3003
2002
0000
3000
0103
0000
,
0220
0000
0000
0000
0330
0000
0220
0000
0000
0000
0030
0000
0310
0000
1000
0001
,
0020
0000
0000
0230
0000
0310
0001
0000
,
0220
0000
0000
0000
0330
0000
2002
0000
0000
0000
0003
0000
3010
0000
0100
0001
,
0010
0000
0000
0100
0000
0000
0220
0000
0000
0000
0330
0000
2002
0000
3003
0000
,
0220
0000
0330
0000
0001
1000
0020
0000
0000
0000
1030
0001
0010
0000
0000
0000
,
0200
0000
0000
0000
0000
0000
0000
0300
,
0110
0000
0001
0000
1000
0000
0010
0100
0001
0000
1000
0000
0001
0000
0010
0100
,
1000
0000
0001
0000
1000
0000
0010
0100
0001
0000
0100
0000
0010
0000
1000
0100
,
0010
0100
1000
0001
1000
0010
0001
0010
,
2020
0000
3030
0000
0202
0000
0303
0000
0010
0100
0010
0100
0010
0000
0001
0000
,
1001
0000
0010
0000
0100
0000
0001
1000
0010
0000
0100
0000
0001
0000
0010
0100
,
1000
0001
0010
0100
0220
0330
0220
0330
,
0001
1000
0100
1000
0001
0100
0010
1000
,
0001
0000
0001
0000
0010
0000
0010
0000
0100
1000
0001
0000
0100
0010
0100
0010
,
0100
0000
0001
0000
1000
0000
0010
0100
0001
0000
1000
0000
0001
0000
0010
0100
,
1000
0000
0001
0000
1000
0000
0010
0100
0001
0000
0100
0000
0010
0000
1000
0100
,
0010
0100
1000
0001
1000
0010
0001
0010
,
2020
0000
3030
0000
0202
0000
0303
0000
0010
0100
0010
0100
0010
0000
0001
0000
,
1001
0000
0001
0100
0010
0000
1000
0000
0100
0000
0010
0000
0200
0000
0300
0000
,
1001
0000
1000
0010
0100
0000
0001
0000
0010
0000
0100
0000
0020
0000
0030
0000
,
0001
0100
0001
0100
0010
1000
0010
1000
,
0001
0100
0001
0100
0010
1000
0010
1000
0100
0010
0001
0010
0100
1000
0001
1000
,
0020
0000
0000
0000
0130
0000
0001
0010
0200
0000
0000
2300
0000
0000
3002
0000
,
0023
0000
0000
0000
0230
0000
0000
0000
1300
0001
0100
0020
0000
2030
0000
0000
,
3002
0000
0000
0023
0000
0000
2030
0000
0000
0000
3200
0000
0000
0000
0000
0301
,
2000
0000
0000
0000
3001
0000
0000
0010
0200
0000
1300
0000
2000
0000
3001
0000
,
2001
0000
0000
3020
0100
0000
2000
0000
0030
0000
3001
0000
0101
0000
0001
0000
,
0020
0000
0000
0130
1000
0000
0001
0000
0020
0000
0000
1030
0010
0000
0001
0000
,
2000
0000
0000
0000
0100
0000
0000
0000
3001
0000
0100
0010
0000
2000
0000
0000
,
3002
0000
0000
0000
0000
0000
0000
0000
0100
0000
0000
0000
0003
0000
1000
0000
0002
0000
0000
0000
0013
0000
0100
0000
0010
0100
0010
0100
0010
0000
0100
0000
,
1001
0000
0000
0000
0000
0000
0001
0100
0001
0000
0000
0000
0000
0000
1000
0010
,
1000
0000
0000
0000
0010
0100
0010
0100
0010
0000
1000
0000
0100
0000
0010
0000
,
0001
0000
0000
0000
0000
0000
0001
0010
0001
0000
0000
0000
0000
0000
1000
0100
,
1000
0000
0000
0000
0100
0010
0100
0010
0100
0000
1000
0000
0001
0000
0100
0010
,
1000
0000
0000
0000
0000
0000
0001
0100
0001
0000
0000
0000
0000
0000
1000
0100
,
1000
0000
0000
0000
0001
0010
0001
1000
0010
0000
0100
0000
0001
0000
0010
0000
,
0100
0000
0000
0000
0000
0000
1000
0100
1000
0000
0000
0000
0000
0000
0001
0100
,
0001
0000
0000
0000
1000
0010
1000
0001
0010
0000
0100
0000
1000
0000
0001
0000
,
2002
0000
0000
0000
3003
0000
0001
0100
0001
0000
0010
0000
0100
0000
1000
0000
,
2002
0000
0000
0000
3003
0000
1000
0100
1000
0000
0010
0000
0100
0000
0001
0000
,
2002
0000
0000
0000
3003
0000
0001
0100
0001
0000
0010
0000
0100
0000
1000
0000
,
2002
0000
0000
0000
3003
0000
1000
0100
1000
0000
0010
0000
0100
0000
0001
0000
,
1000
0010
0100
0100
0001
0010
0100
0100
,
1000
0000
0100
0000
0010
0000
0010
0000
0001
0000
0100
0000
0010
0000
0010
1000
,
0001
0000
0100
0001
0100
0000
0001
0010
0001
0000
1000
0100
1000
0000
0001
1000
,
0002
0203
0320
2030
3200
0320
0032
2000
,
3003
0000
0000
0000
,
0000
0000
0000
0000
0000
0000
1001
0001
,
0100
0000
0010
1000
0010
0000
1000
0000
0100
0000
0010
0001
0010
0000
0100
0000
,
1000
0000
0001
0100
0000
0001
0100
0000
0010
0000
1000
0000
0001
0000
0010
0000
,
0100
0000
0010
0001
0010
0000
0100
0000
1000
0000
0010
1000
0010
0000
0100
0000
,
0001
0000
0010
0100
0000
0010
0100
0000
1000
0100
1000
0001
1000
0000
0010
0000
,
1000
0000
0001
0100
0010
0000
1000
0000
0001
0000
0100
0010
1000
0000
0001
0000
,
0010
0000
0100
1000
0001
0000
1000
0000
0010
0000
0010
0000
1000
0000
0100
0000
,
1000
0000
0001
0010
0100
0000
1000
0000
0001
0000
0010
0100
1000
0000
0001
0000
,
0100
0000
0010
1000
0001
0000
0100
0001
0100
0001
0010
0100
1000
0000
0001
0000
,
0010
0000
0100
1000
0100
0000
1000
0000
0001
0000
0100
0010
0100
0000
0010
0000
,
1000
0000
0001
0100
0000
0100
0010
0000
1000
0000
0001
0000
0010
0000
0100
0000
,
1000
0000
0001
0010
0001
0000
1000
0000
0010
0000
0001
0010
0001
0000
0010
0000
,
1000
0000
0010
0100
0000
0100
0010
0000
1000
0100
0010
0001
1000
0000
0100
0000
,
0001
0000
0100
1000
0000
0100
1000
0000
0001
0000
1000
0000
1010
0000
0010
0000
,
0001
0000
0010
1000
0000
0010
1000
0000
0001
0000
1000
0000
1100
0000
0100
0000
,
0010
0000
0001
0000
0101
0000
0100
0000
0010
0000
1000
0000
0000
1100
0000
0000
,
0101
0000
0000
0011
0000
0000
1010
0000
1000
0000
0100
0000
0022
0000
0000
0000
,
0000
0000
0000
0033
;
