#TITLE:Anarchy;
#SUBTITLE:;
#ARTIST:Ironmouse & Bubi;
#TITLETRANSLIT:;
#SUBTITLETRANSLIT:;
#ARTISTTRANSLIT:;
#GENRE:Variety;
#CREDIT:;
#BANNER:Anarchy.png;
#BACKGROUND:Anarchy-bg.png;
#LYRICSPATH:;
#CDTITLE:../cdtitle.png;
#MUSIC:Anarchy.ogg;
#OFFSET:-0.001000;
#SAMPLESTART:68.870003;
#SAMPLELENGTH:15.000000;
#SELECTABLE:YES;
#DISPLAYBPM:115.000000;
#BPMS:0.000000=115.000000
,34.000000=57.500000
,35.000000=115.000000
,129.000000=57.500000
,130.000000=115.000000
,162.000000=57.500000
,163.000000=115.000000
;
#STOPS:
;
#BGCHANGES:0.000=Anarchy.avi=1.000=0=0=0=StretchNoLoop====,
99999=-nosongbg-=1.000=0=0=0 // don't automatically add -songbackground-
;
#KEYSOUNDS:;
#ATTACKS:;

//---------------dance-single - ----------------
#NOTES:
     dance-single:
     :
     Beginner:
     2:
     0.068484,0.112356,0.000000,0.046095,0.000000,52.000000,52.000000,0.000000,5.000000,0.000000,0.000000,0.068484,0.112356,0.000000,0.046095,0.000000,52.000000,52.000000,0.000000,5.000000,0.000000,0.000000:
0000
0000
0000
0000
,
0000
0000
0000
0000
,
0000
0000
0000
0000
,
0000
0000
0000
0000
,
0000
0000
1000
0000
,
0000
0000
1000
0000
,
0000
0000
0001
0000
,
0000
0000
0001
0000
,
0000
0000
0000
0010
,
0000
0000
0000
0100
,
0000
0100
0000
0010
,
0000
0000
0000
0001
,
0000
0001
0000
1000
,
0000
0000
0000
1000
,
0000
0000
0000
0001
,
0000
0001
0000
0001
,
0000
0000
0000
0000
,
0000
0010
0010
0000
,
0000
0100
0100
0000
,
0000
1000
1000
0000
,
0000
0001
0001
0000
,
0000
0100
0000
0000
,
0000
0001
0000
0000
,
0000
0010
0000
0000
,
0000
0000
0000
0002
,
0000
0000
0000
0003
,
0000
0000
0000
0200
,
0000
0000
0000
0300
,
0000
0000
0000
0020
,
0000
0000
0000
0030
,
0000
0000
0000
2000
,
0000
0000
0000
3000
,
0000
0000
1000
0000
,
0000
0000
1000
0000
,
0000
0000
0001
0000
,
0000
0000
0100
0000
,
0100
0000
0001
0000
,
0000
0000
0001
0000
,
0000
0000
1000
0000
,
0000
0000
0010
0000
,
0010
0000
0000
0001
,
0000
0000
0000
0001
,
0000
0000
0000
0010
,
0000
0000
0000
0010
,
0000
0000
0000
1000
,
0000
0100
0000
1000
,
0000
0100
0000
0010
,
0000
0001
0000
0010
,
0000
0002
0000
0003
;

//---------------dance-single - ----------------
#NOTES:
     dance-single:
     :
     Easy:
     5:
     0.198866,0.292126,0.147504,0.156722,0.000000,151.000000,135.000000,16.000000,17.000000,0.000000,0.000000,0.198866,0.292126,0.147504,0.156722,0.000000,151.000000,135.000000,16.000000,17.000000,0.000000,0.000000:
0000
0000
0000
0000
,
0000
0000
0000
0000
,
0000
0000
0000
0000
,
0000
0000
0000
0000
,
0000
0000
1000
0100
,
0000
0100
0000
0100
,
0001
0100
1000
0010
,
0000
0010
0000
0010
,
0001
0100
0000
1000
,
0000
1001
0000
0001
,
0100
1000
0100
0001
,
0000
1001
0000
0001
,
0010
1000
0010
0001
,
0000
0010
0010
0200
,
0000
2300
0000
3001
,
0001
0100
0100
0001
,
0010
0002
0003
0000
,
0001
0100
0200
0300
,
0010
1000
0100
0000
,
1000
0010
0020
0030
,
0100
0001
0010
0000
,
0100
0001
0001
0000
,
0100
1000
1000
0000
,
0010
0001
0001
0000
,
0010
1000
0000
1001
,
0000
0002
0000
0100
,
0000
2003
0000
3200
,
0000
0020
0000
0300
,
0000
0000
0030
1001
,
0000
0002
0000
0023
,
0000
0230
0000
2300
,
0000
0000
0000
0002
,
0000
3003
1000
0100
,
0001
0101
0001
0100
,
1000
1100
1000
0001
,
0100
0110
0001
1100
,
1000
0101
0001
0010
,
1000
1010
1000
0010
,
0001
0011
0001
1000
,
0010
0110
1000
0011
,
0001
2020
3030
0001
,
0100
0001
0001
0010
,
0100
1000
1001
0100
,
1000
0100
0100
0001
,
1000
0010
0110
1000
,
0100
1000
0100
0001
,
0100
0001
0100
1000
,
0100
0001
0010
1000
,
0100
1000
0020
0030
;

//---------------dance-single - ----------------
#NOTES:
     dance-single:
     :
     Medium:
     7:
     0.256814,0.314597,0.147504,0.184379,0.000000,195.000000,179.000000,16.000000,20.000000,0.000000,0.000000,0.256814,0.314597,0.147504,0.184379,0.000000,195.000000,179.000000,16.000000,20.000000,0.000000,0.000000:
0000
0000
0000
0000
,
0000
0000
0000
0000
,
0000
0000
0000
0000
,
0000
0000
0000
0000
,
0000
0000
0100
0100
,
0000
1000
0001
0000
0100
0000
0100
0000
,
1000
0100
0001
0000
0010
0000
0010
0000
,
0000
0001
1000
0000
0010
0000
0010
0000
,
0001
0010
1000
0001
0000
0000
1000
0000
,
1100
0002
0003
1000
,
0100
1000
0010
0000
0100
0000
0001
0000
,
1001
0020
0030
0001
,
0100
0000
0010
1000
0001
0000
0220
0000
,
0330
0001
0010
0100
,
0100
0010
0010
0001
,
0101
1000
1100
0100
,
0010
0000
0220
0000
0330
0000
0000
1000
,
0010
0000
0100
0000
0100
0000
0000
0010
,
1000
0000
0001
0100
0001
0000
0000
0001
,
0010
0000
0100
0000
0100
0000
0000
0010
,
0001
0000
1000
0100
1000
0000
0000
0001
,
0100
0000
1000
0100
0001
0000
1000
0000
,
0100
0000
0010
0000
0001
0000
0000
1000
,
0100
0000
0001
0100
1000
0000
0001
0000
,
0100
0020
0030
2001
,
0000
3020
0000
0100
,
0000
2030
0000
3200
,
0000
0020
0000
0300
,
0000
0000
0030
1002
,
0000
0023
0000
0230
,
0000
2300
0000
3020
,
0000
0000
0000
0200
,
0000
0330
1001
0100
,
0001
0100
1000
0000
0110
0000
1000
0000
,
0100
1000
0010
0000
1001
0000
0010
0000
,
1000
0010
0001
0000
0010
0001
0100
0000
,
0001
0100
0010
0000
1001
0000
0010
0000
,
1000
0010
0001
0000
0110
0000
0001
0000
,
0010
0001
0100
0000
1001
0000
0100
0000
,
0001
0100
1000
0000
0100
1000
0010
0000
,
1000
0010
0200
0000
0300
0000
0001
0000
,
0001
0100
0100
0001
,
0010
0100
1100
1000
,
1000
0010
0010
1000
,
0100
0000
0010
0000
0011
0000
0001
0100
,
0001
0000
0100
1000
0100
0000
1000
0010
,
1000
0000
0010
0001
0010
0000
0001
0100
,
0010
0000
1000
0100
0010
0000
0100
1000
,
0001
0000
0100
0010
1000
0002
0003
0000
;

//---------------dance-single - ----------------
#NOTES:
     dance-single:
     :
     Hard:
     10:
     0.345053,0.426953,0.193598,0.221255,0.087580,262.000000,241.000000,21.000000,24.000000,0.000000,0.000000,0.345053,0.426953,0.193598,0.221255,0.087580,262.000000,241.000000,21.000000,24.000000,0.000000,0.000000:
0000
0000
0000
0000
,
0000
0000
0000
0000
,
0000
0000
0000
0000
,
0000
0000
0000
0000
,
0000
0000
0000
0000
0000
0000
0000
0000
0100
0000
0000
0100
0000
0000
0101
0000
,
0000
0000
0001
0000
0000
0000
0010
0000
0100
0000
0000
0100
0000
0000
1100
0000
,
1000
0000
0010
0000
0001
0000
0010
0000
1000
0000
0000
1000
0000
0000
1100
0000
,
0000
0000
0100
0000
0000
0000
0001
0000
1000
0000
0010
0001
0000
0000
0001
0000
,
0100
0000
0010
1000
0000
0000
0001
0000
0000
0000
0000
0000
0001
0000
0000
0000
,
0101
0000
0001
0000
2000
0000
0000
0000
3100
0000
0000
0000
1000
0000
0000
1000
,
0010
0100
0001
1000
0100
0000
0010
0000
,
1100
0000
1000
0000
0002
0000
0000
0000
0103
0000
0000
0000
0010
0000
0000
0010
,
0100
0001
0010
0100
0010
0000
1000
0000
,
0110
0000
0001
0000
1000
0000
0000
0000
0100
0000
0000
0000
2000
0000
0000
3002
,
0000
0000
0203
0000
0320
0000
0000
2030
0000
0000
3002
0000
0013
0000
0000
0000
,
0101
0010
1100
0002
,
0203
0000
0020
0000
0330
0000
0000
1000
,
0001
0000
0001
0100
0001
0010
0000
0100
,
0010
0000
0100
0001
0100
1000
0000
0001
,
1000
0000
1000
0100
1000
0010
0000
0100
,
0010
0000
0100
1000
0100
0001
0000
1000
,
0100
0000
0100
0001
0100
1000
0000
1000
,
0100
0000
0010
0001
0100
0010
0000
0001
,
0010
0000
0010
0100
1000
0100
0000
0100
,
0001
1000
0100
0000
0010
0000
0002
0000
,
0000
2003
0000
0100
,
0000
3002
0000
0203
,
0000
0020
0000
0300
,
0000
0000
0030
1002
,
0000
2003
0000
3200
,
0000
2300
0000
3020
,
0000
0000
0000
0000
0000
0100
0200
0000
,
0000
0000
0330
0000
0011
0000
0010
0100
,
1000
0000
0000
1000
0010
0000
0000
0000
0110
0000
0000
0000
1000
0000
0001
0000
,
0010
0000
0000
0010
0100
0000
0000
0000
0011
0000
0000
0000
1000
0000
0100
0000
,
1000
0000
0000
1000
0010
0000
0000
0000
0101
0000
0000
1000
0010
0000
0000
0000
,
1100
0000
0000
0001
0010
0000
0000
0000
1100
0000
1000
0000
0100
0000
0010
0000
,
0001
0000
0000
0001
0100
0000
0000
0000
0110
0000
0100
0000
0001
0000
1000
0000
,
0100
0000
0000
0100
0010
0000
0000
0000
1100
0000
1000
0000
0001
0000
0010
0000
,
0001
0000
0000
0001
0100
0000
0000
0000
1010
0000
0000
0001
0100
0000
0000
0000
,
0011
0000
0000
1000
0200
0000
0000
0000
0300
0000
0000
0000
1000
0000
0001
0000
,
0100
0001
0010
0001
0100
0001
1000
0100
,
0001
0100
0010
0100
1000
1001
0001
1000
,
0100
1000
0010
1000
0100
1000
0001
0100
,
1000
0100
0010
0100
1001
0000
0001
0010
,
1000
0010
0001
0010
0100
1000
0001
0100
,
1000
0100
0001
0100
0010
1000
0001
0001
,
0100
0100
0010
0010
1000
1000
0010
0100
,
0001
0010
0100
0100
1000
0002
0003
0000
;

//---------------dance-single - ----------------
#NOTES:
     dance-single:
     :
     Challenge:
     13:
     0.514945,0.741551,0.239693,0.267350,0.295007,391.000000,365.000000,26.000000,29.000000,52.000000,0.000000,0.514945,0.741551,0.239693,0.267350,0.295007,391.000000,365.000000,26.000000,29.000000,52.000000,0.000000:
// measure 0
0000
0000
0000
0000
,  // measure 1
0000
0000
0000
0000
,  // measure 2
0000
0000
0000
0000
,  // measure 3
0000
0000
0000
0000
,  // measure 4
0000
0000
0000
0000
0000
0000
0000
0000
0100
0000
0000
0100
0001
0000
0001
0000
,  // measure 5
0010
0000
1000
0000
0010
0000
0001
0000
1000
0000
0000
1000
0100
0000
1000
0000
,  // measure 6
0010
0000
0100
0000
0001
0000
0001
0000
0010
0000
0000
0010
0001
0000
0001
0000
,  // measure 7
0100
0000
1000
0000
0100
0000
0001
0000
1000
0000
0100
1000
0010
0000
0100
0000
,  // measure 8
1000
0000
0100
0001
0010
0000
0100
0000
MMMM
0000
MMMM
0000
2100
0000
0000
0000
,  // measure 9
3001
0000
0100
0000
0001
0000
0002
0000
0013
0000
0001
0000
0100
0000
0000
0010
,  // measure 10
1000
0001
0010
0010
0100
1000
0100
0000
,  // measure 11
0110
0000
0001
0000
1000
0000
2000
0000
3100
0000
1000
0000
0010
0000
0000
0100
,  // measure 12
0001
1000
0100
0100
0001
0100
1000
0000
,  // measure 13
1001
0000
0001
0000
0020
0000
0031
0000
0200
0000
0301
0000
2000
0000
0000
3020
,  // measure 14
0000
0000
0032
0000
2003
0000
0000
3200
0000
0000
0301
0000
1000
0000
0100
0000
,  // measure 15
1000
0010
1000
0100
0001
0100
1000
1000
,  // measure 16
0001
0001
0100
0010
0220
0330
MMMM
0001
,  // measure 17
0010
0001
0010
0100
1000
1100
MMMM
0100
,  // measure 18
0001
0100
0001
1000
0010
0110
MMMM
1000
,  // measure 19
0100
1000
0100
0010
0001
0011
MMMM
0010
,  // measure 20
1000
0010
1000
0001
0100
0110
MMMM
0001
,  // measure 21
0010
0001
0100
1000
0100
0010
MMMM
0001
,  // measure 22
0100
0001
0010
0100
1000
1100
MMMM
1000
,  // measure 23
0010
1000
0100
0001
0100
0010
MMMM
1000
,  // measure 24
0100
0000
1000
0000
0010
0000
0100
0000
0001
0000
0000
0000
2001
0000
0000
0001
,  // measure 25
0000
0000
0001
0000
3002
0000
0100
0000
0000
0000
0103
0000
0020
0000
0000
1000
,  // measure 26
0000
0000
1030
0000
0002
0000
0100
0000
0000
0000
0103
0000
0002
0000
0000
0010
,  // measure 27
0000
0000
0010
0000
2003
0000
0100
0000
0000
0000
0100
0000
3002
0000
0000
0100
,  // measure 28
0000
0000
0100
0000
0003
0000
0100
0010
0000
0000
1000
0000
2001
0000
0000
0001
,  // measure 29
0000
0000
0001
0000
3002
0000
0010
0000
0000
0000
0013
0000
0200
0000
0000
1000
,  // measure 30
0000
0000
1300
0000
0002
0000
0100
0000
0000
0000
0103
0000
0002
0000
0000
0010
,  // measure 31
0000
0000
0010
0000
0000
0000
0010
0000
0003
0000
0020
0000
0100
0000
0000
0100
,  // measure 32
0000
0000
0130
0000
0220
0000
0000
0330
1001
0000
1000
0000
0100
0000
0001
0000
,  // measure 33
0100
0000
0010
0001
1000
0000
0010
0000
1010
0000
0010
0000
0100
0000
0001
0000
,  // measure 34
0010
0000
1000
0010
0100
0000
1000
0000
1100
0000
0001
0000
0100
0000
0010
0000
,  // measure 35
1000
0000
0001
0010
0100
0000
1000
0000
1100
0000
0100
0010
0001
0000
0100
0000
,  // measure 36
0101
0000
0100
0010
1000
0000
MMMM
0000
1001
0000
0001
0000
0010
0000
1000
0000
,  // measure 37
0010
0000
0100
1000
0001
0000
0100
0000
0101
0000
0100
0000
0010
0000
1000
0000
,  // measure 38
0100
0000
0001
0100
0010
0000
0001
0000
0011
0000
1000
0000
0010
0000
0100
0000
,  // measure 39
0001
0000
1000
0100
0010
0000
0001
0000
0011
0000
0010
0100
1000
0000
0010
0000
,  // measure 40
1010
0000
0000
0000
0000
0000
0100
0000
0000
0001
0000
0000
0010
0000
0000
0000
0000
0000
0100
0000
0000
0000
0000
0000
MMMM
0000
0000
0000
0000
0000
MMMM
0000
0000
0000
0000
0000
1000
0000
0000
0000
0000
0000
0100
0000
0000
0000
0010
0000
,  // measure 41
0100
0000
1000
0000
0010
0000
0001
0000
0010
0000
1000
0000
0001
0000
1000
0100
,  // measure 42
1000
0000
0000
0000
0000
0000
0001
0000
0000
0010
0000
0000
0001
0000
0000
0000
0000
0000
0100
0000
0000
0000
0000
0000
0010
0000
0000
0000
0000
0000
1010
0000
0000
0000
0000
0000
0001
0000
0000
0000
0000
0000
0010
0000
0000
0000
0100
0000
,  // measure 43
0010
0000
0001
0000
0100
0000
1000
0000
0100
0000
0001
0000
1000
0000
0001
0010
,  // measure 44
0001
0000
1000
0100
1000
0000
0010
0000
1001
0000
0101
0000
1000
0100
1000
0100
,  // measure 45
1000
0001
1000
0001
0010
0001
0010
0001
1000
0010
1000
0010
0100
0010
0100
0010
,  // measure 46
0100
0001
0100
0001
1000
0100
1000
0100
0010
0001
0010
0001
1000
0100
0010
0100
,  // measure 47
1000
0010
0100
0010
1000
0100
0001
0100
1000
0010
0001
0010
1000
0100
1000
0010
,  // measure 48
0100
0001
0010
0001
0100
0010
1000
0001
0010
0000
2200
0000
3300
0000
0000
0000
;

//---------------dance-double - ----------------
#NOTES:
     dance-double:
     :
     Easy:
     5:
     0.198866,0.292126,0.147504,0.156722,0.000000,151.000000,135.000000,16.000000,17.000000,0.000000,0.000000,0.198866,0.292126,0.147504,0.156722,0.000000,151.000000,135.000000,16.000000,17.000000,0.000000,0.000000:
00000000
00000000
00000000
00000000
,
00000000
00000000
00000000
00000000
,
00000000
00000000
00000000
00000000
,
00000000
00000000
00000000
00000000
,
00000000
00000000
00100000
00010000
,
00000000
00010000
00000000
00010000
,
01000000
00001000
00010000
00000010
,
00000000
00000010
00000000
00000010
,
00001000
00000001
00000000
00000100
,
00000000
00001001
00000000
00000001
,
00000010
00001000
00010000
00001000
,
00000000
00011000
00000000
00001000
,
00010000
01000000
10000000
00010000
,
00000000
00010000
00100000
02000000
,
00000000
23000000
00000000
30010000
,
00010000
01000000
00010000
00100000
,
00001000
00020000
00030000
00000000
,
00000100
00001000
00002000
00003000
,
00000001
00000100
00000010
00000000
,
00010000
00001000
00002000
00003000
,
00100000
00010000
10000000
00000000
,
01000000
00010000
00010000
00000000
,
00001000
00000100
00000100
00000000
,
00000001
00000010
00000010
00000000
,
00001000
00010000
00000000
00011000
,
00000000
00002000
00000000
00010000
,
00000000
02003000
00000000
03020000
,
00000000
00200000
00000000
00030000
,
00000000
00000000
00300000
00011000
,
00000000
00020000
00000000
00030200
,
00000000
00002300
00000000
00003020
,
00000000
00000000
00000000
00000200
,
00000000
00000330
00000001
00000010
,
00001000
00001010
00001000
00010000
,
00100000
00110000
10000000
01000000
,
00010000
01010000
00001000
00011000
,
00100000
00110000
10000000
00100000
,
00010000
00110000
00010000
00001000
,
00000010
00001010
00000001
00000100
,
00001000
00001100
00010000
00011000
,
00000010
00002020
00003030
00010000
,
00010000
00000100
00000100
00010000
,
00001000
01000000
01100000
00010000
,
00010000
10000000
10000000
01000000
,
00010000
00001000
00011000
00100000
,
00010000
00100000
00010000
01000000
,
00001000
01000000
00001000
00010000
,
00000100
00000010
00000001
00000100
,
00001000
00010000
02000000
03000000
;

//---------------dance-double - ----------------
#NOTES:
     dance-double:
     :
     Medium:
     7:
     0.252863,0.314597,0.119847,0.175160,0.000000,192.000000,179.000000,13.000000,19.000000,0.000000,0.000000,0.252863,0.314597,0.119847,0.175160,0.000000,192.000000,179.000000,13.000000,19.000000,0.000000,0.000000:
00000000
00000000
00000000
00000000
,
00000000
00000000
00000000
00000000
,
00000000
00000000
00000000
00000000
,
00000000
00000000
00000000
00000000
,
00000000
00000000
01000000
01000000
,
00000000
00001000
00010000
00000000
00000100
00000000
00000100
00000000
,
00001000
00000001
00000100
00000000
00000010
00000000
00000010
00000000
,
00000000
00010000
00001000
00000000
00100000
00000000
00100000
00000000
,
00010000
01000000
00100000
10000000
00000000
00000000
00010000
00000000
,
00100000
02200000
03300000
10000000
,
00010000
00100000
00010000
00000000
01000000
00000000
00001000
00000000
,
00010000
00022000
00033000
00000010
,
00000100
00000001
00001000
00000000
00000100
00000000
00000020
00000000
,
00000030
00001000
00011000
01000000
,
01000000
00001000
00001000
00010000
,
00000100
00000010
00000100
00010000
,
00001000
00000000
00020000
00000000
00030000
00000000
00000000
00001000
,
00010000
00000000
00100000
00000000
00010000
00000000
00000000
00001000
,
00010000
00000000
00000100
00010000
00001000
00000000
00000000
00010000
,
00001000
00000000
00000010
00000000
00001000
00000000
00000000
00010000
,
00001000
00000000
01000000
00001000
00010000
00000000
00000000
00000100
,
00000010
00000000
00000100
00001000
00000001
00000000
00000100
00000000
,
00001000
00000000
00010000
00000000
00001000
00000000
00000000
00100000
,
01000000
00000000
00100000
00010000
10000000
00000000
00100000
00000000
,
00010000
00002000
00003000
00011000
,
00000000
00000200
00000000
00001000
,
00000000
00020300
00000000
00030020
,
00000000
00000200
00000000
00000000
,
00000000
00000000
00000330
00001002
,
00000000
00000023
00000000
00000230
,
00000000
00020300
00000000
00032000
,
00000000
00000000
00000000
00020000
,
00000000
00033000
00011000
00001000
,
00100000
00010000
01000000
00000000
10100000
00000000
01000000
00000000
,
00010000
00100000
01000000
00000000
01100000
00000000
00010000
00000000
,
00001000
00010000
00100000
00000000
10000000
01000000
00010000
00000000
,
01000000
00100000
00001000
00000000
00011000
00000000
00010000
00000000
,
00000010
00001000
00000100
00000000
00000011
00000000
00000100
00000000
,
00001000
00000010
00000100
00000000
00000110
00000000
00001000
00000000
,
00010000
00001000
00000010
00000000
00000001
00000100
00001000
00000000
,
00000100
00000010
00020000
00000000
00030000
00000000
00001000
00000000
,
00001000
00010000
00010000
00000100
,
00000010
00000001
00001001
00000010
,
00000010
00010000
00010000
00001000
,
00100000
00000000
00010000
00000000
10010000
00000000
10000000
01000000
,
10000000
00000000
01000000
00010000
01000000
00000000
00010000
00001000
,
00010000
00000000
00001000
00000100
00001000
00000000
00000100
00000001
,
00001000
00000000
00000100
00010000
00001000
00000000
01000000
00010000
,
10000000
00000000
01000000
00010000
00001000
00000200
00000300
00000000
;

//---------------dance-double - ----------------
#NOTES:
     dance-double:
     :
     Hard:
     10:
     0.333200,0.426953,0.165941,0.230474,0.087580,253.000000,235.000000,18.000000,25.000000,0.000000,0.000000,0.333200,0.426953,0.165941,0.230474,0.087580,253.000000,235.000000,18.000000,25.000000,0.000000,0.000000:
00000000
00000000
00000000
00000000
,
00000000
00000000
00000000
00000000
,
00000000
00000000
00000000
00000000
,
00000000
00000000
00000000
00000000
,
00000000
00000000
00000000
00000000
00000000
00000000
00000000
00000000
01000000
00000000
00000000
01000000
00000000
00000000
01000000
00000000
,
00000000
00000000
00001000
00000000
00000000
00000000
00010000
00000000
00000010
00000000
00000000
00000010
00000000
00000000
00000010
00000000
,
00001000
00000000
00000100
00000000
00000001
00000000
00000100
00000000
00001000
00000000
00000000
00001000
00000000
00000000
00001000
00000000
,
00000000
00000000
00000001
00000000
00000000
00000000
00000100
00000000
00000010
00000000
00001000
00000010
00000000
00000000
00010000
00000000
,
00001000
00000000
00100000
00010000
00000000
00000000
10000000
00000000
00000000
00000000
00000000
00000000
00010000
00000000
00000000
00000000
,
01010000
00000000
00010000
00000000
00200000
00000000
00000000
00000000
00301000
00000000
00000000
00000000
00010000
00000000
00000000
00010000
,
00000100
00010000
00001000
00010000
00100000
00010000
00001000
00000000
,
00011000
00000000
00010000
00000000
00000020
00000000
00000000
00000000
00001030
00000000
00000000
00000000
00000001
00000000
00000000
00000001
,
00000010
00000100
00000010
00000001
00000100
00001000
00000100
00000000
,
00001010
00000000
00000010
00000000
00010000
00000000
00000000
00000000
00001000
00000000
00000000
00000000
02000000
00000000
00000000
03002000
,
00000000
00000000
00023000
00000000
00030200
00000000
00000000
00020300
00000000
00000000
00032000
00000000
00103000
00000000
00000000
00000000
,
00011000
00000100
00011000
00020000
,
00030020
00000000
00000200
00000000
00000330
00000000
00000000
00000001
,
00000010
00000000
00000100
00000010
00000100
00000000
00000000
00000010
,
00001000
00000000
00010000
00001000
00010000
00000000
00000000
00001000
,
00100000
00000000
00010000
00100000
00010000
00000000
00000000
01000000
,
00100000
00000000
00100000
01000000
00010000
00000000
00000000
00100000
,
01000000
00000000
01000000
00000000
10000000
00010000
00000000
00100000
,
00010000
00000000
00010000
00000000
01000000
00001000
00000000
00010000
,
00001000
00000000
00001000
00000000
00010000
00000100
00000000
00010000
,
00001000
00000020
00000130
00002000
,
00000000
00003002
00000000
00000010
,
00000000
00000203
00000000
00002300
,
00000000
00020000
00000000
00003000
,
00000000
00000000
00030000
00021000
,
00000000
00032000
00000000
00203000
,
00000000
00320000
00000000
02030000
,
00000000
00000000
00000000
00000000
00000000
00100000
00200000
00000000
,
00000000
00000000
03300000
00000000
00110000
00000000
00100000
01000000
,
10000000
00000000
00000000
10000000
00100000
00000000
00000000
00000000
01100000
00000000
00000000
00000000
10000000
00000000
01000000
00000000
,
00010000
00000000
00000000
00010000
00001000
00000000
00000000
00000000
00011000
00000000
00000000
00000000
00010000
00000000
00001000
00000000
,
00000010
00000000
00000000
00000010
00000001
00000000
00000000
00000000
00001100
00000000
00000000
00010000
00001000
00000000
00000000
00000000
,
01010000
00000000
00000000
00001000
00010000
00000000
00000000
00000000
00001010
00000000
00001000
00000000
00000010
00000000
00000100
00000000
,
00000001
00000000
00000000
00000001
00000010
00000000
00000000
00000000
00000110
00000000
00000010
00000000
00000001
00000000
00000100
00000000
,
00001000
00000000
00000000
00001000
00010000
00000000
00000000
00000000
00011000
00000000
00010000
00000000
00001000
00000000
00010000
00000000
,
00100000
00000000
00000000
00100000
10000000
00000000
00000000
00000000
01010000
00000000
00000000
00001000
00010000
00000000
00000000
00000000
,
00001100
00000000
00000000
00010000
00002000
00000000
00000000
00000000
00003000
00000000
00000000
00000000
00100000
00000000
00010000
00000000
,
01000000
00001000
00100000
00010000
01000000
00001000
00010000
00000100
,
00001000
00000010
00000100
00000001
00001000
00001100
00000100
00001000
,
00000010
00010000
00000100
00001000
00000010
00010000
00001000
00100000
,
00010000
01000000
00100000
10000000
10010000
00000000
00010000
00100000
,
01000000
00010000
00001000
01000000
00100000
00010000
00001000
00100000
,
00010000
00001000
00000100
00010000
00001000
00000100
00000010
00010000
,
00000100
00001000
00000001
00000100
00000010
00001000
00000001
00000010
,
00000100
00010000
00001000
00010000
00100000
20000000
30000000
00000000
;

//---------------dance-double - ----------------
#NOTES:
     dance-double:
     :
     Challenge:
     13:
     0.521530,0.741551,0.239693,0.239693,0.281179,396.000000,370.000000,26.000000,26.000000,72.000000,0.000000,0.521530,0.741551,0.239693,0.239693,0.281179,396.000000,370.000000,26.000000,26.000000,72.000000,0.000000:
00000000
00000000
00000000
00000000
,
00000000
00000000
00000000
00000000
,
00000000
00000000
00000000
00000000
,
00000000
00000000
00000000
00000000
,
00000000
00000000
00000000
00000000
00000000
00000000
00000000
00000000
00100000
00000000
00000000
00100000
00001000
00000000
00010000
00000000
,
00000100
00000000
00001000
00000000
00000010
00000000
00010000
00000000
00001000
00000000
00000000
00001000
01000000
00000000
00010000
00000000
,
00100000
00000000
10000000
00000000
00100000
00000000
00010000
00000000
01000000
00000000
00000000
01000000
00001000
00000000
00010000
00000000
,
00000010
00000000
00001000
00000000
00000100
00000000
00010000
00000000
00001000
00000000
00100000
00010000
01000000
00000000
00001000
00000000
,
00010000
00000000
00000100
00001000
00000010
00000000
00000100
00000000
MMMMMMMM
00000000
MMMMMMMM
00000000
00002001
00000000
00000000
00000000
,
00003100
00000000
00010000
00000000
00001000
00000000
00002000
00000000
00013000
00000000
00000010
00000000
00001000
00000000
00000000
00000001
,
00000010
00000001
00001000
00000010
00000100
00001000
00010000
00000000
,
00011000
00000000
00010000
00000000
00001000
00000000
00002000
00000000
00103000
00000000
00010000
00000000
10000000
00000000
00000000
10000000
,
00100000
10000000
00010000
00100000
01000000
10000000
00010000
00000000
,
10010000
00000000
00010000
00000000
01000000
00000000
00001000
00000000
00100000
00000000
00010000
00000000
20000000
00000000
00000000
30200000
,
00000000
00000000
00310000
00000000
00002000
00000000
00000000
00003200
00000000
00000000
00000301
00000000
00001000
00000000
00000100
00000000
,
00000010
00000100
00000001
00000100
00000010
00001000
00010000
00100000
,
01000000
00100000
10000000
00010000
20020000
30030000
0001MMMM
00100000
,
01000000
10000000
01000000
00010000
00001000
00000100
MMMM0001
00001000
,
00000001
00001000
00000001
00000010
00001000
00010000
0010MMMM
01000000
,
00100000
01000000
10000000
01000000
00010000
00001000
MMMM0010
00000100
,
00000010
00000100
00000001
00001000
00000100
00000110
MMMM1000
00000100
,
00000010
00000001
00000010
00001000
00010000
00100000
1000MMMM
00010000
,
10000000
00010000
10000000
01000000
00010000
00001000
MMMM0100
00000010
,
00000100
00000010
00000001
00000010
00001000
00010000
0100MMMM
00100000
,
01000000
00000000
00100000
00000000
10000000
00000000
00010000
00000000
00100000
00000000
00000000
00000000
21000000
00000000
00000000
01000000
,
00000000
00000000
01000000
00000000
30020000
00000000
01000000
00000000
00000000
00000000
01030000
00000000
00020000
00000000
00000000
00100000
,
00000000
00000000
00130000
00000000
00002000
00000000
00010000
00000000
00000000
00000000
00013000
00000000
00000200
00000000
00000000
00000010
,
00000000
00000000
00000310
00000000
00000002
00000000
00000100
00000000
00000000
00000000
00000103
00000000
00000020
00000000
00000000
00001000
,
00000000
00000000
00001000
00000000
00000000
00000000
00000001
00000000
00000030
00000000
00000100
00000000
00000102
00000000
00000000
00000100
,
00000000
00000000
00000100
00000000
00002003
00000000
00000100
00000000
00000000
00000000
00003100
00000000
00002000
00000000
00000000
00000010
,
00000000
00000000
00003010
00000000
00020000
00000000
00001000
00000000
00000000
00000000
00031000
00000000
00200000
00000000
00000000
00010000
,
00000000
00000000
00010000
00000000
00000000
00000000
00010000
00000000
00300000
00000000
02000000
00000000
00100000
00000000
00000000
00100000
,
00000000
00000000
03100000
00000000
02200000
00000000
00000000
03300000
10010000
00000000
10000000
00000000
01000000
00000000
00010000
00000000
,
01000000
00000000
10000000
00100000
00010000
00000000
00001000
00000000
00011000
00000000
00010000
00000000
00000100
00000000
00000010
00000000
,
00000100
00000000
00001000
00000010
00000100
00000000
00000001
00000000
00001001
00000000
00000001
00000000
00000010
00000000
00001000
00000000
,
00000010
00000000
00000001
00000100
00000010
00000000
00001000
00000000
00001010
00000000
00010000
00001000
00100000
00000000
00010000
00000000
,
00110000
00000000
00001000
00010000
00000010
00000000
MMMMMMMM
00000000
00001001
00000000
00000001
00000000
00000010
00000000
00001000
00000000
,
00000010
00000000
00000001
00000100
00001000
00000000
00010000
00000000
00011000
00000000
00001000
00000000
00100000
00000000
01000000
00000000
,
00100000
00000000
00010000
01000000
00100000
00000000
10000000
00000000
10010000
00000000
10000000
00000000
01000000
00000000
00010000
00000000
,
01000000
00000000
10000000
00100000
01000000
00000000
00010000
00000000
01010000
00000000
00001000
00010000
00000100
00000000
00001000
00000000
,
00001100
00000000
00010000
00001000
01000000
00000000
00100000
00000000
MMMMMMMM
00000000
MMMMMMMM
00000000
10000000
00000000
00010000
00000000
,
01010000
00000000
00001000
00000000
00100000
00000000
00010000
00000000
00110000
00000000
00001000
00000000
00010000
00000000
00000010
00001000
,
00000010
00000000
00001000
00000100
00000010
00000000
00000001
00000000
00001000
00000000
00000101
00000000
00000001
00000000
00001000
00000000
,
00001010
00000000
00010000
00000000
00000100
00000000
00001000
00000000
00001100
00000000
00010000
00000000
00001000
00000000
01000000
00010000
,
01000000
00000000
00001000
00010000
00001000
00000000
00100000
00000000
00110000
00000000
10010000
00000000
10000000
01000000
10000000
01000000
,
10000000
01000000
10000000
01000000
00100000
00010000
00100000
00010000
00100000
00010000
00100000
00010000
00001000
00000100
00001000
00000100
,
00001000
00000100
00001000
00000100
00000010
00000001
00000010
00000001
00000010
00000001
00000010
00000001
00001000
00000100
00010000
00000010
,
00001000
00000100
00000010
00000001
00000100
00000010
00001000
00000100
00010000
00001000
01000000
00010000
10000000
01000000
00010000
01000000
,
10000000
00100000
01000000
00001000
00010000
00000100
00001000
00000001
00000100
00000000
00000220
00000000
00000330
00000000
00000000
00000000
;
