#TITLE:Amplify;
#SUBTITLE:;
#ARTIST:Ren Zotto;
#TITLETRANSLIT:;
#SUBTITLETRANSLIT:;
#ARTISTTRANSLIT:;
#GENRE:にじさんじ;
#CREDIT:;
#BANNER:Amplify.png;
#BACKGROUND:../bg.png;
#LYRICSPATH:;
#CDTITLE:../cdtitle.png;
#MUSIC:Amplify.ogg;
#OFFSET:1.525000;
#SAMPLESTART:61.959000;
#SAMPLELENGTH:15.000000;
#LASTBEATHINT:1.356250;
#SELECTABLE:YES;
#BPMS:0.000000=155.000000
;
#STOPS:
;
#BGCHANGES:4.000=Amplify.avi=1.000=0=0=0=StretchNoLoop====,
99999=-nosongbg-=1.000=0=0=0 // don't automatically add -songbackground-
;
#KEYSOUNDS:;
#ATTACKS:;

//---------------dance-single - ----------------
#NOTES:
     dance-single:
     :
     Beginner:
     2:
     0.078287,0.158409,0.000000,0.058715,0.000000,56.000000,56.000000,0.000000,6.000000,0.000000,0.000000,0.078287,0.158409,0.000000,0.058715,0.000000,56.000000,56.000000,0.000000,6.000000,0.000000,0.000000:
// measure 0
0000
0000
0000
0000
,  // measure 1
0000
0000
0000
0000
,  // measure 2
0000
0000
0000
0000
,  // measure 3
0000
0000
0000
0000
,  // measure 4
0000
0000
0000
0000
,  // measure 5
0000
0000
0000
0000
,  // measure 6
0000
0000
0000
0000
,  // measure 7
0000
0000
0000
0000
,  // measure 8
0000
0000
0000
0000
,  // measure 9
0001
0000
0000
0000
,  // measure 10
0010
0000
0000
0000
,  // measure 11
0001
0000
0000
0000
,  // measure 12
1000
0000
0000
0000
,  // measure 13
1000
0000
0000
0000
,  // measure 14
0100
0000
0000
0000
,  // measure 15
1000
0000
0000
0000
,  // measure 16
0001
0000
0000
0000
,  // measure 17
0010
0000
0000
0000
,  // measure 18
0000
0000
0000
0000
,  // measure 19
0010
0000
0000
0000
,  // measure 20
0000
0000
0000
0000
,  // measure 21
0100
0000
0000
0000
,  // measure 22
0000
0000
0000
0000
,  // measure 23
0100
0000
0000
0000
,  // measure 24
0000
0000
0000
0000
,  // measure 25
1000
0000
0001
0000
,  // measure 26
1000
0000
0000
0000
,  // measure 27
1000
0000
0000
0000
,  // measure 28
1000
0000
0000
0000
,  // measure 29
0001
0000
1000
0000
,  // measure 30
0001
0000
0000
0000
,  // measure 31
1000
0000
0000
0000
,  // measure 32
1000
0000
0000
0000
,  // measure 33
0020
0000
0000
0000
,  // measure 34
0000
0000
0000
0000
,  // measure 35
0030
0000
0000
0000
,  // measure 36
0000
0000
0000
0000
,  // measure 37
0100
0000
0000
0000
,  // measure 38
0100
0000
0000
0000
,  // measure 39
0002
0000
0000
0000
,  // measure 40
0003
0000
0000
0000
,  // measure 41
0010
0000
0000
0000
,  // measure 42
0010
0000
0000
0000
,  // measure 43
0001
0000
1000
0000
,  // measure 44
0001
0000
0000
0000
,  // measure 45
0010
0000
0000
0000
,  // measure 46
0010
0000
0000
0000
,  // measure 47
0200
0000
0000
0000
,  // measure 48
0300
0000
0000
0000
,  // measure 49
1000
0000
0000
0000
,  // measure 50
1000
0000
0000
0000
,  // measure 51
0010
0000
0100
0000
,  // measure 52
0010
0000
0000
0000
,  // measure 53
1000
0000
0000
0000
,  // measure 54
1000
0000
0000
0000
,  // measure 55
0002
0000
0000
0000
,  // measure 56
0003
0000
0000
0000
,  // measure 57
1000
0000
1000
0000
,  // measure 58
0100
0000
0100
0000
,  // measure 59
1000
0000
1000
0000
,  // measure 60
0002
0000
0000
0003
,  // measure 61
0001
0000
0001
0000
,  // measure 62
0010
0000
0010
0000
,  // measure 63
0001
0000
0001
0000
,  // measure 64
2000
0000
0000
3000
;

//---------------dance-single - ----------------
#NOTES:
     dance-single:
     :
     Easy:
     6:
     0.237657,0.316818,0.019572,0.185932,0.000000,170.000000,168.000000,2.000000,19.000000,0.000000,0.000000,0.237657,0.316818,0.019572,0.185932,0.000000,170.000000,168.000000,2.000000,19.000000,0.000000,0.000000:
// measure 0
0000
0000
0000
0000
,  // measure 1
0000
0000
0000
0000
,  // measure 2
0000
0000
0000
0000
,  // measure 3
0000
0000
0000
0000
,  // measure 4
0000
0000
0000
0000
,  // measure 5
0000
0000
0000
0000
,  // measure 6
0000
0000
0000
0000
,  // measure 7
0000
0000
0000
0000
,  // measure 8
0000
0000
0000
0000
,  // measure 9
1000
1000
0001
0001
,  // measure 10
1000
0001
0100
0010
,  // measure 11
1000
1000
0001
0001
,  // measure 12
0010
0100
0010
0000
,  // measure 13
0001
0001
1000
1000
,  // measure 14
0001
1000
0100
0010
,  // measure 15
0001
0001
1000
1000
,  // measure 16
0010
0100
0010
0000
,  // measure 17
1000
1000
0100
1000
,  // measure 18
0001
0100
0010
0000
,  // measure 19
1000
0100
0010
0000
,  // measure 20
0001
0100
0020
0030
,  // measure 21
1000
1000
0100
1000
,  // measure 22
0001
0100
0010
1000
,  // measure 23
0002
0003
0020
0030
,  // measure 24
0200
0000
0020
0330
,  // measure 25
0001
0001
0010
0001
,  // measure 26
1000
0100
0010
0010
,  // measure 27
0001
0100
0010
0010
,  // measure 28
1000
0100
0020
0030
,  // measure 29
0001
0001
0010
0001
,  // measure 30
1000
0100
0010
0100
,  // measure 31
2000
3000
0002
0000
,  // measure 32
0203
0000
0320
0000
,  // measure 33
2030
0000
0000
0000
,  // measure 34
0000
0000
0000
0000
,  // measure 35
3002
0000
0000
0000
,  // measure 36
0000
0000
0000
0000
,  // measure 37
1003
0000
1000
0000
,  // measure 38
0100
0000
0100
0000
,  // measure 39
0020
0000
0200
0000
,  // measure 40
0330
0000
0000
0000
,  // measure 41
1000
1000
1000
0000
,  // measure 42
0001
0100
1000
0100
,  // measure 43
0001
0001
0010
0000
,  // measure 44
1000
1000
0010
0000
,  // measure 45
0100
0100
0100
0000
,  // measure 46
1000
0001
0010
0100
,  // measure 47
2000
0000
3000
1000
,  // measure 48
0020
0000
0030
0110
,  // measure 49
0001
0001
0001
0000
,  // measure 50
1000
0010
0001
0010
,  // measure 51
1000
1000
0100
0000
,  // measure 52
0001
0001
0100
0000
,  // measure 53
0010
0010
0010
0000
,  // measure 54
0001
1000
0100
0010
,  // measure 55
0002
0000
0003
0001
,  // measure 56
0200
0000
0300
0110
,  // measure 57
1000
1000
0001
0001
,  // measure 58
1000
0001
0010
0100
,  // measure 59
1000
1000
0001
0001
,  // measure 60
0100
0010
0100
0000
,  // measure 61
0001
0001
1000
1000
,  // measure 62
0001
1000
0010
0100
,  // measure 63
0001
0001
1000
1000
,  // measure 64
0100
0010
0200
0300
;

//---------------dance-single - ----------------
#NOTES:
     dance-single:
     :
     Medium:
     8:
     0.332720,0.411863,0.068501,0.254433,0.000000,238.000000,231.000000,7.000000,26.000000,0.000000,0.000000,0.332720,0.411863,0.068501,0.254433,0.000000,238.000000,231.000000,7.000000,26.000000,0.000000,0.000000:
0000
0000
0000
0000
,
0000
0000
0000
0000
,
0000
0000
0000
0000
,
0000
0000
0000
0000
,
0000
0000
0000
0000
,
0000
0000
0000
0000
,
0000
0000
0000
0000
,
0000
0000
0000
0000
,
0000
0000
0000
0000
,
1000
0100
1000
0000
0001
0000
1000
0000
,
0010
0010
0100
0100
,
0001
0100
0001
0000
1000
0000
0001
0000
,
0010
0100
0010
0000
,
0001
0010
0001
0000
1000
0000
0001
0000
,
0100
0100
0010
0010
,
1000
0010
1000
0000
0001
0000
1000
0000
,
0100
0010
0100
0000
,
1000
0000
0001
0000
1000
0100
0010
0000
,
0001
0000
0100
0010
0000
0010
0100
0000
,
1000
0000
0100
0010
0000
0010
0100
0000
,
0001
1000
0100
0000
0020
0000
0030
0000
,
0100
0001
0100
0000
1000
0000
0001
0000
,
1000
0000
0100
0010
0000
0001
0000
2000
,
0000
3100
0002
0103
,
2000
0000
0002
3003
,
0001
0010
0100
0000
1000
0000
0001
0000
,
1000
0100
1000
0010
0000
0100
0001
0000
,
1000
0100
1000
0010
0000
0100
0001
0000
,
1000
0100
1000
0000
0020
0000
0030
0000
,
1000
0010
0100
0000
0001
0000
1000
0000
,
0001
0100
0001
0010
0000
0100
1000
0000
,
0200
0010
0000
0310
,
0100
1000
0001
0000
0100
0010
1000
0000
,
0002
0000
0000
0000
,
0023
0000
0000
0000
,
0230
0000
0000
0000
,
2300
0000
0000
0000
,
3001
0000
0000
0001
0000
0000
0001
0000
,
0100
0000
0000
0100
0000
0000
0100
0000
,
0002
2003
3200
0320
,
0030
0000
0000
0000
,
1000
0001
2010
3001
,
0010
0001
0010
0100
0000
1000
0010
0000
,
1000
1000
0011
1000
,
0010
0100
0010
1000
0000
1000
0100
0000
,
0010
0100
2200
3300
,
1000
0100
0010
0001
0000
1000
0000
0020
,
0000
0000
0001
0000
0030
0000
1000
0001
,
0020
0100
0000
0130
,
1000
0001
2100
3001
,
0100
0001
0100
0010
0000
1000
0100
0000
,
1000
1000
0101
1000
,
0100
0010
0100
1000
0000
1000
0010
0000
,
0100
0010
2020
3030
,
1000
0010
0100
0001
0000
1000
0000
0200
,
0000
0000
0001
0000
0300
0000
1000
0001
,
0200
0010
0000
0310
,
1000
0010
1000
0000
0001
0000
1000
0000
,
0100
0100
0010
0010
,
0001
0010
0001
0000
1000
0000
0001
0000
,
0100
0010
0100
0000
0010
0000
0110
0000
,
0001
0100
0001
0000
1000
0000
0001
0000
,
0010
0010
0100
0100
,
1000
0100
1000
0000
0001
0000
1000
0000
,
0010
0100
0010
0000
2000
0000
3001
0000
;

//---------------dance-single - ----------------
#NOTES:
     dance-single:
     :
     Hard:
     12:
     0.507468,0.570272,0.176146,0.303362,0.004893,363.000000,345.000000,18.000000,31.000000,0.000000,0.000000,0.507468,0.570272,0.176146,0.303362,0.004893,363.000000,345.000000,18.000000,31.000000,0.000000,0.000000:
0000
0000
0000
0000
,
0000
0000
0000
0000
,
0000
0000
0000
0000
,
0000
0000
0000
0000
,
0000
0000
0000
0000
,
0000
0000
0000
0000
,
0000
0000
0000
0000
,
0000
0000
0000
0000
,
0000
0000
0000
0000
,
1000
0100
1000
0100
0010
0100
0010
0100
,
1000
0100
0001
0100
0010
0100
1000
0001
,
1000
0010
1000
0010
0100
0010
0100
0010
,
0001
0010
0100
0001
1000
0000
1001
0000
,
0001
0010
0001
0010
0100
0010
0100
0010
,
0001
0010
1000
0010
0100
0010
0001
1000
,
0001
0100
0001
0100
0010
0100
0010
0100
,
1000
0100
0010
1000
0001
0000
1001
0000
,
1000
0010
0100
0010
1000
0010
1000
0001
,
0010
0000
0000
0000
0000
0000
0000
0000
0100
0000
0000
0000
0000
0000
0000
0000
1000
0000
0000
0000
0000
0000
0000
0000
0020
0030
0000
0000
0000
0000
0000
0000
0000
0000
0000
0000
0000
0000
0000
0000
0020
0030
0000
0000
0000
0000
0000
0000
0001
0000
0000
0000
0000
0000
0000
0000
0100
0000
0000
0000
0000
0000
0000
0000
,
0010
0000
0000
0000
0000
0000
0000
0000
1000
0000
0000
0000
0000
0000
0000
0000
0001
0000
0000
0000
0000
0000
0000
0000
0020
0030
0000
0000
0000
0000
0000
0000
0000
0000
0000
0000
0000
0000
0000
0000
0020
0030
0000
0000
0000
0000
0000
0000
1000
0000
0000
0000
0000
0000
0000
0000
0100
0000
0000
0000
0000
0000
0000
0000
,
0010
0100
1000
0020
0001
0000
1030
0000
,
0001
0010
0001
0010
0100
0010
0001
1000
,
0010
0000
0000
0000
0000
0000
0000
0000
0100
0000
0000
0000
0000
0000
0000
0000
0001
0000
0000
0000
0000
0000
0000
0000
0020
0030
0000
0000
0000
0000
0000
0000
0000
0000
0000
0000
0000
0000
0000
0000
0020
0030
0000
0000
0000
0000
0000
0000
0100
0000
0000
0000
0000
0000
0000
0000
0001
0000
0000
0000
0000
0000
0000
0000
,
2000
3010
0200
0301
,
0020
0000
0000
0000
0100
0000
0000
0000
0130
0000
0010
0000
0001
1000
0001
0000
,
1000
0100
1000
0100
0010
0100
0010
0100
,
1000
0001
1000
0020
0130
0001
1000
0100
,
1000
0001
1000
0020
0130
0001
1000
0100
,
1000
0001
1000
0020
0230
0000
0301
0000
,
0010
0100
0010
0100
1000
0100
1000
0001
,
0100
0001
1000
0020
0130
0001
0010
0001
,
2000
3100
0002
0103
,
1000
0001
1000
0001
0010
0001
0100
0010
,
2000
0000
0000
0000
,
3002
0000
0000
0000
,
0023
0000
0000
0000
,
0230
0000
0000
0000
,
1300
0000
0001
0010
0000
0010
0001
0000
,
1000
0000
0001
0100
0000
0100
0001
0000
,
1000
0100
1000
0100
0010
0100
1000
0000
,
0002
0000
0000
0003
,
1100
0101
2100
3001
,
0100
0010
0100
0010
1000
0010
0100
0001
,
1000
0011
1100
0001
,
0010
0001
0100
0010
1000
0100
1000
0000
,
0101
0110
2001
3100
,
1000
0010
1000
0010
0100
0001
0010
0100
,
2000
0000
0010
0000
3000
0000
0100
1000
,
0002
0000
0103
0010
0100
0010
0100
0000
,
1010
0011
2010
3001
,
0010
0100
0010
0100
1000
0100
0010
0001
,
1000
0101
1010
0001
,
0100
0001
0010
0100
1000
0010
1000
0000
,
0011
0110
2001
3010
,
1000
0100
1000
0100
0010
0001
0100
0010
,
2000
0000
0100
0000
3000
0000
0010
1000
,
0002
0000
0013
0100
0010
0100
0010
0000
,
0001
0100
0001
0100
0010
1000
0010
1000
,
0001
0010
0100
1000
0001
0100
0010
1000
,
0001
0010
0001
0010
0100
0010
0100
0010
,
1000
0010
0001
1000
0010
0100
0010
0000
,
1000
0100
1000
0100
0010
0001
0010
0001
,
1000
0010
0100
0001
1000
0100
0010
0001
,
1000
0010
1000
0010
0100
0010
0100
0010
,
1000
0100
0001
0100
2000
0000
3001
0000
;

//---------------dance-double - ----------------
#NOTES:
     dance-double:
     :
     Hard:
     12:
     0.500478,0.538591,0.137002,0.185932,0.000000,358.000000,344.000000,14.000000,19.000000,0.000000,0.000000,0.500478,0.538591,0.137002,0.185932,0.000000,358.000000,344.000000,14.000000,19.000000,0.000000,0.000000:
00000000
00000000
00000000
00000000
,
00000000
00000000
00000000
00000000
,
00000000
00000000
00000000
00000000
,
00000000
00000000
00000000
00000000
,
00000000
00000000
00000000
00000000
,
00000000
00000000
00000000
00000000
,
00000000
00000000
00000000
00000000
,
00000000
00000000
00000000
00000000
,
00000000
00000000
00000000
00000000
,
10000000
00100000
10000000
00100000
01000000
00010000
01000000
00010000
,
10000000
00010000
01000000
00100000
10000000
00100000
01000000
00010000
,
10000000
01000000
10000000
01000000
00100000
00010000
00100000
00010000
,
00001000
00000100
00000010
00000001
00001000
00000000
00001001
00000000
,
00000001
00000010
00000001
00000010
00000100
00001000
00000100
00001000
,
00000001
00001000
00000100
00000010
00000001
00000010
00000100
00001000
,
00000001
00000100
00000001
00000100
00000010
00001000
00000010
00001000
,
00010000
01000000
00100000
10000000
00010000
00000000
10010000
00000000
,
10000000
01000000
10000000
01000000
00010000
01000000
10000000
01000000
,
00100000
00001000
00010000
00000010
00000000
00000110
00000000
00000100
,
00000010
00010000
00001000
00100000
00000000
01100000
00000000
01000000
,
00100000
00001000
00010000
00000010
00000200
00000000
00000301
00000000
,
00001000
00000100
00001000
00000100
00000001
00000100
00001000
00000100
,
00000010
00000001
00001000
00000010
00000000
00000100
00000001
00001000
,
00000002
00000103
00002000
00013000
,
00002000
00000000
00000010
00000000
00003010
00000001
00001000
00000000
,
00000001
00000100
00000001
00000100
00001000
00000100
00000001
00000100
,
00000010
00010000
00001000
00100000
00000000
01100000
00000000
01000000
,
00100000
00001000
00010000
00000010
00000000
00000110
00000000
00000100
,
00000010
00010000
00001000
00100000
02000000
00000000
13000000
00000000
,
00010000
01000000
00010000
01000000
10000000
01000000
00010000
01000000
,
00100000
10000000
00010000
00100000
00000000
01000000
10000000
00010000
,
20000000
31000000
00020000
00031000
,
00100000
00010000
00100000
00010000
10000000
00100000
01000000
00001000
,
00020000
00000000
00000000
00000000
,
00030200
00000000
00000000
00000000
,
00000320
00000000
00000000
00000000
,
00000032
00000000
00000000
00000000
,
00001003
00000000
00000100
00010000
00000000
00010000
00001000
00000000
,
00100000
00000000
00010000
01000000
00000000
01000000
00001000
00000000
,
00010000
00100000
00010000
00100000
10000000
01000000
00010000
00000000
,
00002000
00000000
00000000
00003000
,
00100000
01000000
00010000
00001000
00010000
01000000
00100000
00010000
,
10000000
00100000
10000000
00100000
01000000
00010000
10000000
01000000
,
00100000
00011000
00000010
00001010
,
00010000
00001000
00010000
00000100
00000010
00000100
00001000
00000000
,
00000010
00001001
00000201
00000310
,
00010000
00001000
00010000
00001000
00100000
01000000
00100000
00010000
,
20000000
00000000
01000000
00000000
30000000
00000000
01000000
00100000
,
00020000
00000000
00130000
00001000
00010000
00000100
00000010
00000000
,
00000100
00000010
00001000
00010000
00001000
00000010
00000100
00001000
,
00000001
00000100
00000001
00000100
00000010
00001000
00000001
00000010
,
00000100
00011000
01000000
01010000
,
00001000
00010000
00001000
00100000
01000000
00100000
00010000
00000000
,
01000000
10010000
10200000
01300000
,
00001000
00010000
00001000
00010000
00000100
00000010
00000100
00001000
,
00000002
00000000
00000010
00000000
00000003
00000000
00000010
00000100
,
00002000
00000000
00003100
00010000
00001000
00100000
01000000
00000000
,
10000000
00100000
10000000
00100000
01000000
00010000
01000000
00010000
,
10000000
00010000
01000000
00100000
10000000
00100000
01000000
00010000
,
10000000
01000000
10000000
01000000
00100000
00010000
00100000
00010000
,
00001000
00000100
00000010
00000001
00001000
00000010
00000100
00000000
,
00000001
00000010
00000001
00000010
00000100
00001000
00000100
00001000
,
00000001
00001000
00000100
00000010
00000001
00000010
00000100
00001000
,
00000001
00000100
00000001
00000100
00000010
00001000
00000010
00001000
,
00010000
01000000
00100000
10000000
00020000
00000000
10030000
00000000
;

//---------------dance-double - ----------------
#NOTES:
     dance-double:
     :
     Easy:
     6:
     0.240453,0.316818,0.058715,0.185932,0.000000,172.000000,166.000000,6.000000,19.000000,0.000000,0.000000,0.240453,0.316818,0.058715,0.185932,0.000000,172.000000,166.000000,6.000000,19.000000,0.000000,0.000000:
00000000
00000000
00000000
00000000
,
00000000
00000000
00000000
00000000
,
00000000
00000000
00000000
00000000
,
00000000
00000000
00000000
00000000
,
00000000
00000000
00000000
00000000
,
00000000
00000000
00000000
00000000
,
00000000
00000000
00000000
00000000
,
00000000
00000000
00000000
00000000
,
00000000
00000000
00000000
00000000
,
00010000
00010000
00001000
00001000
,
00100000
00010000
01000000
00001000
,
00010000
00010000
00001000
00001000
,
00010000
00000100
00000010
00000000
,
00001000
00001000
00010000
00010000
,
00000100
00001000
00000010
00010000
,
00001000
00001000
00010000
00010000
,
00001000
00100000
01000000
00000000
,
10000000
00100000
00010000
00100000
,
10000000
01000000
00100000
00000000
,
00010000
01000000
00100000
00000000
,
00010000
00001000
00000020
00000030
,
00000001
00000010
00001000
00000010
,
00000001
00000100
00000010
00001000
,
00000002
00000003
00000020
00000030
,
00000200
00000000
00000020
00000330
,
00000001
00000010
00001000
00000010
,
00000001
00000100
00000010
00000000
,
00001000
00000100
00000010
00000000
,
00001000
00010000
00200000
00300000
,
10000000
00100000
00010000
00100000
,
10000000
01000000
00100000
01000000
,
20000000
30000000
00020000
00000000
,
02030000
00000000
03200000
00000000
,
20300000
00000000
00000000
00000000
,
30000000
00000000
00000000
00000000
,
00020000
00000000
00000000
00000000
,
00030000
00000000
00000000
00000000
,
00100000
00000000
00100000
00000000
,
00001000
00000000
00001000
00000000
,
00020000
00000000
00002000
00000000
,
00033000
00000000
00000000
00000000
,
00100000
00010000
10010000
00000000
,
00010000
01000000
00100000
10000000
,
00010000
00100000
00100000
00000000
,
10000000
00100000
00100000
00000000
,
01000000
10000000
10010000
00000000
,
10000000
00100000
01000000
00010000
,
00200000
00000000
00300000
00100000
,
00002000
00000000
00003000
00011000
,
00000100
00001000
00001001
00000000
,
00001000
00000010
00000100
00000001
,
00001000
00000100
00000100
00000000
,
00000001
00000100
00000100
00000000
,
00000010
00000001
00001001
00000000
,
00000001
00000100
00000010
00001000
,
00000200
00000000
00000300
00000100
,
00020000
00000000
00030000
00011000
,
00001000
00001000
00010000
00010000
,
00000100
00001000
00000010
00010000
,
00001000
00001000
00010000
00010000
,
00001000
00100000
01000000
00000000
,
00010000
00010000
00001000
00001000
,
00100000
00010000
01000000
00001000
,
00010000
00010000
00001000
00001000
,
00010000
00000100
00000020
00000030
;

//---------------dance-double - ----------------
#NOTES:
     dance-double:
     :
     Medium:
     9:
     0.357884,0.411863,0.058715,0.293577,0.000000,256.000000,250.000000,6.000000,30.000000,0.000000,0.000000,0.357884,0.411863,0.058715,0.293577,0.000000,256.000000,250.000000,6.000000,30.000000,0.000000,0.000000:
00000000
00000000
00000000
00000000
,
00000000
00000000
00000000
00000000
,
00000000
00000000
00000000
00000000
,
00000000
00000000
00000000
00000000
,
00000000
00000000
00000000
00000000
,
00000000
00000000
00000000
00000000
,
00000000
00000000
00000000
00000000
,
00000000
00000000
00000000
00000000
,
00000000
00000000
00000000
00000000
,
00100000
00010000
00100000
00000000
00001000
00000000
00010000
00000000
,
00100000
01000000
00100000
00000000
00010000
00001000
00010000
00000000
,
00000100
00000010
00000100
00000000
00001000
00000000
00000001
00000000
,
00001000
00000100
00000001
00000100
00000020
00000000
00000030
00000000
,
00000100
00001000
00000100
00000000
00010000
00000000
00001000
00000000
,
00000100
00000010
00000100
00000000
00001000
00010000
00001000
00000000
,
00100000
01000000
00100000
00000000
00010000
00000000
10000000
00000000
,
00010000
01000000
00100000
10000000
02000000
00000000
03000000
00000000
,
00100000
00000000
00100000
00000000
01000000
00010000
00001000
00000000
,
00010000
00000000
00001000
00100000
00000000
00010000
01000000
00000000
,
00001000
00000000
00010000
00000010
00000000
00001000
00000100
00000000
,
00010000
00001000
01000000
00000000
00200000
00000000
00300000
00000000
,
00010000
00000000
00010000
00000000
00001000
00000010
00000100
00000000
,
00000010
00000001
00001000
00000010
00000000
00000100
00000000
00000002
,
00000000
00001003
00002000
00003100
,
00020000
00000000
00002000
00033000
,
00001000
00010000
00100000
00000000
10000000
00000000
00100000
00000000
,
01000000
00001000
00010000
00000010
00000000
00001000
00000100
00000000
,
00000100
00010000
00001000
00100000
00000000
00010000
01000000
00000000
,
01000000
00001000
00010000
00000000
00000020
00000000
00000030
00000000
,
00010000
00001000
00000010
00000000
00000001
00000000
00000010
00000000
,
00000100
00010000
00001000
00100000
00000000
00010000
01000000
00000000
,
00002000
00010000
00000000
00013000
,
00001000
00010000
00000100
00000000
00001000
00000010
00000100
00000000
,
00000002
00000000
00000000
00000000
,
00000023
00000000
00000000
00000000
,
00002030
00000000
00000000
00000000
,
00023000
00000000
00000000
00000000
,
00031000
00000000
00000000
00001000
00000000
00000000
00001000
00000000
,
00010000
00000000
00000000
00010000
00000000
00000000
00010000
00000000
,
00002000
00203000
02300000
23000000
,
30000000
00000000
00000000
00000000
,
01000000
01000000
20010000
30100000
,
10000000
01000000
00100000
00010000
00000000
10000000
01000000
00000000
,
10000000
00010000
00110000
00001000
,
00010000
00001000
00010000
00000100
00000000
00000010
00000001
00000000
,
00001000
00000001
00000220
00000330
,
00000001
00000100
00000010
00001000
00000000
00000001
00000000
00000020
,
00000000
00000000
00000200
00000000
00000330
00000000
00001000
00000010
,
00020000
00000000
00031000
00010000
00000000
00010000
00000100
00000000
,
00000010
00000010
00001002
00000103
,
00000001
00000010
00000100
00001000
00000000
00000001
00000010
00000000
,
00000001
00001000
00001100
00010000
,
00001000
00010000
00001000
00100000
00000000
01000000
10000000
00000000
,
00010000
10000000
02200000
03300000
,
10000000
00100000
01000000
00010000
00000000
10000000
00000000
02000000
,
00000000
00000000
00200000
00000000
03300000
00000000
00010000
01000000
,
00002000
00000000
00013000
00001000
00000000
00001000
00100000
00000000
,
00100000
00010000
00100000
00000000
00001000
00000000
00010000
00000000
,
00100000
01000000
00100000
00000000
00010000
00001000
00010000
00000000
,
00000100
00000010
00000100
00000000
00001000
00000000
00000001
00000000
,
00001000
00000100
00000001
00000100
00000000
00000100
00000010
00000000
,
00000100
00001000
00000100
00000000
00010000
00000000
00001000
00000000
,
00000100
00000010
00000100
00000000
00001000
00010000
00001000
00000000
,
00100000
01000000
00100000
00000000
00010000
00000000
10000000
00000000
,
00010000
01000000
00100000
10000000
02000000
00000000
03100000
00000000
;
