#TITLE:朱い花;
#SUBTITLE:;
#ARTIST:the Indigo;
#TITLETRANSLIT:Akai Hana;
#SUBTITLETRANSLIT:;
#ARTISTTRANSLIT:The Indigo;
#GENRE:Anime/Game;
#CREDIT:;
#BANNER:Akai Hana.png;
#BACKGROUND:Akai Hana-bg.png;
#LYRICSPATH:;
#CDTITLE:../cdtitle.png;
#MUSIC:Akai Hana.ogg;
#OFFSET:-0.309000;
#SAMPLESTART:6.243000;
#SAMPLELENGTH:15.000000;
#SELECTABLE:YES;
#BPMS:0.000000=91.000000
;
#STOPS:
;
#BGCHANGES:-99.000=../bg.avi=1.000=0=0=1=====,
99999=-nosongbg-=1.000=0=0=0 // don't automatically add -songbackground-
;
#KEYSOUNDS:;
#ATTACKS:;

//---------------dance-single - ----------------
#NOTES:
     dance-single:
     :
     Beginner:
     1:
     0.049299,0.051764,0.000000,0.094117,0.000000,33.000000,33.000000,0.000000,9.000000,0.000000,0.000000,0.049299,0.051764,0.000000,0.094117,0.000000,33.000000,33.000000,0.000000,9.000000,0.000000,0.000000:
0000
0000
0000
0000
,
0000
0000
0000
0000
,
0000
0010
0000
0000
,
0100
0000
0000
0020
,
0000
0000
0030
0000
,
0000
0002
0000
0000
,
0003
0000
0000
2000
,
0000
0000
3000
0000
,
0000
0010
0000
0000
,
0100
0000
0000
0020
,
0000
0000
0030
0000
,
0000
2000
0000
0000
,
3000
0000
0000
0002
,
0000
0000
0003
0000
,
0000
1000
0000
0000
,
0001
0000
0000
0010
,
0000
0000
1000
0000
,
0000
0001
0000
0000
,
0100
0000
0000
1000
,
0000
0000
0001
0000
,
0000
1000
0000
0000
,
0100
0000
0000
0010
,
0000
0000
0001
0000
,
0000
0001
0000
0000
,
0100
0000
0000
0010
,
0000
0000
1000
0000
,
0000
0001
0000
0000
,
0001
0000
0000
1000
,
0000
0000
1000
0000
,
0000
0002
0000
0000
,
0003
0000
0000
2000
,
0000
0000
3000
0000
,
0000
0020
0000
0000
,
0030
0000
0000
0000
;

//---------------dance-single - ----------------
#NOTES:
     dance-single:
     :
     Easy:
     2:
     0.097104,0.103528,0.000000,0.198691,0.000000,65.000000,65.000000,0.000000,19.000000,0.000000,0.000000,0.097104,0.103528,0.000000,0.198691,0.000000,65.000000,65.000000,0.000000,19.000000,0.000000,0.000000:
0000
0000
0000
0000
,
0000
0000
0000
0000
,
0000
0000
1000
0000
0000
0100
0000
0000
,
0001
0000
0000
0010
0000
0000
2000
0000
,
0000
0002
0000
0000
3003
0000
0000
0000
,
0000
0000
0002
0000
0000
2000
0000
0000
,
3003
0000
0000
1000
0000
0000
0200
0000
,
0000
0020
0000
0000
0330
0000
0000
0000
,
0000
0000
0001
0000
0000
0100
0000
0000
,
1000
0000
0000
0010
0000
0000
0002
0000
,
0000
2000
0000
0000
3003
0000
0000
0000
,
0000
0000
2000
0000
0000
0002
0000
0000
,
3003
0000
0000
0001
0000
0000
0200
0000
,
0000
0020
0000
0000
0330
0000
0000
0000
,
0000
0000
1000
0000
0000
0001
0000
0000
,
0020
0000
0000
0030
0000
0000
0100
0000
,
0000
1000
0000
0000
0002
0000
0000
0003
,
0000
0000
1000
0000
0000
0001
0000
0000
,
0200
0000
0000
0300
0000
0000
0010
0000
,
0000
1000
0000
0000
0002
0000
0000
0003
,
0000
0000
1000
0000
0000
0100
0000
0000
,
0010
0000
0000
0001
0000
0000
0001
0000
,
0000
0100
0000
0000
0010
0000
0000
1000
,
0000
0000
0001
0000
0000
0010
0000
0000
,
0100
0000
0000
1000
0000
0000
1000
0000
,
0000
0010
0000
0000
0100
0000
0000
0001
,
0000
0000
1000
0000
0000
0001
0000
0000
,
2000
0000
0000
3000
0000
0000
0001
0000
,
0000
1000
0000
0000
0002
0000
0000
0003
,
0000
0000
1000
0000
0000
0010
0000
0000
,
0001
0000
0000
0100
0000
0000
1000
0000
,
0000
0100
0000
0000
0001
0000
0000
0010
,
0000
2000
0000
0000
,
3000
0000
0000
0000
;

//---------------dance-single - ----------------
#NOTES:
     dance-single:
     :
     Medium:
     5:
     0.219606,0.241566,0.000000,0.209148,0.000000,147.000000,147.000000,0.000000,20.000000,0.000000,0.000000,0.219606,0.241566,0.000000,0.209148,0.000000,147.000000,147.000000,0.000000,20.000000,0.000000,0.000000:
0000
0000
0000
0000
,
0000
0000
0000
0000
,
0000
0000
1000
0000
1000
0001
0000
0001
,
1000
0000
1000
0010
0000
0010
0100
0000
,
0100
0002
0000
0000
1003
0000
1000
0002
,
0000
0000
1003
0000
1000
0200
0000
0000
,
0310
0000
0010
0001
1000
0001
1000
0000
,
1000
0020
0000
0000
1030
0000
1000
0001
,
0010
0100
1000
0000
1000
0001
0000
0001
,
1000
0000
1000
0100
0000
0100
0010
0000
,
0010
0002
0000
0000
1003
0000
1000
0002
,
0000
0000
1003
0000
1000
0020
0000
0000
,
0130
0000
0100
0001
1000
0001
1000
0000
,
1000
0200
0000
0000
1300
0000
1000
0001
,
0100
0010
1000
0000
1000
0100
0000
0100
,
0010
0001
0010
0001
0000
0001
1000
0000
,
1000
0010
0100
0001
0020
0000
0000
0130
,
0000
0000
0100
1000
0001
1000
0000
1000
,
0010
0000
0010
0100
0001
1000
0001
0000
,
0001
2000
0000
0000
3002
0000
0000
2003
,
0000
0000
3001
0000
0010
0100
0000
1000
,
0001
0000
1000
0010
0000
0000
1000
0000
,
0001
0010
0000
1000
0010
0000
0001
1000
,
0000
0000
0001
0000
0100
0010
0000
1000
,
0001
0000
1000
0100
0000
0000
1000
0000
,
0001
0100
0000
1000
0100
0000
0001
1000
,
0001
1000
0001
0000
0010
1000
0000
0010
,
0002
0000
0000
1003
0000
0001
1000
0000
,
0010
0001
0000
0010
2000
0000
0000
3001
,
0000
1000
0002
0000
0000
0023
0000
0000
,
0230
0000
0000
1300
0000
1000
0001
0000
,
0001
0200
0000
0000
0320
0000
0000
1030
,
0000
1000
0002
0000
0000
0000
0000
0000
,
0003
0000
0000
0000
;

//---------------dance-single - ----------------
#NOTES:
     dance-single:
     :
     Hard:
     8:
     0.313722,0.293330,0.000000,0.407839,0.000000,210.000000,210.000000,0.000000,39.000000,0.000000,0.000000,0.313722,0.293330,0.000000,0.407839,0.000000,210.000000,210.000000,0.000000,39.000000,0.000000,0.000000:
0000
0000
0000
0000
,
0000
0000
0000
0000
,
0000
0000
0100
0010
0010
1000
0001
0001
,
0010
1000
1000
0010
0001
0001
2000
0000
,
3010
0002
0000
0000
0023
0000
1030
0001
,
0010
0100
2000
0000
3001
0020
0000
0000
,
0230
0000
1300
0010
0100
0001
2000
0000
,
0001
3002
0000
1000
2003
0000
0001
3001
,
0010
1000
0010
0100
0100
1000
0001
0001
,
0100
1000
1000
0100
0001
0001
2000
0000
,
3100
0002
0000
0000
0203
0000
1300
0001
,
0100
0010
2000
0000
3001
0200
0000
0000
,
0320
0000
1030
0100
0010
0001
2000
0000
,
0001
3002
0000
1000
2003
0000
0001
3001
,
0100
1000
0200
0000
0301
1000
0100
0010
,
0001
1000
0001
0010
0000
0010
0200
0000
,
1300
0001
0100
0010
2000
0000
0001
3001
,
1000
0001
0010
0100
1000
0002
0000
1003
,
0020
0000
1030
0100
0010
0001
2000
0000
,
0001
3002
0000
0100
0203
0000
0010
0310
,
1000
0001
1000
0100
0001
0100
1000
0010
,
0100
0010
1000
0002
0010
0013
0100
1000
,
0010
0001
0010
1000
0100
0010
0100
2000
,
0001
3001
0001
0010
1000
0010
0001
0100
,
0010
0100
0001
2000
0100
3100
0010
0001
,
0100
1000
0100
0001
0010
0100
0010
0002
,
1000
1003
1000
0100
0001
0100
1000
0010
,
0002
0010
0013
1000
0100
0010
0001
0100
,
1000
0100
0001
0010
2000
0010
3010
0001
,
0100
0010
2000
0100
0100
3002
0100
0100
,
2003
0010
0010
3100
0001
0100
2000
0010
,
0010
3002
0010
0010
2003
0100
0100
3010
,
0001
0010
2000
0000
0000
0000
0000
0000
,
3000
0000
0000
0000
;

//---------------dance-single - ----------------
#NOTES:
     dance-single:
     :
     Challenge:
     11:
     0.460126,0.448623,0.000000,0.334637,0.350323,308.000000,308.000000,0.000000,32.000000,0.000000,0.000000,0.460126,0.448623,0.000000,0.334637,0.350323,308.000000,308.000000,0.000000,32.000000,0.000000,0.000000:
// measure 0
0000
0000
0000
0000
,  // measure 1
0000
0000
0000
0000
,  // measure 2
0000
0000
0000
0000
0000
0000
1000
0000
0000
0100
0000
0010
0100
0000
0000
0001
0000
0000
0100
0000
0010
0100
0000
0000
,  // measure 3
1000
0000
0000
0010
0000
0100
0010
0000
0000
0002
0000
0000
0023
0000
0000
2030
0000
0000
3100
0000
0000
0010
0000
1000
,  // measure 4
0010
0000
0000
0200
0000
0000
1000
0000
0000
1300
0000
0000
0010
0000
0000
0100
0000
1000
0100
0000
0000
0020
0000
0000
,  // measure 5
1000
0000
0000
1030
0000
0000
0100
0000
0000
0010
0000
0001
1000
0000
0000
0020
0000
0000
0100
0000
0000
0130
0000
0000
,  // measure 6
0010
0000
0000
0100
0000
0001
1000
0000
0000
0200
0000
0000
0010
0000
0000
0310
0000
0000
0001
0000
0000
0100
0000
0001
,  // measure 7
0100
0000
0000
0010
0000
0000
1000
0000
0010
1000
0000
0000
0001
0000
0000
0010
0000
0001
0010
0000
0000
0200
0000
0000
,  // measure 8
2300
0000
0000
3020
0000
0000
1030
0000
0000
0010
0000
0100
0010
0000
0000
0001
0000
0000
0010
0000
0100
0010
0000
0000
,  // measure 9
1000
0000
0000
0100
0000
0010
0100
0000
0000
0002
0000
0000
0203
0000
0000
2300
0000
0000
3010
0000
0000
0100
0000
1000
,  // measure 10
0100
0000
0000
0020
0000
0000
1000
0000
0000
1030
0000
0000
0100
0000
0000
0010
0000
1000
0010
0000
0000
0200
0000
0000
,  // measure 11
1000
0000
0000
1300
0000
0000
0010
0000
0000
0100
0000
0001
1000
0000
0000
0200
0000
0000
0010
0000
0000
0310
0000
0000
,  // measure 12
0100
0000
0000
0010
0000
0001
1000
0000
0000
0020
0000
0000
0100
0000
0000
0130
0000
0000
0001
0000
0000
0010
0000
0001
,  // measure 13
0010
0000
0000
0100
0000
0000
1000
0000
0100
1000
0000
0000
0001
0000
0000
0100
0000
0001
0100
0000
0000
0020
0000
0000
,  // measure 14
2030
0000
0000
3200
0000
0000
0310
0000
0000
0100
0000
1000
0001
0000
0000
2000
0000
0000
0010
0000
0000
3010
0000
0000
,  // measure 15
0100
0000
0000
0010
0000
1000
0100
0000
0000
0020
0000
0000
0001
0000
0000
0031
0000
0000
1000
0000
0000
0100
0000
1000
,  // measure 16
0010
0000
0000
0200
0000
0000
0001
0000
0000
0301
0000
0000
0010
0000
0000
0100
0000
0001
0100
0000
0000
2000
0000
0000
,  // measure 17
0001
0000
0000
3001
0000
0000
1000
0000
0000
0010
0000
0100
0010
0000
0000
2000
0000
0000
0100
0000
0000
3100
0000
0000
,  // measure 18
0001
0000
0000
0100
0000
0010
0100
0000
0000
2000
0000
0000
0010
0000
0000
3010
0000
0000
0100
0000
0000
0010
0000
0010
,  // measure 19
1000
0000
0000
0100
0000
0000
0010
0000
0010
0001
0000
0000
0100
0000
0000
0010
0000
0010
0001
0000
0000
0010
0000
1000
,  // measure 20
0100
0000
0100
0010
0000
0010
0001
0000
0000
0100
0000
0100
0010
0000
0000
1000
0000
0000
0100
0000
0100
0010
0000
0000
,  // measure 21
0100
0000
0000
1000
0000
1000
0010
0000
0000
0200
0000
0000
0001
0000
0000
0301
0000
0000
0100
0000
0000
0001
0000
0001
,  // measure 22
0010
0000
0000
0100
0000
0000
1000
0000
1000
0010
0000
0000
0100
0000
0000
0010
0000
0010
1000
0000
0000
0200
0000
0000
,  // measure 23
0010
0000
0000
0310
0000
0000
0001
0000
0000
0010
0000
0010
0100
0000
0000
1000
0000
0000
0010
0000
0010
0100
0000
0000
,  // measure 24
0010
0000
0000
1000
0000
1000
0100
0000
0000
0020
0000
0000
0001
0000
0000
0031
0000
0000
0010
0000
0000
0001
0000
0001
,  // measure 25
0100
0000
0000
0010
0000
0000
1000
0000
1000
0100
0000
0000
0010
0000
0000
0100
0000
0100
1000
0000
0000
0020
0000
0000
,  // measure 26
0100
0000
0000
0130
0000
0000
0001
0000
0000
0010
0000
0010
1000
0000
0000
0001
0000
0000
0100
0000
0100
1000
0000
0000
,  // measure 27
0010
0000
0000
0001
0000
0001
0010
0000
0000
1000
0000
0100
0010
0000
0001
0020
0000
0000
0031
0000
0000
0100
0000
0100
,  // measure 28
1000
0000
0000
0001
0000
0000
0010
0000
0010
1000
0000
0000
0100
0000
0000
0001
0000
0001
0100
0000
0000
1000
0000
0001
,  // measure 29
0100
0000
0010
1000
0000
0100
0010
0000
0000
0001
0000
0001
0010
0000
0000
1000
0000
0000
0010
0000
0010
0001
0000
0000
,  // measure 30
0100
0000
0000
1000
0000
1000
0100
0000
0000
0001
0000
0001
0010
0000
0010
0100
0000
0100
1000
0000
0000
0001
0000
0001
,  // measure 31
0100
0000
0000
1000
0000
0000
0100
0000
0100
0001
0000
0000
0010
0000
0000
1000
0000
1000
0010
0000
0000
0001
0000
0001
,  // measure 32
0100
0000
0100
0010
0000
0010
2000
0000
0000
0000
0000
0000
0000
0000
0000
0000
0000
0000
0000
0000
0000
0000
0000
0000
,  // measure 33
3000
0000
0000
0000
;
