#TITLE:Acid Rain;
#SUBTITLE:;
#ARTIST:Qlarabelle & Yuta Imai;
#TITLETRANSLIT:;
#SUBTITLETRANSLIT:;
#ARTISTTRANSLIT:;
#GENRE:J-Music;
#CREDIT:;
#BANNER:Acid Rain.png;
#BACKGROUND:Acid Rain-bg.png;
#LYRICSPATH:;
#CDTITLE:../cdtitle.png;
#MUSIC:Acid Rain.ogg;
#OFFSET:1.499000;
#SAMPLESTART:48.000000;
#SAMPLELENGTH:15.000000;
#LASTBEATHINT:1.330667;
#SELECTABLE:YES;
#BPMS:0.000000=160.000000
,108.000000=80.000000
,109.000000=160.000000
,121.000000=80.000000
,123.000000=160.000000
,196.000000=80.000000
,198.000000=160.000000
,210.000000=80.000000
,212.000000=160.000000
,224.000000=80.000000
;
#STOPS:32.000000=1.125000,
93.000000=1.125000,
167.000000=1.125000
;
#BGCHANGES:-99.000=../bg.avi=1.000=0=0=1=====,
99999=-nosongbg-=1.000=0=0=0 // don't automatically add -songbackground-
;
#KEYSOUNDS:;
#ATTACKS:;

//---------------dance-single - ----------------
#NOTES:
     dance-single:
     :
     Beginner:
     4:
     0.169953,0.260753,0.051279,0.092302,0.000000,116.000000,111.000000,5.000000,9.000000,0.000000,0.000000,0.169953,0.260753,0.051279,0.092302,0.000000,116.000000,111.000000,5.000000,9.000000,0.000000,0.000000:
0000
0000
0000
0000
,
0000
0000
0000
0000
,
0000
0000
0000
0000
,
0000
0000
0000
0000
,
0000
0000
0000
0000
,
1000
0000
1000
0000
,
0001
0000
0001
0000
,
1000
0000
0001
0000
,
1001
0220
0000
0000
,
0000
0330
0000
0000
,
0000
2002
0000
0000
,
0000
3003
0000
0000
,
0000
1000
0000
0100
,
0000
1000
0000
0100
,
0000
0001
0000
0100
,
0000
1000
0000
0000
,
0000
0001
0000
0010
,
0000
0100
0000
1000
,
0000
0100
0000
0010
,
0000
0001
0000
1000
,
0000
0010
0010
0010
,
0000
0100
0100
0100
,
0000
0020
0000
0000
,
0000
0030
0100
0000
,
0100
0000
0100
0000
,
0001
0100
0001
0000
,
0001
0000
0001
0000
,
0000
0010
0000
0010
,
0000
0100
0000
1000
,
0100
1000
0000
1000
,
0000
0001
0000
0010
,
0010
0010
0000
0001
,
0001
0001
0000
1000
,
0000
0010
0000
1000
,
0000
0000
0000
0100
,
0100
0100
0000
1000
,
1000
1000
0000
0001
,
0000
0100
0000
0001
,
0000
0000
0000
0002
,
0000
0003
0000
0200
,
0000
0300
0000
0020
,
0000
0000
0000
0030
,
0100
0100
0100
0100
,
0001
0001
0001
0000
,
0010
0010
0010
0010
,
0100
0000
0110
0000
,
1000
1000
1000
1000
,
0010
0010
0010
0000
,
0001
0001
0001
0002
,
0003
0000
0010
0010
,
0010
0000
1000
1000
,
1000
0000
0001
0000
,
0010
0000
0001
0000
,
0100
0100
0100
0000
,
0001
0001
0001
0000
,
1000
0000
0100
0000
,
1000
0000
1001
0000
;

//---------------dance-single - ----------------
#NOTES:
     dance-single:
     :
     Easy:
     8:
     0.335510,0.463561,0.420487,0.184604,0.000000,229.000000,188.000000,41.000000,18.000000,0.000000,0.000000,0.335510,0.463561,0.420487,0.184604,0.000000,229.000000,188.000000,41.000000,18.000000,0.000000,0.000000:
0000
0000
0000
0000
,
0000
0000
0000
0000
,
0000
0000
0000
0000
,
0000
0000
0000
0000
,
0000
0000
0000
0000
,
1000
1000
0001
0001
,
0010
0010
0100
0100
,
1000
0010
0001
0100
,
1001
0022
0000
0000
,
0033
0110
0000
0000
,
0000
2002
0000
0000
,
3003
1010
0000
0010
,
0010
1000
1000
0001
,
0001
0100
0100
0010
,
0010
1000
0100
0001
,
0100
1000
1000
0001
,
0000
1000
1000
1000
,
1000
0010
0010
0010
,
0010
0100
0100
0100
,
0100
0001
0001
0001
,
0001
1000
0100
0001
,
0100
1000
0010
0001
,
0010
2000
0000
0002
,
3003
1001
0100
0100
,
0001
0001
0100
0001
,
0100
0110
1000
1000
,
0100
0100
1000
0001
,
2000
3000
0010
0000
0010
0000
0100
0000
,
0100
0010
0100
0010
,
1010
0001
0001
0010
,
1000
0100
0000
0001
,
0101
1000
1100
0001
,
0100
0010
0110
0001
,
0011
1000
1010
0010
,
0100
0010
0000
1000
,
1100
0001
0101
1000
,
0100
0000
0010
0010
0001
0000
1000
0000
,
1100
0001
0100
0020
,
0000
0000
0030
0220
,
0000
0000
0330
0202
,
0303
2200
3300
0001
,
0010
1000
0200
0300
,
0011
0011
1100
1100
,
1001
0000
0100
0000
0110
0000
0001
0001
,
0100
1100
1010
1010
,
0110
0000
0001
0000
1000
0100
1000
0000
,
1100
1100
0011
0011
,
1001
0000
0010
0000
0110
0000
1000
1000
,
0010
0011
0101
2002
,
3003
0000
1000
1100
,
1000
0010
1000
0000
0001
0000
0100
0000
,
2000
0100
3000
0000
0001
0010
0100
0000
,
1000
0001
0100
0000
,
0001
0000
0101
0000
0001
0010
0001
0000
,
1000
0000
0100
0000
0001
0100
1000
0000
,
1000
0010
0100
0000
0001
0000
1000
0000
,
0100
0000
0110
0000
;

//---------------dance-single - ----------------
#NOTES:
     dance-single:
     :
     Medium:
     10:
     0.416092,0.463561,0.389720,0.225627,0.020512,284.000000,246.000000,38.000000,22.000000,0.000000,0.000000,0.416092,0.463561,0.389720,0.225627,0.020512,284.000000,246.000000,38.000000,22.000000,0.000000,0.000000:
0000
0000
0000
0000
,
0000
0000
0000
0000
,
0000
0000
0000
0000
,
0000
0000
0000
0000
,
0000
0000
0000
0000
,
1000
0000
1100
0000
0001
0100
0001
0000
,
1000
0010
1000
0000
0001
0010
0001
0000
,
1000
0100
0010
0000
0001
0100
0010
0000
,
0110
2002
0000
0000
,
3003
0000
0000
0000
0100
0000
0000
0100
0000
0000
0010
0000
0000
0000
0000
0000
,
0100
0220
0000
0000
,
0330
0000
0000
0000
1001
0000
0000
0000
0000
0000
0000
0000
1000
0000
0000
1000
,
0000
0001
0100
0010
1000
0000
0001
0000
,
1001
0000
1000
0100
0001
0000
0100
0000
,
0110
0000
0010
0001
0010
0000
0100
1000
,
0100
0001
0100
1000
,
1001
0000
0001
0100
1000
0000
0100
0000
,
0001
0000
1000
0010
0001
0000
0010
0000
,
1000
0000
0001
0010
1000
0000
0010
0000
,
0001
0000
1000
0100
0001
0000
0100
0000
,
1000
0000
0001
0100
0001
0100
0010
0100
,
0010
0000
1000
0100
1000
0100
0010
0100
,
0010
0000
0001
0010
0100
0000
1000
0010
,
0100
0001
1100
0010
,
1100
0001
0100
0100
,
0010
0001
1000
0100
0110
0000
0001
0000
,
0110
1000
0100
0001
,
0200
0300
0200
0300
0011
0000
0000
0000
0100
0000
0000
0000
0011
0000
0000
0000
,
0100
1000
0010
0000
0100
0000
1000
0100
,
0001
0100
0020
0030
2000
3000
0002
0003
,
0020
0030
0100
0000
0000
0000
1000
0000
,
0011
0000
1000
0010
0001
0000
0010
1000
,
0010
0000
1000
0100
0010
0001
0100
0000
,
0110
0000
0010
0100
0001
0000
1000
0100
,
0010
0001
2000
0000
3000
0000
0001
0000
,
1010
0000
0001
0010
1000
0000
0010
0001
,
0010
0000
0001
0100
0010
1000
0100
0000
,
0110
0000
0010
0100
1000
0000
0010
0100
,
0010
0100
0002
0000
1003
0000
2002
0000
,
0000
0000
3003
0202
,
0303
0000
0000
0000
2020
0000
0000
0000
3030
0000
0000
0000
0001
0000
0000
0010
,
0000
0000
0100
0000
0000
1000
0000
0000
0002
0000
0000
0000
1003
0000
0000
0000
,
1001
0101
1100
1100
,
1000
0000
0010
0000
0110
0000
0001
0100
,
0001
0010
1100
1001
,
0110
0000
0200
0300
0001
0001
1000
0000
,
1001
1010
0011
0011
,
0001
0000
0100
0000
0110
0000
1000
0010
,
1000
0100
0011
2002
,
3003
0000
1000
0100
,
0001
0100
1000
0000
0001
0000
0010
0000
,
0100
0100
1000
0000
0001
0010
0100
0000
,
1000
0000
0001
0100
0001
0000
0100
1001
,
0001
0000
0010
0000
1000
0010
0001
0000
,
1000
0000
0100
0000
0010
0010
0001
0000
,
1000
0000
0100
0000
0001
0100
1000
0000
,
0010
0000
0100
0010
1001
0000
0000
0000
;

//---------------dance-single - ----------------
#NOTES:
     dance-single:
     :
     Hard:
     12:
     0.527440,0.550479,0.410231,0.184604,0.051279,360.000000,320.000000,40.000000,18.000000,0.000000,0.000000,0.527440,0.550479,0.410231,0.184604,0.051279,360.000000,320.000000,40.000000,18.000000,0.000000,0.000000:
0000
0000
0000
0000
,
0000
0000
0000
0000
,
0000
0000
0000
0000
,
0000
0000
0000
0000
,
0000
0000
0000
0000
,
0100
1000
0001
1000
0100
1000
0010
0000
,
0100
0001
0010
0100
0010
0001
1000
0000
,
0001
0010
0100
1000
0100
0010
0001
0000
,
1001
0220
0000
0000
,
0330
0000
0000
0000
0001
0000
0000
1000
0000
0000
0100
0000
0000
0000
0000
0000
,
0010
0220
0000
0000
,
0330
0000
0000
0000
1001
0000
0000
0000
0000
0000
0000
0000
0100
0000
0000
0100
,
0000
0001
1000
0100
1000
0000
0001
0100
,
0010
1000
0001
0010
0001
0000
1000
0010
,
0100
0001
1000
0100
2000
0000
3001
0010
,
0002
0000
1003
0010
0100
0010
1000
0001
,
0020
0000
0130
0001
0100
0001
0100
1000
,
0100
1000
0010
0001
0010
0001
0010
1000
,
0010
1000
0001
0010
0001
0010
0100
1000
,
0100
1000
0010
1000
0010
1000
0001
0100
,
0001
0100
0010
1000
0100
0000
0001
0100
,
1000
0000
0001
0100
0010
0000
0001
0010
,
1000
0000
0001
0010
0100
1000
0010
0100
,
0001
1000
1001
0000
0001
0010
1000
0010
,
0001
0010
1000
0010
0001
0100
1000
0100
,
0001
0100
1000
1001
0001
0010
1000
0010
,
0001
0010
1000
0001
0100
0010
1000
0100
,
0020
0030
0020
0030
0001
0000
1000
0000
0100
0000
1000
0000
0001
0000
0100
0000
,
0010
0110
1000
0001
0100
0001
1000
0100
,
0010
0110
0100
1000
0001
0000
0010
0100
,
1000
0000
0000
0000
0001
0000
0100
0000
0010
1000
0001
0000
1001
0000
0000
0000
,
0101
0000
0010
1000
0100
0000
1000
0001
,
0010
0001
1000
0100
0010
0010
0010
0001
,
1000
0100
1000
0001
0100
0000
0001
0010
,
0100
0010
0100
1000
0001
0000
1001
0000
,
1010
0000
0100
0001
0010
0000
0100
1000
,
0100
0000
0000
0010
0001
0000
0001
0000
1000
0000
1100
0000
1000
0000
0001
0000
,
0010
0000
0000
0000
0100
0000
1000
0000
0001
0000
0000
0100
0010
0000
0010
0000
,
0010
0010
0100
0001
1000
0000
0220
0000
,
0000
0000
0330
2200
,
3300
0000
0000
0000
0202
0000
0000
0000
0303
0000
0000
0000
1000
0000
0000
0100
,
0000
0000
0010
0000
0000
0001
0000
0000
2000
0000
0000
0000
3001
0000
0000
0000
,
0101
0000
0101
0000
1000
0100
0010
0000
,
1100
0000
1100
0000
0001
0010
0100
1000
,
1010
0000
1010
0000
0001
0010
0100
0000
,
0011
0000
0100
0000
1001
0100
0010
0000
,
0101
0000
1010
0000
1000
0001
0010
0100
,
1100
0000
1001
0000
1000
0100
0010
0000
,
0011
0000
1001
0000
1000
0001
0100
0020
,
0030
0000
1000
0000
0100
0010
0001
0000
1001
0000
0000
0000
1100
0000
0000
0000
,
1000
0001
0100
0010
1010
0000
1001
0000
,
0001
0010
0100
0000
1001
0100
0001
0000
,
1000
0000
0000
0000
0001
0000
0100
0000
0010
0000
0100
0000
0001
1000
0200
0300
,
0110
0000
0101
0000
1000
0001
0100
0010
,
0110
0000
1100
0000
0001
1000
0010
0000
,
1000
0100
0010
0000
0001
0100
0010
1000
,
0100
0000
0001
0000
0100
0010
0100
0000
1001
0000
0000
0000
0000
0000
0000
0000
;

//---------------dance-single - ----------------
#NOTES:
     dance-single:
     :
     Challenge:
     16:
     0.763323,0.840205,0.348697,0.194860,0.810207,521.000000,487.000000,34.000000,19.000000,60.000000,0.000000,0.763323,0.840205,0.348697,0.194860,0.810207,521.000000,487.000000,34.000000,19.000000,60.000000,0.000000:
// measure 0
0000
0000
0000
0000
,  // measure 1
0000
0000
0000
0000
,  // measure 2
0000
0000
0000
0000
,  // measure 3
0000
0000
0000
0000
,  // measure 4
0000
0000
0000
0000
,  // measure 5
1000
0000
0100
0000
0010
0000
0100
1000
0100
0000
1000
0000
0001
0000
0000
0000
,  // measure 6
1000
0100
1000
0001
0100
0010
1000
1001
,  // measure 7
0001
0100
0001
0010
0100
0100
1000
0001
,  // measure 8
1001
MMMM
0220
0000
0000
0000
0000
0000
,  // measure 9
0330
0000
0000
0000
0101
0000
0000
1001
0000
0000
1100
0000
0000
0000
MMMM
0000
,  // measure 10
MMMM
2002
0000
0000
,  // measure 11
3003
0000
0000
0000
0110
0000
0000
0000
MMMM
0000
0000
0000
0010
0000
0000
0010
,  // measure 12
0000
0000
0110
0000
1000
0000
0100
1000
0100
0000
0010
0001
0010
0100
0000
1000
,  // measure 13
0000
1000
0001
0000
0100
0000
0010
0100
0010
0000
1000
0010
1000
0000
0001
0010
,  // measure 14
0000
0100
1000
0000
0001
0000
0100
0000
0020
0000
0000
0000
1030
0000
0001
0000
,  // measure 15
0020
0000
0130
0001
0100
0010
0100
1000
,  // measure 16
0020
0000
0130
0001
0100
0001
0010
0100
,  // measure 17
0010
0100
0010
0000
0100
0000
1000
0000
0100
0000
1000
0000
0010
0000
1000
0010
,  // measure 18
0000
0100
0010
0000
0100
0000
0001
0000
0100
0000
0001
0000
1000
0000
0100
0000
,  // measure 19
1000
0100
1000
0000
0100
0000
0010
0000
0100
0000
0010
0000
0001
0000
0100
0010
,  // measure 20
0000
1000
0010
0000
1000
0100
0001
0000
0100
0000
0010
0000
0001
0100
0001
0000
,  // measure 21
0100
0000
0010
0000
1000
0010
0001
0000
0010
0000
0100
0000
0001
0010
0100
0000
,  // measure 22
1000
0000
0001
0000
1000
0100
1000
0100
0010
0001
0010
0001
1000
0010
0100
0001
,  // measure 23
0010
0100
1000
0010
0100
0000
MMMM
0000
0001
0010
0001
0000
0100
0010
0100
0000
,  // measure 24
0001
0010
0001
0000
1000
0100
1000
0000
0001
0100
0001
0000
0100
0010
0100
0000
,  // measure 25
0001
0010
0100
0000
1000
0000
1100
0000
0100
0010
0100
0000
1000
0010
1000
0000
,  // measure 26
0001
0100
0001
0000
1000
0100
1000
0000
0100
0010
0001
0000
0010
0100
1000
0000
,  // measure 27
0020
0230
0320
0230
0301
0010
0001
0000
1000
0100
1000
0000
0001
0100
0001
0000
,  // measure 28
0100
0000
0110
0000
0001
0010
0001
0000
1000
0100
0010
0000
0001
0000
0010
0000
,  // measure 29
1000
0010
0000
0010
0001
1000
0001
0000
1000
0100
1000
0000
1000
0010
1000
0000
,  // measure 30
0001
0000
0000
0000
0000
0000
0000
0000
0000
0000
0000
0000
0100
0000
0000
0000
0000
0000
0000
0000
0000
0000
0000
0000
0001
0000
0000
0000
0000
0000
0000
0000
0000
0000
0000
0000
0000
0000
0000
0000
0000
0000
0000
0000
0000
0000
0000
0000
0010
0000
0000
0000
0000
0000
0000
0000
0000
0000
0000
0000
0000
0000
0000
0000
0000
0000
0000
0000
0000
0000
0000
0000
0100
0000
0000
0000
0000
0000
0000
0000
0000
0000
0000
0000
1000
0000
0000
0000
0000
0000
0001
0000
0000
0000
0000
0000
1000
0000
0000
0000
0000
0000
0000
0000
0000
0000
0000
0000
0010
0000
0000
0000
0000
0000
0000
0000
0000
0000
0000
0000
MMMM
0000
0000
0000
0000
0000
0000
0000
0000
0000
0000
0000
0001
0000
0000
0000
1000
0000
0000
0000
0001
0000
0000
0000
1000
0000
0000
0000
0000
0000
0000
0000
0000
0000
0000
0000
0000
0000
0000
0000
0000
0000
0000
0000
0000
0000
0000
0000
0100
0000
0000
0000
0000
0000
0000
0000
0000
0000
0000
0000
0000
0000
0000
0000
0000
0000
0000
0000
0000
0000
0000
0000
,  // measure 31
1000
0000
0100
0000
1000
0000
0010
0000
1000
0100
0000
0010
0001
0000
0010
0000
,  // measure 32
1000
0000
0010
0001
0010
0000
0001
0100
0010
0000
0110
0000
1001
0000
0001
0100
,  // measure 33
0001
0000
0010
0001
0010
0000
0100
0000
0010
0001
0000
0001
1000
0000
0100
1000
,  // measure 34
0010
0000
0100
0001
0010
0000
0100
0000
MMMM
0000
MMMM
0000
1001
0000
1000
0100
,  // measure 35
1000
0000
0010
1000
0010
0000
1000
0100
0010
0000
0001
0100
0010
0000
0100
0010
,  // measure 36
1000
0000
1000
0001
1000
0000
1100
0000
0101
0000
0110
0000
1010
0000
0001
0010
,  // measure 37
0001
0000
1000
0100
0010
0000
0001
0000
0100
0001
0000
0100
0010
0000
0010
0000
,  // measure 38
0010
0000
0010
0000
0100
0000
0001
0000
0010
0100
1000
0000
2100
0000
0000
0100
,  // measure 39
0000
0000
3200
0000
0000
0010
0000
0000
0310
0000
0001
1000
0020
0000
0000
0100
,  // measure 40
0000
0000
0130
0000
0001
0020
0000
0000
0130
0000
1000
0001
1000
0000
0000
1010
,  // measure 41
0000
0000
0101
0000
0000
0011
0000
0000
0220
0000
0330
0000
MMMM
0000
MMMM
0000
,  // measure 42
1001
0000
0001
0010
0001
0000
1000
0100
1000
0001
0000
0100
0000
0010
1000
0000
,  // measure 43
0001
0000
0100
0001
0100
0000
0001
0010
0001
0000
1000
0100
0010
0000
0011
0000
,  // measure 44
1000
0000
0010
0100
0010
0000
1000
0010
1000
0100
0000
0010
0000
0001
1000
0000
,  // measure 45
0200
0300
MMMM
0000
0001
0100
MMMM
0000
,  // measure 46
0110
0000
0010
1000
0010
0000
0100
0001
0100
0010
0000
0001
0000
1000
0100
0000
,  // measure 47
0010
0000
0001
0010
0001
0000
0010
1000
0010
0000
0100
0000
0001
1000
0010
0000
,  // measure 48
0100
0000
0001
1000
0100
0000
0010
1000
0010
0001
0000
1000
0000
1000
0100
0000
,  // measure 49
MMMM
0000
0100
0000
1000
0001
0000
0001
0100
0000
0100
0010
0000
0010
1000
0000
1001
0000
0000
0000
0001
0000
0010
0000
0001
0000
0000
0000
1000
0000
0100
0000
,  // measure 50
1000
0001
0000
0100
0000
0010
1000
0000
0001
0000
0100
0001
0100
0000
0001
0010
,  // measure 51
0001
0000
0011
0000
MMMM
0000
1000
0000
0001
0000
0101
0000
1001
0000
1000
0010
,  // measure 52
1000
0000
0100
0000
0000
0000
0010
0000
0000
0000
0001
0000
1000
0000
0000
0000
0100
0000
0010
0000
0000
0010
0000
0001
0100
0000
0010
0000
2000
0000
3000
0000
,  // measure 53
1001
0000
0001
0100
0001
0000
1000
0010
1000
0001
0000
0010
0000
0100
1000
0000
,  // measure 54
0001
0000
0010
0001
0010
0000
0001
0100
0001
0000
1010
0000
0110
0000
0001
0000
,  // measure 55
1000
0000
0100
0010
0100
0000
1000
0100
1000
0010
0000
0100
0000
0001
1000
0000
,  // measure 56
MMMM
0000
0000
0000
0100
0001
0100
0001
0010
0000
0100
1000
0000
1000
0001
0000
1001
0000
0000
0000
0000
0000
0000
0000
0000
0000
0000
0000
0000
0000
0000
0000
;

//---------------dance-double - ----------------
#NOTES:
     dance-double:
     :
     Easy:
     7:
     0.309139,0.376644,0.297418,0.184604,0.000000,211.000000,182.000000,29.000000,18.000000,0.000000,0.000000,0.309139,0.376644,0.297418,0.184604,0.000000,211.000000,182.000000,29.000000,18.000000,0.000000,0.000000:
00000000
00000000
00000000
00000000
,
00000000
00000000
00000000
00000000
,
00000000
00000000
00000000
00000000
,
00000000
00000000
00000000
00000000
,
00000000
00000000
00000000
00000000
,
00000001
00000001
00000010
00000010
,
00001000
00001000
00010000
00010000
,
01000000
10000000
00100000
00010000
,
10010000
00022000
00000000
00000000
,
00033000
00000110
00000000
00000000
,
00000000
00002002
00000000
00000000
,
00003003
00011000
00000000
00001000
,
00000000
00100000
00100000
00010000
,
00010000
10000000
10000000
00100000
,
00100000
01000000
00010000
00100000
,
00001000
00010000
00010000
00001000
,
00000000
00010000
00001000
00000010
,
00001000
00010000
00001000
00000010
,
00001000
00010000
00001000
00000100
,
00001000
00010000
00001000
00000100
,
00001000
01000000
00001000
00010000
,
00000000
00000010
00001000
00000001
,
00000000
00000020
00000000
00000200
,
00000330
00001001
00001000
00000100
,
00001000
00000100
00010000
00001000
,
01000000
01100000
00010000
00100000
,
10000000
00100000
00010000
00010000
,
20000000
30000000
00010000
00000000
00100000
00000000
00010000
00000000
,
00100000
00001000
00010000
00000010
,
00000110
00001000
00000100
00000001
,
00000100
00010000
00000000
00001000
,
00011000
00100000
00110000
00001000
,
00001000
00100000
01000000
00010000
,
00011000
00000100
00001100
00010000
,
00010000
00001000
00000000
00010000
,
00011000
00000010
00001010
00000001
,
00000010
00000000
00000100
00000100
00000010
00000000
00001000
00000000
,
00011000
00100000
00010000
20000000
,
00000000
00000000
30000000
02200000
,
00000000
00000000
03300000
20020000
,
30030000
00202000
00303000
00001000
,
00000010
00000010
00000200
00000300
,
00001001
00000100
00001001
00000100
,
00000001
00000000
00000010
00000000
00000100
00000000
00001000
00001000
,
00000001
00000011
00000100
00001000
,
00000010
00000000
00000000
00000000
00010000
00001000
00000000
00000000
,
10010000
01000000
10010000
01000000
,
10000000
00000000
00100000
00000000
01000000
00000000
00010000
00010000
,
10000000
00110000
00101000
00022000
,
00033000
00000000
00000100
00001100
,
00010000
00001000
00010000
00000000
00000010
00000000
00000100
00000000
,
00002000
00010000
00003000
00000000
00010000
00001000
00100000
00000000
,
01000000
10000000
00010000
00000000
,
00100000
00000000
00110000
00000000
00001000
00010000
00001000
00000000
,
01000000
00000000
00100000
00000000
00010000
00001000
00010000
00000000
,
00010000
00000100
00000010
00000001
,
00001000
00000000
00001001
00000000
;

//---------------dance-double - ----------------
#NOTES:
     dance-double:
     :
     Medium:
     9:
     0.386789,0.434589,0.328185,0.215371,0.020512,264.000000,232.000000,32.000000,21.000000,0.000000,0.000000,0.386789,0.434589,0.328185,0.215371,0.020512,264.000000,232.000000,32.000000,21.000000,0.000000,0.000000:
00000000
00000000
00000000
00000000
,
00000000
00000000
00000000
00000000
,
00000000
00000000
00000000
00000000
,
00000000
00000000
00000000
00000000
,
00000000
00000000
00000000
00000000
,
01000000
00000000
10100000
00000000
00010000
01000000
00010000
00000000
,
00100000
00001000
00100000
00000000
00001000
00010000
00001000
00000000
,
00010000
00000100
00001000
00000000
00000100
00000010
00000001
00000000
,
00001001
00000220
00000000
00000000
,
00000330
00000000
00000000
00000000
00000001
00000000
00000000
00000010
00000000
00000000
00000100
00000000
00000000
00000000
00000000
00000000
,
00001000
00002002
00000000
00000000
,
00003003
00000000
00000000
00000000
00011000
00000000
00000000
00000000
00000000
00000000
00000000
00000000
00001000
00000000
00000000
00001000
,
00000000
00001000
00010000
00000000
01000000
00000000
10000000
00000000
,
01000000
00010000
00001000
00000100
,
00000001
00000000
00000100
00000010
00001000
00000000
00000100
00000010
,
00000001
00000010
00001000
00010000
,
00011000
00000000
00001000
00000010
00000001
00000000
00000010
00000000
,
00001000
00000000
00010000
01000000
10000000
00000000
01000000
00000000
,
00010000
00000000
00001000
00000100
00000001
00000000
00000100
00000000
,
00001000
00000000
00010000
00100000
10000000
00000000
00100000
00000000
,
00010000
00000000
00001000
00010000
00001000
00000000
00100000
00000000
,
01000000
00000000
00010000
00001000
00010000
00000000
00000100
00000000
,
00000010
00000000
00000100
00010000
00001000
00000000
01000000
00100000
,
10000000
10010000
01000000
01000000
,
00100000
00100000
00010000
00010000
,
00001000
00010000
00001000
00000000
00000100
00000000
00000100
00000000
,
00000010
00000010
00000001
00000001
,
00002000
00003000
00000010
00000000
00000010
00000000
00000100
00000000
,
00000100
00000010
00001000
00000000
00001000
00000000
00000100
00010000
,
00001000
00000000
00002000
00003000
02000000
03000000
00020000
00030000
,
00200000
00300000
01000000
00000000
00000000
00000000
10000000
00000000
,
10010000
00000000
00010000
01000000
00010000
00000000
00100000
00000000
,
00110000
00000000
00001000
00000000
00010000
00001000
00010000
00000000
,
00011000
00000000
00000100
00001000
00000010
00000000
00000100
00000001
,
00000100
00000001
00002000
00000000
00003000
00000000
00000001
00000000
,
00000101
00000000
00000001
00000100
00000010
00000000
00001000
00000000
,
00000100
00000000
00010000
00001000
00010000
00001000
00010000
00000000
,
00011000
00000000
00001000
01000000
00010000
00000000
00100000
01000000
,
00100000
01000000
00100000
00000000
00010000
00000000
20020000
00000000
,
00000000
00000000
30030000
22000000
,
33000000
00000000
00000000
00000000
00220000
00000000
00000000
00000000
00330000
00000000
00000000
00000000
00001000
00000000
00000000
00010000
,
00000000
00000000
00000100
00000000
00000000
00000010
00000000
00000000
00000002
00000000
00000000
00000000
00001003
00000000
00000000
00000000
,
00001001
00001001
00000101
00000010
,
00001010
00000000
00010000
00000000
00011000
00000000
00001000
00010000
,
00001000
00100000
01100000
00010000
,
10010000
00000000
00002000
00003000
00011000
00000000
02000000
03000000
,
10010000
10010000
11000000
00100000
,
00110000
00000000
00001000
00000000
00011000
00000000
00010000
00000100
,
00001000
00000010
00000110
00002002
,
00003003
00000000
00000001
00000010
,
00000100
00001000
00000010
00000000
00010000
00000000
00010000
00000000
,
00001000
00001000
00010000
00000000
00001000
01000000
00010000
00000000
,
00100000
00000000
01000000
00000000
10000000
00000000
00010000
10010000
,
10000000
00000000
01000000
00000000
00100000
00010000
01000000
00000000
,
00001000
00000000
00001000
00000000
00010000
00010000
00000100
00000000
,
00010000
00000000
00010000
00000000
00000010
00001000
00000001
00000000
,
00000100
00000000
00000010
00000100
00001001
00000000
00000000
00000000
;

//---------------dance-double - ----------------
#NOTES:
     dance-double:
     :
     Hard:
     12:
     0.521580,0.550479,0.440999,0.184604,0.051279,356.000000,313.000000,43.000000,18.000000,0.000000,0.000000,0.521580,0.550479,0.440999,0.184604,0.051279,356.000000,313.000000,43.000000,18.000000,0.000000,0.000000:
00000000
00000000
00000000
00000000
,
00000000
00000000
00000000
00000000
,
00000000
00000000
00000000
00000000
,
00000000
00000000
00000000
00000000
,
00000000
00000000
00000000
00000000
,
00010000
00001000
00010000
00000100
00010000
00000010
00010000
00000000
,
00001000
01000000
00001000
00000000
00010000
00000100
00010000
00011000
,
00000010
00000100
00001000
00010000
00001000
00010000
01000000
00000000
,
10010000
02200000
00000000
00000000
,
03300000
00000000
00000000
00000000
00010000
00000000
00000000
00010000
00000000
00000000
00001000
00000000
00000000
00000000
00000000
00000000
,
00010000
00022000
00000000
00000000
,
00033000
00000000
00000000
00000000
00001001
00000000
00000000
00000000
00000000
00000000
00000000
00000000
00000010
00000000
00000000
00000010
,
00000000
00000001
00001000
00000100
00001000
00000000
00000010
00001000
,
00000010
00000100
00001000
00010000
00001000
00000000
00100000
00010000
,
00100000
01000000
10000000
00010000
20000000
00000000
30010000
01000000
,
00020000
00000000
10030000
01000000
00100000
01000000
00100000
00001000
,
00020000
00000000
00030100
00001000
00000100
00001000
00000001
00000100
,
00000001
00000100
00000010
00000100
00000010
00001000
00000100
00010000
,
00001000
00000000
00100000
00010000
00100000
00010000
10000000
00100000
,
10000000
00100000
01000000
00100000
01000000
00010000
00100000
00001000
,
00010000
00000000
01000000
00100000
01000000
00000000
00010000
00001000
,
00010000
00000000
00000100
00000010
00000001
00000000
00000010
00000100
,
00001000
00000000
00000010
00000100
00001000
00010000
00000100
00000010
,
00001000
00010000
00011000
00000000
00100000
00010000
10000000
00010000
,
00100000
00010000
10000000
00010000
01000000
00001000
00010000
00001000
,
01000000
00001000
00010000
00011000
00001000
00010000
00000100
00010000
,
00001000
00010000
00000100
00001000
00000001
00001000
00000010
00001000
,
00000002
00000003
00000020
00000030
00000100
00000000
00001000
00000000
00000001
00000000
00001000
00000000
00000100
00000000
00001000
00000000
,
00000001
00000101
00000010
00001000
00000001
00001000
00000010
00010000
,
00001000
00011000
00100000
00010000
10000000
00000000
01000000
10000000
,
00010000
00000000
00000000
00000000
10010000
00000000
00100000
00000000
10000000
01000000
00010000
00000000
00011000
00000000
00000000
00000000
,
00011000
00000000
00001000
00000100
00000001
00000000
00000100
00000010
,
00001000
00000100
00000010
00000100
00010000
00010000
00010000
00001000
,
00000010
00001000
00010000
00001000
00100000
00000000
01000000
00010000
,
01000000
10000000
00100000
00010000
00001000
00000000
00011000
00000000
,
00011000
00000000
00010000
01000000
10000000
00000000
01000000
00100000
,
00010000
00000000
00000000
01000000
00100000
00000000
00100000
00000000
00010000
00000000
00011000
00000000
00001000
00000000
00010000
00000000
,
00000010
00000000
00000000
00000000
00001000
00000000
00000100
00000000
00000010
00000000
00000000
00000001
00000100
00000000
00000100
00000000
,
00000100
00000100
00000100
00001000
00010000
00000000
00022000
00000000
,
00000000
00000000
00033000
02200000
,
03300000
00000000
00000000
00000000
20020000
00000000
00000000
00000000
30030000
00000000
00000000
00000000
10000000
00000000
00000000
01000000
,
00000000
00000000
00010000
00000000
00000000
00001000
00000000
00000000
00020000
00000000
00000000
00000000
00030000
00000000
00000000
00000000
,
00011000
00000000
00011000
00000000
00001000
00000010
00000001
00000000
,
00001001
00000000
00001001
00000000
00000001
00000100
00000010
00001000
,
00001010
00000000
00001010
00000000
00010000
00001000
01000000
00000000
,
00011000
00000000
00000010
00000000
00011000
00100000
00010000
00000000
,
00011000
00000000
00011000
00000000
00010000
01000000
10000000
00010000
,
10010000
00000000
10010000
00000000
10000000
00100000
01000000
00000000
,
01010000
00000000
01010000
00000000
01000000
00001000
00010000
00000020
,
00000030
00000000
00001000
00000000
00000100
00000010
00000001
00000000
00001001
00000000
00000000
00000000
00000100
00000000
00000000
00000000
,
00001001
00000100
00000001
00000000
00000110
00000000
00001000
00000000
,
00011000
00010000
00001000
00000000
00110000
10000000
00100000
00000000
,
10000000
00000000
00000000
00000000
01000000
00000000
00100000
00000000
00010000
00000000
00000000
00000000
00010000
10000000
02000000
03000000
,
10010000
00000000
00100000
00000000
10010000
00100000
10000000
00000000
,
01100000
00000000
00010000
00000000
00011000
00001000
00010000
00000000
,
00001100
00000001
00000100
00000000
00000010
00001000
00000001
00000010
,
00000100
00000000
00000000
00000000
00010000
00001000
00010000
00000000
00011000
00000000
00000000
00000000
00000000
00000000
00000000
00000000
;

//---------------dance-double - ----------------
#NOTES:
     dance-double:
     :
     Challenge:
     16:
     0.748672,0.840205,0.379464,0.215371,0.733288,511.000000,474.000000,37.000000,21.000000,140.000000,0.000000,0.748672,0.840205,0.379464,0.215371,0.733288,511.000000,474.000000,37.000000,21.000000,140.000000,0.000000:
00000000
00000000
00000000
00000000
,
00000000
00000000
00000000
00000000
,
00000000
00000000
00000000
00000000
,
00000000
00000000
00000000
00000000
,
00000000
00000000
00000000
00000000
,
10000000
00000000
01000000
00000000
00010000
00000000
00001000
00010000
00001000
00000000
00000100
00000000
00000001
00000000
00000000
00000000
,
00001000
00000100
00000010
00000001
00000100
00001000
00010000
00011000
,
00001000
00010000
01000000
00100000
01000000
01000000
10000000
00010000
,
10010000
MMMMMMMM
02200000
00000000
00000000
00000000
00000000
00000000
,
03300000
00000000
00000000
00000000
01010000
00000000
00000000
00011000
00000000
00000000
00001100
00000000
00000000
00000000
MMMMMMMM
00000000
,
MMMMMMMM
00000220
00000000
00000000
,
00000330
00000000
00000000
00000000
00001001
00000000
00000000
00000000
MMMMMMMM
00000000
00000000
00000000
00000010
00000000
00000000
00000010
,
00000000
00000000
00000110
00000000
00001000
00000000
00000001
00000100
00000001
00000000
00000010
00000000
00000100
00001000
00000000
00000001
,
00000000
00000001
00001000
00000000
00000100
00000000
00010000
00001000
00010000
00000000
00001000
00000000
01000000
00000000
00010000
00100000
,
00000000
01000000
00100000
00000000
00010000
00000000
10000000
00000000
02000000
00000000
00000000
00000000
03100000
00000000
00010000
00000000
,
02000000
00000000
03001000
00010000
00001000
00010000
00000100
00000010
,
00000002
00000000
00001003
00000010
00001000
00000010
00000100
00000001
,
00000100
00000010
00000100
00000000
00001000
00000000
00010000
00000000
00001000
00000000
00010000
00000000
01000000
00000000
00100000
01000000
,
00000000
00100000
00010000
00000000
10000000
00000000
00100000
00000000
10000000
00000000
00100000
00000000
01000000
00000000
00010000
00000000
,
01000000
00100000
01000000
00000000
00001000
00000000
00010000
00000000
00001000
00000000
00010000
00000000
00000100
00000000
00000010
00000100
,
00000000
00000010
00000001
00000000
00001000
00000100
00001000
00000000
00000001
00000000
00000100
00000000
00000010
00001000
00000010
00000000
,
00010000
00000000
00001000
00000000
00100000
00010000
00100000
00000000
01000000
00000000
00100000
00000000
00010000
10000000
00010000
00000000
,
01000000
00000000
00001000
00000000
00010000
00000100
00010000
00000000
00001000
00010000
00001000
00000000
01000000
00010000
01000000
00010000
,
10000000
01000000
00100000
00010000
10000000
00000000
MMMMMMMM
00000000
00100000
00010000
00100000
00000000
00001000
00010000
00001000
00000000
,
01000000
00010000
01000000
00000000
00001000
00010000
00001000
00000000
00100000
00001000
00010000
00000000
00000100
00001000
00000010
00000000
,
00001000
00000001
00000100
00000000
00000010
00000000
00001010
00000000
00000001
00000100
00000001
00000000
00001000
00000100
00001000
00000000
,
00000001
00000010
00000001
00000000
00001000
00000010
00001000
00000000
00000100
00010000
00001000
00000000
00100000
00010000
10000000
00000000
,
0200MMMM
03020000
02030000
23000000
3001MMMM
01000000
00010000
00000000
10000000
00100000
10000000
00000000
00010000
00100000
00010000
00000000
,
10000000
00000000
11000000
00000000
00010000
01000000
00010000
00000000
10000000
00100000
10000000
00000000
00010000
00000000
00100000
00000000
,
00001000
00010000
00000000
00010000
00001000
00010000
00001000
00000000
01000000
00010000
01000000
00000000
00001000
00010000
00001000
00000000
,
00010000
00000000
00000000
00000000
00000000
00000000
00000000
00000000
00000000
00000000
00000000
00000000
00000100
00000000
00000000
00000000
00000000
00000000
00000000
00000000
00000000
00000000
00000000
00000000
00010000
00000000
00000000
00000000
00000000
00000000
00000000
00000000
00000000
00000000
00000000
00000000
00000000
00000000
00000000
00000000
00000000
00000000
00000000
00000000
00000000
00000000
00000000
00000000
MMMM1000
00000000
00000000
00000000
00000000
00000000
00000000
00000000
00000000
00000000
00000000
00000000
00000000
00000000
00000000
00000000
00000000
00000000
00000000
00000000
00000000
00000000
00000000
00000000
00000010
00000000
00000000
00000000
00000000
00000000
00000000
00000000
00000000
00000000
00000000
00000000
00000001
00000000
00000000
00000000
00000000
00000000
00001000
00000000
00000000
00000000
00000000
00000000
00000001
00000000
00000000
00000000
00000000
00000000
00000000
00000000
00000000
00000000
00000000
00000000
00000100
00000000
00000000
00000000
00000000
00000000
00000000
00000000
00000000
00000000
00000000
00000000
MMMMMMMM
00000000
00000000
00000000
00000000
00000000
00000000
00000000
00000000
00000000
00000000
00000000
00001000
00000000
00000000
00000000
00000001
00000000
00000000
00000000
00001000
00000000
00000000
00000000
MMMM0001
00000000
00000000
00000000
00000000
00000000
00000000
00000000
00000000
00000000
00000000
00000000
00000000
00000000
00000000
00000000
00000000
00000000
00000000
00000000
00000000
00000000
00000000
00000000
00000100
00000000
00000000
00000000
00000000
00000000
00000000
00000000
00000000
00000000
00000000
00000000
00000000
00000000
00000000
00000000
00000000
00000000
00000000
00000000
00000000
00000000
00000000
00000000
,
00001000
00000000
00000100
00000000
00000001
00000000
00001000
00000000
00000100
00000010
00000000
00000010
00000100
00000000
00001000
00000000
,
00000001
00000000
00001000
00000010
00001000
00000000
00000001
00000010
00000100
00000000
00001100
00000000
00000101
00000000
00000010
00001000
,
00000010
00000000
00010000
00000000
00011000
00000000
00001000
00000000
00010000
01000000
00000000
01000000
10000000
00000000
01000000
00000000
,
00010000
00000000
01000000
00000000
10000000
00000000
00010000
01000000
0001MMMM
01000000
0001MMMM
00000000
10010000
00000000
00100000
00000000
,
00010000
00000000
00100000
00000000
10000000
00000000
00010000
00000000
00100000
01000000
00000000
01000000
00100000
00000000
00010000
00000000
,
10000000
00000000
01000000
00100000
01000000
00000000
01010000
00000000
00110000
00000000
00101000
00000000
00011000
00000000
00010000
00000100
,
00001000
00000000
00000001
00001000
00000100
00000000
00001000
00000000
00000001
00000100
00000000
00000100
00000010
00000000
00000010
00000000
,
00000010
00000000
00000010
00000000
00000100
00000000
00000010
00000000
00001000
00000100
00010000
00000000
00021000
00000000
00000000
00001000
,
00000000
00000000
00030200
00000000
00000000
00000010
00000000
00000000
00001300
00000000
00000001
00000100
00000020
00000000
00000000
00000001
,
00000000
00000000
00000130
00000000
00000010
00020000
00000000
00000000
00031000
00000000
00100000
00010000
10000000
00000000
00000000
11000000
,
00000000
00000000
00110000
00000000
00000000
00011000
00000000
00000000
00000220
00000000
00000330
00000000
MMMMMMMM
00000000
MMMMMMMM
00000000
,
00001001
00000000
00000001
00000010
00000001
00000000
00000100
00000000
00001000
00010000
00000000
00001000
00000000
00010000
00100000
00000000
,
10000000
00000000
00010000
01000000
00010000
00000000
00100000
00000000
01000000
00000000
10000000
01000000
00100000
00000000
00110000
00000000
,
10000000
00000000
00100000
01000000
00100000
00000000
00010000
00000000
00001000
01000000
00000000
00001000
00000000
00100000
00001000
00000000
,
00010000
00000000
MMMM0220
00000330
00001000
00010000
0020MMMM
00300000
,
10010000
00000000
10000000
01000000
10000000
00000000
00100000
00000000
00010000
00001000
00000000
00010000
00000000
00001000
00000100
00000000
,
00000001
00000000
00001000
00000010
00001000
00000000
00000100
00000000
00000010
00000000
00000010
00000000
00000100
00001000
00000001
00000000
,
00001001
00000000
00000001
00000100
00000001
00000000
00000010
00000100
00001000
00000100
00000000
00010000
00000000
00010000
00001000
00000000
,
MMMMMMMM
00000000
00001000
00000000
00010000
01000000
00000000
01000000
10000000
00000000
10000000
00100000
00000000
00100000
00010000
00000000
1001MMMM
00000000
00000000
00000000
00100000
00000000
01000000
00000000
00100000
00000000
00000000
00000000
10000000
00000000
00010000
00000000
,
01000000
00010000
00000000
10000000
00000000
01000000
00100000
00000000
00001000
00000000
00010000
00001000
00010000
00000000
00000100
00010000
,
00000100
00001100
MMMMMMMM
MMMMMMMM
00000001
00000101
00000101
00000010
,
00001000
00000000
00000100
00000000
00000000
00000000
00010000
00000000
00000000
00000000
00010000
00000000
00001000
00000000
00000000
00000000
0001MMMM
00000000
00000100
00000000
00000000
00000100
00000000
00001000
00000001
00000000
00000100
00000000
00000020
00000000
00000030
00000000
,
MMMM1001
00000000
00000100
00000010
00000100
00000000
00000001
00001000
00000010
00001000
00000000
00000001
00000000
00000010
00000100
00000000
,
00010000
00000000
00001000
00010000
00001000
00000000
00100000
00001000
00100000
00000000
00110000
00000000
01100000
00000000
00010000
00000000
,
01000000
00000000
00100000
10000000
00100000
00000000
01000000
00000000
00010000
00100000
00000000
01000000
00000000
00100000
00001000
00000000
,
MMMMMMMM
00000000
00000000
00000000
00000100
00001000
00000100
00001000
00000010
00000000
00000100
00001000
00000000
00010000
00001000
00000000
00011000
00000000
00000000
00000000
00000000
00000000
00000000
00000000
00000000
00000000
00000000
00000000
00000000
00000000
00000000
00000000
;
