#VERSION:0.83;
#TITLE:Acid Kaiju;
#SUBTITLE:;
#ARTIST:Yuta Imai;
#TITLETRANSLIT:;
#SUBTITLETRANSLIT:;
#ARTISTTRANSLIT:;
#GENRE:J-Music;
#ORIGIN:;
#CREDIT:;
#BANNER:Acid Kaiju.png;
#BACKGROUND:../bg.png;
#PREVIEWVID:;
#JACKET:Acid Kaiju-jacket.png;
#CDIMAGE:;
#DISCIMAGE:;
#LYRICSPATH:;
#CDTITLE:../cdtitle.png;
#MUSIC:Acid Kaiju.ogg;
#OFFSET:1.495000;
#SAMPLESTART:83.817001;
#SAMPLELENGTH:15.000000;
#SELECTABLE:YES;
#DISPLAYBPM:80.000000:160.000000;
#BPMS:0.000=160.000,
64.000=80.000,
66.000=160.000,
96.000=80.000,
97.000=160.000,
143.000=80.000,
143.250=160.000,
143.500=320.000,
144.000=160.000,
155.000=320.000,
156.000=160.000,
156.500=320.000,
157.500=80.000,
158.000=160.000,
190.000=120.000,
191.500=80.000,
192.500=40.000,
193.000=20.000,
193.250=10.000,
193.500=160.000,
224.000=80.000,
225.000=160.000,
255.000=80.000,
256.000=160.000;
#STOPS:126.875=0.750,
155.000=0.094,
155.500=0.094,
156.000=0.188,
156.500=0.094,
157.000=0.094,
193.500=1.312;
#DELAYS:;
#WARPS:;
#TIMESIGNATURES:0.000=4=4;
#TICKCOUNTS:0.000=4;
#COMBOS:0.000=1;
#SPEEDS:0.000=1.000=0.000=0;
#SCROLLS:0.000=1.000;
#FAKES:;
#LABELS:0.000=Song Start;
#BGCHANGES:3.500=Acid Kaiju.avi=1.000=0=0=0=StretchNoLoop====,
99999=-nosongbg-=1.000=0=0=0 // don't automatically add -songbackground-
;
#KEYSOUNDS:;
#ATTACKS:
;

//---------------dance-single - ----------------
#NOTEDATA:;
#CHARTNAME:;
#STEPSTYPE:dance-single;
#DESCRIPTION:;
#CHARTSTYLE:;
#DIFFICULTY:Hard;
#METER:15;
#RADARVALUES:0.740045,0.866707,0.814297,0.337847,0.398486,598.000000,504.000000,94.000000,39.000000,0.000000,0.000000,0.000000,0.000000,0.000000,0.740045,0.866707,0.814297,0.337847,0.398486,598.000000,504.000000,94.000000,39.000000,0.000000,0.000000,0.000000,0.000000,0.000000;
#CREDIT:led_light;
#DISPLAYBPM:80.000000:160.000000;
#NOTES:
// measure 0
0000
0000
0000
0000
,  // measure 1
0000
0000
0000
0000
,  // measure 2
0000
0000
0000
0000
,  // measure 3
0000
0000
0000
0000
,  // measure 4
0000
0000
0000
0000
,  // measure 5
0001
0001
0100
0100
,  // measure 6
1000
1000
0010
0010
,  // measure 7
0001
0100
1000
0010
,  // measure 8
0001
0000
0100
0000
0020
0000
0000
0030
,  // measure 9
0100
1000
0100
1000
0010
1000
0010
1000
,  // measure 10
0010
0001
0010
0001
0100
0001
0100
0001
,  // measure 11
0010
0100
0010
0100
1000
0100
1000
0100
,  // measure 12
1000
0010
1000
0010
0001
0010
0001
0010
,  // measure 13
1000
0010
1000
0010
1000
0000
0100
0000
0010
0001
0010
0001
0010
0000
0100
0000
,  // measure 14
1000
0001
0100
0001
0100
0000
0010
0000
1000
0100
0010
0100
0010
0000
0001
0000
,  // measure 15
0100
0001
0100
0010
1000
0001
0010
0001
1000
0100
0010
0001
0100
0010
1000
0001
,  // measure 16
1000
0000
0000
0000
1001
1000
0100
1000
,  // measure 17
0010
0000
1000
0000
0001
0000
0010
0100
1000
0000
0010
0000
0100
0000
0010
1000
,  // measure 18
0001
0000
0000
0011
0000
0000
0101
0000
1100
0000
1000
0010
0000
0000
0101
0000
,  // measure 19
0001
0000
0000
0000
0000
0000
0000
0000
0000
0000
0000
0000
0010
0000
0000
0000
0000
0000
0000
0000
0000
0000
0000
0000
0000
0000
0000
0000
0000
0000
0000
0000
0000
0000
0000
0000
0000
0000
0000
0000
0000
0000
0000
0000
0000
0000
0000
0000
0110
0000
0000
0000
0000
0000
0000
0000
0000
0000
0000
0000
0000
0000
0000
0000
0000
0000
0000
0000
0000
0000
0000
0000
0100
0000
0000
0000
0000
0000
0000
0000
0000
0000
0000
0000
0020
0000
0000
0000
0000
0000
0000
0000
0000
0000
0000
0000
0000
0000
0000
0000
0000
0000
0000
0000
0000
0000
0000
0000
0000
0000
0000
0030
0020
0000
0000
0000
0000
0000
0000
0000
0000
0000
0000
0000
0000
0000
0030
0000
0020
0000
0000
0000
0000
0000
0000
0000
0000
0000
0000
0000
0000
0030
0000
0000
0020
0000
0000
0000
0000
0000
0000
0000
0000
0000
0000
0000
0000
0000
0000
0000
0000
0000
0000
0000
0000
0030
0000
0000
0020
0000
0000
0000
0000
0000
0000
0000
0000
0000
0000
0000
0000
0000
0000
0000
0000
0000
0000
0000
0000
0030
0000
0000
,  // measure 20
0020
0000
0000
0000
0000
0000
0000
0000
0000
0000
0000
0000
0000
0000
0000
0030
0020
0000
0000
0000
0000
0000
0000
0000
0031
0000
0000
0000
1000
0000
0000
0000
0100
0000
0000
0000
0000
0000
0000
0000
1000
0000
0000
0000
0000
0000
0000
0000
0001
0000
0000
0000
0000
0000
0000
0000
1000
0000
0000
0000
0000
0000
0000
0000
,  // measure 21
0100
1000
0010
0100
0010
0010
1000
1000
,  // measure 22
0001
0000
0001
0100
0001
0000
1000
0000
0100
0000
1000
0000
1010
0000
0001
0000
,  // measure 23
0010
0000
0001
0000
0100
0000
0010
0000
0100
0000
0100
0010
0100
0000
0010
0000
,  // measure 24
2000
3002
0203
0300
1001
0000
0001
0000
0010
0000
0001
0000
0100
0000
0001
0000
,  // measure 25
0010
0000
0100
0000
0010
0000
0010
0000
0001
0000
0001
1000
0001
0000
0101
0000
,  // measure 26
0020
0000
1030
0100
1001
0100
0110
0110
,  // measure 27
1001
0000
0100
0000
0020
0000
0000
0000
0000
0000
0000
0000
0130
0001
1000
0010
,  // measure 28
0100
0000
0010
0000
0110
0000
0000
0001
0000
0000
1000
0000
0000
0100
1000
0000
,  // measure 29
0001
0000
0010
0000
0110
0000
0000
1000
0000
0000
0001
0000
0000
0100
0001
0000
,  // measure 30
1000
0000
0010
0000
0100
0010
1000
0001
0000
0001
0100
0001
0010
0100
1000
0001
,  // measure 31
0000
0001
1000
0100
0010
0001
0010
0001
0100
0010
1000
0001
1001
0000
0000
0000
,  // measure 32
1001
0001
0010
1000
0010
0001
1000
1000
,  // measure 33
0100
0100
0001
0001
0011
0011
1010
0000
,  // measure 34
0110
0010
0001
0010
1000
0001
0011
0000
,  // measure 35
0110
0000
0001
0000
1000
0100
1000
0000
0001
0100
0001
0000
2000
0000
0000
3000
,  // measure 36
1010
0100
1010
0001
0011
0100
0011
1000
,  // measure 37
1100
0000
0001
0000
0101
0000
0101
0000
0011
0000
0010
0100
2000
0000
3000
1010
,  // measure 38
0000
0000
0002
0000
0003
0101
0000
0000
2000
0000
3000
0000
1010
0000
1001
0000
,  // measure 39
1100
0011
1001
0101
0110
0000
0110
0010
,  // measure 40
1000
0001
0100
0001
0010
0001
1001
0100
,  // measure 41
1001
1001
0101
0110
1010
0000
1001
0010
,  // measure 42
1001
0100
1001
0010
0110
0000
2100
0000
,  // measure 43
3010
0100
0010
0000
1000
0000
0001
0000
0010
0000
0010
0000
1001
0000
0000
0000
,  // measure 44
0010
0100
0110
0001
0011
1000
1100
0001
,  // measure 45
0101
0000
0101
0000
1100
0000
0100
1000
0020
0000
0030
0000
0110
0000
0010
0000
,  // measure 46
1000
0000
1000
0000
0001
0000
0001
0100
0010
0000
0002
0000
0003
0000
0020
0000
,  // measure 47
0030
2000
3000
0100
0020
0000
0000
0000
,  // measure 48
0000
0000
0000
0030
0001
1000
0100
1000
,  // measure 49
0010
0000
1000
0000
0001
0000
0010
0100
1000
0000
0010
0000
0100
0000
0010
1000
,  // measure 50
0001
0000
0000
0011
0000
0000
0101
0000
1100
0000
1000
0010
0000
0000
0101
0000
,  // measure 51
0001
0000
0000
0000
0000
0000
0000
0000
0000
0000
0000
0000
0010
0000
0000
0000
0000
0000
0000
0000
0000
0000
0000
0000
0000
0000
0000
0000
0000
0000
0000
0000
0000
0000
0000
0000
0000
0000
0000
0000
0000
0000
0000
0000
0000
0000
0000
0000
0110
0000
0000
0000
0000
0000
0000
0000
0000
0000
0000
0000
0000
0000
0000
0000
0000
0000
0000
0000
0000
0000
0000
0000
0100
0000
0000
0000
0000
0000
0000
0000
0000
0000
0000
0000
0020
0000
0000
0000
0000
0000
0000
0000
0000
0000
0000
0000
0000
0000
0000
0000
0000
0000
0000
0000
0000
0000
0000
0000
0000
0000
0000
0030
0020
0000
0000
0000
0000
0000
0000
0000
0000
0000
0000
0000
0000
0000
0030
0000
0020
0000
0000
0000
0000
0000
0000
0000
0000
0000
0000
0000
0000
0030
0000
0000
0020
0000
0000
0000
0000
0000
0000
0000
0000
0000
0000
0000
0000
0000
0000
0000
0000
0000
0000
0000
0000
0030
0000
0000
0020
0000
0000
0000
0000
0000
0000
0000
0000
0000
0000
0000
0000
0000
0000
0000
0000
0000
0000
0000
0000
0030
0000
0000
,  // measure 52
0020
0000
0000
0000
0000
0000
0000
0000
0000
0000
0000
0000
0000
0000
0000
0030
0020
0000
0000
0000
0000
0000
0000
0000
0031
0000
0000
0000
1000
0000
0000
0000
0100
0000
0000
0000
0000
0000
0000
0000
1000
0000
0000
0000
0000
0000
0000
0000
0001
0000
0000
0000
0000
0000
0000
0000
0010
0000
0000
0000
0100
0000
0000
0000
,  // measure 53
0000
0010
0100
0000
1100
0000
0001
0000
0100
0000
0001
0000
1000
0000
0010
0100
,  // measure 54
0000
0100
0010
1000
0001
0000
0010
0000
0011
0000
0000
0000
1100
0000
0001
0100
,  // measure 55
0000
0010
1000
0000
1010
0000
0001
0000
0010
0000
0100
0010
0100
0000
1000
0000
,  // measure 56
0002
0203
2300
3100
0110
0000
1000
0000
0001
0000
0100
0010
0000
0100
0010
0000
,  // measure 57
1010
0000
0001
0000
0010
0000
0001
0000
1000
0000
0100
0010
0000
0010
0100
1000
,  // measure 58
0001
1000
1010
0001
0011
1000
1100
1100
,  // measure 59
0101
0000
0010
0000
0200
0000
0000
0000
0000
0000
0000
0000
0310
1000
0001
0100
,  // measure 60
0010
0000
1000
0000
0110
0000
0000
0000
0110
0000
0001
0000
1000
0100
1000
0000
,  // measure 61
1001
0000
0001
0000
0010
0000
1000
0000
0010
0000
0001
1000
0000
1000
0010
0100
,  // measure 62
0001
0000
1000
0000
1100
0000
0000
0000
0110
0000
1000
0000
0001
0010
0001
0000
,  // measure 63
1001
0000
1000
0000
0100
0010
0001
0000
1000
0000
0010
0000
0200
0302
2003
3100
,  // measure 64
1001
1001
0110
0001
1001
0100
0110
1000
,  // measure 65
0011
0000
1000
0000
0100
0000
1000
0010
0000
0010
0100
0001
0010
0000
0001
0000
,  // measure 66
1100
0001
0101
1000
1010
1010
0011
0000
,  // measure 67
0220
0000
0000
0000
,  // measure 68
0000
0000
0000
0000
,  // measure 69
0330
0000
0000
0000
;

//---------------dance-single - ----------------
#NOTEDATA:;
#CHARTNAME:;
#STEPSTYPE:dance-single;
#DESCRIPTION:;
#CHARTSTYLE:;
#DIFFICULTY:Medium;
#METER:11;
#RADARVALUES:0.525952,0.567842,0.580403,0.173255,0.064971,425.000000,358.000000,67.000000,20.000000,0.000000,0.000000,0.000000,0.000000,0.000000,0.525952,0.567842,0.580403,0.173255,0.064971,425.000000,358.000000,67.000000,20.000000,0.000000,0.000000,0.000000,0.000000,0.000000;
#CREDIT:led_light;
#DISPLAYBPM:80.000000:160.000000;
#NOTES:
// measure 0
0000
0000
0000
0000
,  // measure 1
0000
0000
0000
0000
,  // measure 2
0000
0000
0000
0000
,  // measure 3
0000
0000
0000
0000
,  // measure 4
0000
0000
0000
0000
,  // measure 5
0100
0100
0010
0010
,  // measure 6
1000
1000
0001
0001
,  // measure 7
0010
0100
1000
0100
,  // measure 8
0010
0000
0001
0000
2000
0000
0000
3000
,  // measure 9
0001
0100
0001
0000
0100
1000
0100
0000
,  // measure 10
1000
0010
1000
0000
0010
0001
0010
0000
,  // measure 11
0001
0100
0010
0000
0100
0001
0010
0000
,  // measure 12
0100
1000
0010
0000
0100
0010
1000
0000
,  // measure 13
0001
0010
0001
0010
0100
1000
0100
1000
,  // measure 14
0010
0100
0010
0100
0001
1000
0001
1000
,  // measure 15
0100
0001
1000
0010
0001
0100
0010
1000
,  // measure 16
0001
0000
0000
0000
0001
1000
0100
0000
,  // measure 17
1000
0001
0100
0000
1100
0000
0001
0010
,  // measure 18
1000
0000
0000
0110
0000
0000
0001
0000
0010
0000
0000
1100
0000
0000
0001
0000
,  // measure 19
0000
0100
0000
0000
2020
0000
0000
0000
0000
0000
0000
0000
0000
0000
0000
0000
,  // measure 20
0030
0000
3000
0001
1000
0100
0010
0100
,  // measure 21
1000
0001
0100
0010
0100
1000
0100
0010
,  // measure 22
1000
1000
0100
1000
0001
0010
0100
0010
,  // measure 23
0001
0100
1000
0100
0001
0001
0010
0100
,  // measure 24
2000
3000
0100
1000
0010
1000
0100
1000
,  // measure 25
0010
1000
0001
0010
1000
1000
0010
0001
,  // measure 26
2000
3000
1100
0000
0101
0000
1100
0001
,  // measure 27
0101
0000
0020
0000
0000
0000
0130
0001
,  // measure 28
1000
0000
0000
0000
1001
0000
0000
0100
0000
0000
0010
0000
0000
0001
0000
0000
,  // measure 29
1000
0000
0100
0000
0110
0000
0000
1000
0000
0000
0001
0000
0000
0100
0000
0000
,  // measure 30
0010
0000
1000
0000
0001
0000
0100
0001
0000
0000
0100
0000
0010
0000
1000
0010
,  // measure 31
0000
1000
0100
0100
0010
0001
1001
0000
,  // measure 32
1010
0001
0010
0001
0100
0001
0010
1000
,  // measure 33
0010
0001
1000
0001
0010
0010
0110
0000
,  // measure 34
0001
1000
0100
1000
0010
0100
0110
0000
,  // measure 35
0010
1000
0001
0001
0010
0100
2000
3000
,  // measure 36
1001
1001
0110
0110
,  // measure 37
1001
0000
0000
0000
0001
0000
0001
0000
0100
0000
0010
0000
1000
0000
0000
1010
,  // measure 38
0000
0000
0001
0000
0000
0011
0000
0000
0100
0000
0000
0000
1000
0000
0100
0000
,  // measure 39
1100
0001
0100
0101
0010
0000
0110
0000
,  // measure 40
1010
1010
0011
0011
,  // measure 41
0100
1000
0100
0010
0011
0000
0011
0000
,  // measure 42
1010
0000
1010
0000
1001
0000
0200
0300
,  // measure 43
0010
0010
1000
0001
0100
0010
0110
0000
,  // measure 44
0001
0010
0110
0000
1000
0010
0110
0000
,  // measure 45
0001
0001
0010
0001
1001
0000
1000
1000
,  // measure 46
0100
0100
0001
0100
1000
0002
0003
0200
,  // measure 47
0300
0020
0030
1000
0200
0000
0000
0000
,  // measure 48
0000
0000
0000
0300
1000
0001
0010
0000
,  // measure 49
0001
1000
0010
0000
0011
0000
1000
0100
,  // measure 50
0001
0000
0000
0110
0000
0000
1000
0000
0100
0000
0000
0011
0000
0000
1000
0000
,  // measure 51
0000
0010
0000
0000
0202
0000
0000
0000
0000
0000
0000
0000
0000
0000
0000
0000
,  // measure 52
0300
0000
0003
1000
0001
0001
1000
0010
,  // measure 53
0100
0000
0001
0000
1001
0000
0000
0000
0001
0000
0010
0000
0100
0000
1000
0010
,  // measure 54
0000
0010
0100
0010
1001
0000
1000
0001
,  // measure 55
0010
0100
0110
0000
1000
1000
0001
0100
,  // measure 56
0020
0030
1010
0000
1000
0100
0010
0100
,  // measure 57
1000
0000
1001
0000
1000
0010
0001
0001
,  // measure 58
0010
1000
1010
0000
1100
0000
0010
0001
,  // measure 59
0101
0000
0020
0000
0000
0000
0130
0001
,  // measure 60
1000
0000
1100
0000
1100
0000
0011
1000
,  // measure 61
0010
0000
0101
0000
0101
0000
1000
0010
,  // measure 62
0100
0001
0011
0000
0011
0000
1100
0001
,  // measure 63
0100
0000
1010
0100
0010
0000
2000
3002
,  // measure 64
1003
0100
1100
0000
0101
0000
0101
0000
,  // measure 65
0011
0000
0011
0000
1000
0010
0100
0000
,  // measure 66
1010
0000
0011
0000
0110
0100
0010
0000
,  // measure 67
2002
0000
0000
0000
,  // measure 68
0000
0000
0000
0000
,  // measure 69
3003
0000
0000
0000
;

//---------------dance-single - ----------------
#NOTEDATA:;
#CHARTNAME:;
#STEPSTYPE:dance-single;
#DESCRIPTION:;
#CHARTSTYLE:;
#DIFFICULTY:Easy;
#METER:7;
#RADARVALUES:0.332897,0.448296,0.311858,0.285870,0.000000,269.000000,233.000000,36.000000,33.000000,0.000000,0.000000,0.000000,0.000000,0.000000,0.332897,0.448296,0.311858,0.285870,0.000000,269.000000,233.000000,36.000000,33.000000,0.000000,0.000000,0.000000,0.000000,0.000000;
#CREDIT:led_light;
#DISPLAYBPM:80.000000:160.000000;
#NOTES:
0000
0000
0000
0000
,
0000
0000
0000
0000
,
0000
0000
0000
0000
,
0000
0000
0000
0000
,
0000
0000
0000
0000
,
1000
0100
1000
0100
,
1000
0010
1000
0010
,
0100
0001
0010
0100
,
0010
0001
2000
3000
,
0001
0001
0100
0100
,
0010
0010
1000
1000
,
0100
0100
0001
0001
,
0010
0010
1000
1000
,
0200
0301
0200
1300
,
0002
0103
2000
3100
,
0002
0023
2030
3200
,
0301
0000
1000
1100
,
0001
0100
1010
0001
,
0110
0000
0000
0000
1000
0000
0000
0000
0002
0000
0000
0003
0000
0000
0200
0000
,
0000
0300
0000
0000
0020
0000
0000
0000
0000
0000
0000
0000
0000
0000
0000
0000
,
0000
0030
0100
1000
,
0100
0001
0100
0100
,
0010
0100
0010
0000
1000
0000
1000
0000
,
0100
0000
1000
0000
0001
1000
0001
0000
,
0200
0300
0010
0000
0001
0000
0010
0000
,
1000
0000
0010
0000
0010
0100
0010
0000
,
0200
0000
0301
0000
0101
0000
1000
0100
,
1000
0020
0000
0001
,
1030
1001
0000
0100
,
1000
1010
0000
0100
,
0001
0020
0030
0200
,
0300
0000
0000
0000
2000
0000
0000
0000
3002
0000
0000
0003
0100
0000
0000
0000
,
1010
0001
0010
0100
,
0100
0010
0001
1001
,
1000
0010
1000
1100
,
0001
0110
1001
0000
,
0010
1100
1100
0101
,
0101
0000
0010
0100
0010
0000
0110
0000
,
0000
0001
0000
0000
1000
0000
0200
0000
,
0300
0020
0000
0030
0100
0000
0011
0000
,
1000
0001
1000
1000
,
0100
0010
0100
0000
1000
0000
0010
0000
,
1000
1000
0101
0000
,
0010
0010
0010
0000
0000
0000
1000
0000
,
0011
0011
0101
0101
,
1000
0100
1000
0000
1010
0000
0001
0000
,
0010
0010
0200
0000
,
0000
0300
2002
0000
,
0000
0000
0000
3003
1000
0000
1100
0000
,
0001
0100
1010
0001
,
0110
0000
0000
0000
1000
0000
0000
0000
0002
0000
0000
0003
0000
0000
0200
0000
,
0000
0300
0000
0000
0020
0000
0000
0000
0000
0000
0000
0000
0000
0000
0000
0000
,
0000
0030
0100
1000
,
0100
1010
0100
0001
,
0010
0100
0010
0000
0110
0000
0001
0000
,
1000
0000
1000
0000
0010
0100
0010
0000
,
0200
0300
0010
0000
0001
0000
0010
0000
,
0101
0000
0010
0000
1000
0000
0100
0010
,
0100
0000
0110
0000
0110
0000
0001
1000
,
0001
0200
0000
0020
,
0330
0001
0001
0010
,
1001
0100
0010
0001
,
0001
1000
1000
0001
,
1010
0000
0001
0000
0100
0000
0002
0003
,
0100
0010
0100
0000
0010
0000
1100
0000
,
0010
0001
0010
0010
,
1000
0000
0001
0000
1000
0100
0001
0000
,
2002
0000
0000
0000
,
0000
0000
0000
0000
,
3003
0000
0000
0000
;

//---------------dance-double - ----------------
#NOTEDATA:;
#CHARTNAME:;
#STEPSTYPE:dance-double;
#DESCRIPTION:;
#CHARTSTYLE:;
#DIFFICULTY:Hard;
#METER:15;
#RADARVALUES:0.704157,0.806934,0.658368,0.337847,0.372498,569.000000,493.000000,76.000000,39.000000,0.000000,0.000000,0.000000,0.000000,0.000000,0.704157,0.806934,0.658368,0.337847,0.372498,569.000000,493.000000,76.000000,39.000000,0.000000,0.000000,0.000000,0.000000,0.000000;
#CREDIT:led_light;
#DISPLAYBPM:80.000000:160.000000;
#NOTES:
00000000
00000000
00000000
00000000
,
00000000
00000000
00000000
00000000
,
00000000
00000000
00000000
00000000
,
00000000
00000000
00000000
00000000
,
00000000
00000000
00000000
00000000
,
00010000
00010000
00001000
00001000
,
01000000
01000000
00100000
00100000
,
10000000
01000000
00010000
00001000
,
00000100
00000000
00000001
00000000
00002000
00000000
00000000
00003000
,
00000001
00000010
00000100
00001000
00000001
00000010
00000100
00001000
,
00000010
00000100
00001000
00010000
00000010
00000100
00001000
00010000
,
00001000
00010000
01000000
00100000
00001000
00010000
01000000
00100000
,
00010000
01000000
00100000
10000000
00010000
01000000
00100000
10000000
,
00010000
01000000
00010000
00000000
01000000
00000000
00100000
00000000
10000000
01000000
10000000
00000000
01000000
00000000
00100000
00000000
,
00010000
01000000
00100000
00000000
00010000
00000000
00001000
00000000
00000100
00000010
00001000
00000000
00000100
00000000
00000010
00000000
,
00000001
00001000
00000001
00001000
00000001
00000010
00000100
00001000
00000100
00010000
00001000
00010000
00001000
00100000
00010000
01000000
,
00100000
00000000
00000000
00000000
10010000
10000000
01000000
00100000
,
01000000
00000000
10000000
00000000
00010000
00000000
01000000
00100000
01000000
00000000
00010000
00000000
00100000
00000000
00001000
00010000
,
00000100
00000000
00000000
00001100
00000000
00000000
00011000
00000000
00000010
00000000
00001000
00000010
00000000
00000000
00000100
00000000
,
00000001
00000000
00000000
00000000
00000000
00000000
00000000
00000000
00000000
00000000
00000000
00000000
00000010
00000000
00000000
00000000
00000000
00000000
00000000
00000000
00000000
00000000
00000000
00000000
00000000
00000000
00000000
00000000
00000000
00000000
00000000
00000000
00000000
00000000
00000000
00000000
00000000
00000000
00000000
00000000
00000000
00000000
00000000
00000000
00000000
00000000
00000000
00000000
00001100
00000000
00000000
00000000
00000000
00000000
00000000
00000000
00000000
00000000
00000000
00000000
00000000
00000000
00000000
00000000
00000000
00000000
00000000
00000000
00000000
00000000
00000000
00000000
00010000
00000000
00000000
00000000
00000000
00000000
00000000
00000000
00000000
00000000
00000000
00000000
00002000
00000000
00000000
00000000
00000000
00000000
00000000
00000000
00000000
00000000
00000000
00000000
00000000
00000000
00000000
00000000
00000000
00000000
00000000
00000000
00000000
00000000
00000000
00000000
00000000
00000000
00000000
00003000
00002000
00000000
00000000
00000000
00000000
00000000
00000000
00000000
00000000
00000000
00000000
00000000
00000000
00000000
00003000
00000000
00002000
00000000
00000000
00000000
00000000
00000000
00000000
00000000
00000000
00000000
00000000
00000000
00000000
00003000
00000000
00000000
00002000
00000000
00000000
00000000
00000000
00000000
00000000
00000000
00000000
00000000
00000000
00000000
00000000
00000000
00000000
00000000
00000000
00000000
00000000
00000000
00000000
00003000
00000000
00000000
00002000
00000000
00000000
00000000
00000000
00000000
00000000
00000000
00000000
00000000
00000000
00000000
00000000
00000000
00000000
00000000
00000000
00000000
00000000
00000000
00000000
00003000
00000000
00000000
,
00002000
00000000
00000000
00000000
00000000
00000000
00000000
00000000
00000000
00000000
00000000
00000000
00000000
00000000
00000000
00003000
00002000
00000000
00000000
00000000
00000000
00000000
00000000
00000000
00013000
00000000
00000000
00000000
00001000
00000000
00000000
00000000
01000000
00000000
00000000
00000000
00000000
00000000
00000000
00000000
00001000
00000000
00000000
00000000
00000000
00000000
00000000
00000000
00010000
00000000
00000000
00000000
00000000
00000000
00000000
00000000
00001000
00000000
00000000
00000000
00000000
00000000
00000000
00000000
,
01000000
00001000
00010000
01000000
10000000
00100000
01000000
00100000
,
10000000
00000000
10000000
00010000
10000000
00000000
01000000
00000000
00100000
00000000
00010000
00000000
01000000
00000000
00001000
00000000
,
00100000
00000000
00010000
00000000
01000000
00000000
00001000
00000000
00010000
00000000
00010000
00001000
00010000
00000000
00000100
00000000
,
00000020
00000032
00002003
00003000
00001001
00000000
00000010
00000000
00010000
00000000
00000100
00000000
00001000
00000000
00000010
00000000
,
00000100
00000000
00001000
00000000
00010000
00000000
00001000
00000000
00000100
00000000
00000100
00000010
00000100
00000000
00000001
00000000
,
00002000
00003000
00001100
00001000
00000010
00010000
00011000
00011000
,
00011000
00000000
00000000
00000000
02000000
00000000
00000000
00000000
00000000
00000000
00000000
00000000
03100000
10000000
00100000
10000000
,
00010000
00000000
00100000
00000000
01100000
00000000
00000000
10000000
00000000
00000000
00100000
00000000
00000000
01000000
00010000
00000000
,
00001000
00000000
00000010
00000000
00000110
00000000
00000000
00000001
00000000
00000000
00000010
00000000
00000000
00000100
00001000
00000000
,
00010000
00000000
00100000
00000000
01000000
00000000
10000000
00010000
00000000
10000000
01000000
00100000
00010000
00000000
01000000
00010000
,
00000000
01000000
00100000
10000000
00010000
00100000
00010000
00100000
00001000
00010000
00001000
00010000
00011000
00000000
00000000
00000000
,
00011000
00000010
00001000
00000010
00000001
00000010
00000100
00000100
,
00001000
00001000
00010000
00010000
00100000
01000000
11000000
00000000
,
00110000
00001000
01000000
00100000
10000000
00010000
00110000
00000000
,
11000000
00000000
00010000
00000000
01000000
00010000
01000000
00000000
00001000
00010000
00001000
00000000
00200000
00000000
00300000
00000000
,
00011000
00000100
00011000
00000000
00011000
00100000
00011000
00000000
,
00011000
00000000
00000010
00000000
00001010
00000000
00001000
00000000
00000001
00000000
00000010
00000100
00002000
00000000
00003000
00011000
,
00000000
00000000
02000000
00000000
03000000
01100000
00000000
00000000
20000000
00000000
30000000
00000000
10100000
00000000
10100000
00000000
,
01010000
00011000
00011000
00010100
00000110
00000000
00000110
00000001
,
00001000
00000010
00000100
00001000
00011000
00001000
01000000
00010000
,
10010000
10010000
11000000
00100000
00010000
00000000
00011000
00100000
,
00001000
01000000
01010000
00001000
00011000
00000000
00000200
00000000
,
00010300
00001000
00010000
00000000
00000010
00000000
00001000
00000000
00000100
00000000
00000100
00000000
00000101
00000000
00000000
00000000
,
00001100
00000100
00001000
00000001
00000101
00000100
00001000
00010000
,
00011000
00000000
00011000
00000000
00101000
00000000
00010000
10000000
00200000
00000000
00300000
00000000
01000000
00000000
10000000
00000000
,
01000000
00000000
00100000
00000000
00010000
00000000
00001000
00010000
00001000
00000000
00000200
00000000
00000300
00000000
00000002
00000000
,
00000003
00000020
00000030
00000100
00002000
00000000
00000000
00000000
,
00000000
00000000
00000000
00003000
00001000
00000001
00000010
00000100
,
00000010
00000000
00000001
00000000
00001000
00000000
00000010
00000100
00000010
00000000
00001000
00000000
00000100
00000000
00010000
00001000
,
00100000
00000000
00000000
00110000
00000000
00000000
00011000
00000000
01000000
00000000
00010000
01000000
00000000
00000000
00100000
00000000
,
10000000
00000000
00000000
00000000
00000000
00000000
00000000
00000000
00000000
00000000
00000000
00000000
01000000
00000000
00000000
00000000
00000000
00000000
00000000
00000000
00000000
00000000
00000000
00000000
00000000
00000000
00000000
00000000
00000000
00000000
00000000
00000000
00000000
00000000
00000000
00000000
00000000
00000000
00000000
00000000
00000000
00000000
00000000
00000000
00000000
00000000
00000000
00000000
00110000
00000000
00000000
00000000
00000000
00000000
00000000
00000000
00000000
00000000
00000000
00000000
00000000
00000000
00000000
00000000
00000000
00000000
00000000
00000000
00000000
00000000
00000000
00000000
00001000
00000000
00000000
00000000
00000000
00000000
00000000
00000000
00000000
00000000
00000000
00000000
00020000
00000000
00000000
00000000
00000000
00000000
00000000
00000000
00000000
00000000
00000000
00000000
00000000
00000000
00000000
00000000
00000000
00000000
00000000
00000000
00000000
00000000
00000000
00000000
00000000
00000000
00000000
00030000
00020000
00000000
00000000
00000000
00000000
00000000
00000000
00000000
00000000
00000000
00000000
00000000
00000000
00000000
00030000
00000000
00020000
00000000
00000000
00000000
00000000
00000000
00000000
00000000
00000000
00000000
00000000
00000000
00000000
00030000
00000000
00000000
00020000
00000000
00000000
00000000
00000000
00000000
00000000
00000000
00000000
00000000
00000000
00000000
00000000
00000000
00000000
00000000
00000000
00000000
00000000
00000000
00000000
00030000
00000000
00000000
00020000
00000000
00000000
00000000
00000000
00000000
00000000
00000000
00000000
00000000
00000000
00000000
00000000
00000000
00000000
00000000
00000000
00000000
00000000
00000000
00000000
00030000
00000000
00000000
,
00020000
00000000
00000000
00000000
00000000
00000000
00000000
00000000
00000000
00000000
00000000
00000000
00000000
00000000
00000000
00030000
00020000
00000000
00000000
00000000
00000000
00000000
00000000
00000000
00031000
00000000
00000000
00000000
00010000
00000000
00000000
00000000
00000100
00000000
00000000
00000000
00000000
00000000
00000000
00000000
00010000
00000000
00000000
00000000
00000000
00000000
00000000
00000000
00001000
00000000
00000000
00000000
00000000
00000000
00000000
00000000
00010000
00000000
00000000
00000000
00000010
00000000
00000000
00000000
,
00000000
00010000
00000010
00000000
00001010
00000000
00010000
00000000
00000100
00000000
00001000
00000000
00000001
00000000
00000010
00001000
,
00000000
00001000
00000010
00000001
00001000
00000000
00000001
00000000
00001001
00000000
00000000
00000000
00001100
00000000
00010000
00001000
,
00000000
00010000
00001000
00000000
01010000
00000000
00001000
00000000
00100000
00000000
00010000
10000000
00010000
00000000
01000000
00000000
,
00200000
20300000
32000000
03100000
00110000
00000000
00001000
00000000
00010000
00000000
00001000
01000000
00000000
00001000
01000000
00000000
,
01010000
00000000
00001000
00000000
00100000
00000000
00010000
00000000
10000000
00000000
01000000
00010000
00000000
00010000
01000000
10000000
,
00010000
10000000
10100000
00010000
00110000
00001000
00011000
00001010
,
00010010
00000000
00000100
00000000
00020000
00000000
00000000
00000000
00000000
00000000
00000000
00000000
00031000
00010000
00001000
00010000
,
00001000
00000000
00010000
00000000
00010100
00000000
00000000
00000000
00010100
00000000
00100000
00000000
00001000
00010000
00001000
00000000
,
01001000
00000000
00010000
00000000
00100000
00000000
10000000
00000000
00100000
00000000
00010000
10000000
00000000
10000000
00000000
01000000
,
10000000
00000000
00010000
00000000
00110000
00000000
00000000
00000000
00110000
00000000
10000000
00000000
00010000
01000000
00010000
00000000
,
01100000
00000000
10000000
00000000
00010000
00100000
00010000
00000000
10000000
00000000
01000000
00000000
00020000
00032000
00003200
00000301
,
00000101
00000110
00000110
00001000
00011000
00001000
00100000
00010000
,
10100000
00000000
00010000
00000000
10000000
00000000
00100000
01000000
00000000
01000000
00000000
00001000
00010000
00000000
00000100
00000000
,
00001100
00010000
00000010
00001000
00011000
00011000
00011000
00000000
,
02200000
00000000
00000000
00000000
,
00000000
00000000
00000000
00000000
,
03300000
00000000
00000000
00000000
;

//---------------dance-double - ----------------
#NOTEDATA:;
#CHARTNAME:;
#STEPSTYPE:dance-double;
#DESCRIPTION:;
#CHARTSTYLE:;
#DIFFICULTY:Medium;
#METER:11;
#RADARVALUES:0.513576,0.537956,0.537090,0.173255,0.069302,415.000000,353.000000,62.000000,20.000000,0.000000,0.000000,0.000000,0.000000,0.000000,0.513576,0.537956,0.537090,0.173255,0.069302,415.000000,353.000000,62.000000,20.000000,0.000000,0.000000,0.000000,0.000000,0.000000;
#CREDIT:led_light;
#DISPLAYBPM:80.000000:160.000000;
#NOTES:
00000000
00000000
00000000
00000000
,
00000000
00000000
00000000
00000000
,
00000000
00000000
00000000
00000000
,
00000000
00000000
00000000
00000000
,
00000000
00000000
00000000
00000000
,
10000000
10000000
00100000
00100000
,
00010000
00010000
00001000
00001000
,
00000100
00000001
00000010
00001000
,
00010000
00000000
01000000
00000000
20000000
00000000
00000000
30000000
,
00010000
00100000
00010000
00000000
10000000
01000000
10000000
00000000
,
00100000
00010000
00100000
00000000
01000000
00010000
01000000
00000000
,
00001000
00010000
00000100
00000000
00010000
00000010
00001000
00000000
,
00000001
00000010
00000100
00000000
00001000
00000100
00000010
00000000
,
00000001
00000100
00000001
00000100
00000010
00001000
00000010
00001000
,
00010000
01000000
00010000
01000000
00100000
10000000
00100000
10000000
,
00010000
00100000
01000000
00010000
00001000
00000100
00000010
00010000
,
00001000
00000000
00000000
00000000
00010000
00001000
00100000
00000000
,
00001000
00010000
00000010
00000000
00011000
00000000
00001000
00010000
,
00000100
00000000
00000000
00001001
00000000
00000000
00000010
00000000
00001000
00000000
00000000
00001100
00000000
00000000
00010000
00000000
,
00000000
00001000
00000000
00000000
02020000
00000000
00000000
00000000
00000000
00000000
00000000
00000000
00000000
00000000
00000000
00000000
,
00030000
00000000
03000000
00001000
00010000
00000100
00010000
00001000
,
00010000
00000100
00001000
00000010
00000100
00000001
00000010
00001000
,
00010000
00000100
00010000
00010000
00001000
00010000
01000000
00010000
,
00001000
01000000
00100000
00010000
00001000
00001000
00000100
00001000
,
00020000
00030000
00001000
00100000
00001000
00010000
00001000
00100000
,
00010000
01000000
00100000
10000000
01000000
00010000
00001000
00001000
,
00200000
00300000
00011000
00000000
00010010
00000000
00001000
00001000
,
00000100
00000000
00020000
00000000
00000000
00000000
00030100
00010000
,
00001000
00000000
00000000
00000000
00011000
00000000
00000000
01000000
00000000
00000000
00001000
00000000
00000000
00100000
00000000
00000000
,
00010000
00000000
10000000
00000000
11000000
00000000
00000000
00100000
00000000
00000000
00010000
00000000
00000000
01000000
00000000
00000000
,
00001000
00000000
00010000
00000000
00000100
00000000
00000000
00001100
00000000
00000000
00010000
00000000
00000010
00000000
00000000
00001010
,
00000000
00000100
00000001
00000001
00000010
00001000
00010000
00000000
,
00011000
00001000
00010000
01000000
00010000
00001000
00100000
00010000
,
01000000
00001000
00010000
00000100
00010000
00000010
00001010
00000000
,
00000001
00000010
00001000
00000010
00000001
00001000
00001001
00000000
,
00000001
00001000
00000010
00000010
00000100
00000000
00000020
00000030
,
00001001
00001001
00011000
00011000
,
10010000
00000000
00000000
00000000
00010000
00000000
00010000
00000000
01000000
00000000
00100000
00000000
10000000
00000000
00000000
01100000
,
00000000
00000000
00010000
00000000
00000000
00011000
00000000
00000000
00000100
00000000
00000000
00000000
00010000
00000000
00001000
00000000
,
00010000
00001000
00010000
00001000
00010000
00000000
00011000
00000000
,
00101000
00101000
01010000
01010000
,
00100000
10000000
00100000
00010000
00001000
00000000
00001100
00000000
,
00000011
00000000
00000011
00000000
00000110
00000000
00002000
00003000
,
00010000
00010000
00000010
00001000
00000001
00000010
00000110
00000000
,
00001000
00000010
00001010
00000000
00010000
00001000
00011000
00000000
,
00100000
00100000
01000000
10000000
00010000
00000000
10000000
10000000
,
00100000
00100000
01000000
00010000
10000000
02000000
03000000
00020000
,
00030000
00002000
00003000
00000100
00000002
00000000
00000000
00000000
,
00000000
00000000
00000000
00000003
00010000
00001000
00100000
00000000
,
00001000
00010000
00000010
00000000
00011000
00000000
00001000
00010000
,
00000100
00000000
00000000
00001001
00000000
00000000
00000010
00000000
00001000
00000000
00000000
00001100
00000000
00000000
00010000
00000000
,
00000000
00001000
00000000
00000000
02020000
00000000
00000000
00000000
00000000
00000000
00000000
00000000
00000000
00000000
00000000
00000000
,
00030000
00000000
03000000
00001000
00010000
00000100
00010000
00001000
,
00010000
00000000
00000010
00000000
00001010
00000000
00000000
00000000
00010000
00000000
00001000
00000000
00100000
00000000
00001000
00010000
,
00000000
00010000
01000000
10000000
10010000
00000000
10000000
00010000
,
01000000
00100000
01100000
00000000
10000000
00010000
00100000
00000000
,
02000000
03000000
00100000
01000000
00010000
01000000
00100000
00001000
,
00011000
00000000
00000000
00000000
00010000
00000000
00000010
00000000
00001000
00000000
00000010
00010000
00000000
00000000
00010000
00000000
,
00001000
00000010
00000011
00000000
00001100
00000000
00011000
01000000
,
00010000
00000000
00200000
00000000
00000000
00000000
10300000
00100000
,
00010000
11000000
11000000
00110000
,
00110000
00000000
00011000
00000000
00011000
00000000
00000010
00001000
,
00000010
00000101
00000101
00001100
,
00001100
00000000
00011000
00010000
00000010
00000000
00020000
00032000
,
00103000
00010000
10010000
00000000
01010000
00000000
01010000
00000000
,
00101000
00000000
00101000
00000000
00001000
00000010
00000001
00000000
,
00000110
00000000
00001001
00000000
00000010
00010000
00100000
00000000
,
22000000
00000000
00000000
00000000
,
00000000
00000000
00000000
00000000
,
33000000
00000000
00000000
00000000
;

//---------------dance-single - ----------------
#NOTEDATA:;
#CHARTNAME:;
#STEPSTYPE:dance-single;
#DESCRIPTION:;
#CHARTSTYLE:;
#DIFFICULTY:Beginner;
#METER:4;
#RADARVALUES:0.164592,0.218301,0.138604,0.077965,0.000000,133.000000,117.000000,16.000000,9.000000,0.000000,0.000000,0.000000,0.000000,0.000000,0.164592,0.218301,0.138604,0.077965,0.000000,133.000000,117.000000,16.000000,9.000000,0.000000,0.000000,0.000000,0.000000,0.000000;
#CREDIT:led_light;
#OFFSET:1.495000;
#BPMS:0.000000=160.000000
;
#STOPS:;
#DELAYS:;
#WARPS:;
#TIMESIGNATURES:0.000000=4=4
;
#TICKCOUNTS:0.000000=4
;
#COMBOS:0.000000=1
;
#SPEEDS:0.000000=1.000000=0.000000=0
;
#SCROLLS:0.000000=1.000000
;
#FAKES:;
#LABELS:0.000000=Song Start
;
#DISPLAYBPM:80.000000:160.000000;
#NOTES:
0000
0000
0000
0000
,
0000
0000
0000
0000
,
0000
0000
0000
0000
,
0000
0000
0000
0000
,
0000
0000
0000
0000
,
0001
0000
0001
0000
,
0010
0000
0010
0000
,
0100
0000
0100
0000
,
2000
0000
3000
0000
,
0010
0000
0000
0000
,
0010
0000
0000
0000
,
0100
0000
0000
0000
,
0100
0000
0000
0000
,
0001
0000
1000
0000
,
0001
0000
1000
0000
,
0020
0000
0000
0000
,
0030
0000
0000
0000
,
1000
0000
0001
0000
,
1001
0000
0110
0000
,
1000
0000
0000
0002
,
0000
0000
0000
0003
,
0001
0000
0100
0000
,
0001
0000
0001
0000
,
1000
0000
0010
0000
,
0100
0000
0000
0000
,
0001
0000
0010
0000
,
0001
0000
0001
0000
,
1001
0000
1001
0000
,
0200
0000
0300
0000
,
0110
0000
0000
0000
,
1001
0000
0000
0000
,
0001
0000
1000
0000
,
0200
0000
0300
0000
,
0001
0000
0001
0000
,
0100
0000
0100
0000
,
1000
0000
1000
0000
,
1001
0000
0010
0010
,
0000
0100
0100
0000
,
0001
0000
1000
0000
,
0110
0000
0000
0000
,
0100
0000
1001
0000
,
0010
0010
0010
0000
,
1000
0000
1000
0000
,
0100
0100
0100
0000
,
0110
0000
0001
0001
,
0000
1000
1000
0000
,
0010
0000
0100
0000
,
1001
0000
0001
0000
,
2000
0000
3000
0000
,
0200
0000
0000
0000
,
0000
0000
0000
0000
,
0000
0000
0000
0000
,
0300
0000
0000
0000
,
1000
0000
0001
0000
,
1001
0000
0110
0000
,
1000
0000
0000
0002
,
0000
0000
0000
0003
,
0001
0000
0010
0000
,
0001
0000
0001
0001
,
1000
0000
0100
0000
,
0010
0000
0000
0000
,
0001
0000
0100
0000
,
0001
0000
0001
0000
,
1001
0000
1001
0000
,
0020
0000
0030
0000
,
0100
0100
0100
0000
,
0010
0010
0010
0000
,
0001
0001
0001
0000
,
1000
0001
0000
0000
,
0100
0100
0100
0000
,
0010
0010
0010
0000
,
1000
0000
0001
0000
,
1001
0000
0000
0000
;

//---------------dance-double - ----------------
#NOTEDATA:;
#CHARTNAME:;
#STEPSTYPE:dance-double;
#DESCRIPTION:;
#CHARTSTYLE:;
#DIFFICULTY:Easy;
#METER:7;
#RADARVALUES:0.304433,0.418410,0.251219,0.251219,0.000000,246.000000,217.000000,29.000000,29.000000,0.000000,0.000000,0.000000,0.000000,0.000000,0.304433,0.418410,0.251219,0.251219,0.000000,246.000000,217.000000,29.000000,29.000000,0.000000,0.000000,0.000000,0.000000,0.000000;
#CREDIT:led_light;
#DISPLAYBPM:80.000000:160.000000;
#NOTES:
00000000
00000000
00000000
00000000
,
00000000
00000000
00000000
00000000
,
00000000
00000000
00000000
00000000
,
00000000
00000000
00000000
00000000
,
00000000
00000000
00000000
00000000
,
00000001
00000000
00000001
00000000
,
00001000
00000000
00001000
00000000
,
00010000
00000000
00010000
00000000
,
20000000
00000000
30000000
00000000
,
00010000
00000000
01000000
00000000
,
00001000
00000000
00100000
00000000
,
00000100
00000000
00010000
00000000
,
00000010
00000000
00001000
00000000
,
00000001
00000010
00000001
00000010
,
00000100
00001000
00000100
00001000
,
00020000
00230000
02300000
23000000
,
30010000
00000000
10000000
00010000
,
01000000
01000000
00011000
00000100
,
00011000
00000000
00000000
00000000
00100000
00000000
00000000
00000000
00002000
00000000
00000000
00003000
00000000
00000000
00020000
00000000
,
00000000
00030000
00000000
00000000
00000020
00000000
00000000
00000000
00000000
00000000
00000000
00000000
00000000
00000000
00000000
00000000
,
00000000
00000030
00000100
00001000
,
00000100
00001000
00000100
00000001
,
00000010
00000100
00000010
00000000
00001000
00000000
00010000
00000000
,
00001000
00000000
00010000
00000000
01000000
00100000
01000000
00000000
,
20000000
30000000
00100000
00000000
00010000
00000000
00100000
00000000
,
00010000
00000000
00100000
00000000
10000000
00010000
10000000
00000000
,
02000000
00000000
03010000
00000000
00010000
00000000
00001000
00010000
,
00001000
00000020
00000000
00000100
,
00000031
00001100
00000000
00010000
,
00001000
01010000
00000000
00001000
,
00010000
00000200
00000300
00000020
,
00000030
00000000
00000000
00000000
00000002
00000000
00000000
00000000
00002003
00000000
00000000
00003000
00000001
00000000
00000000
00000000
,
00000010
00000001
00000001
00001000
,
00000100
00010000
00001000
00011000
,
00001000
01000000
00010000
00101000
,
00010000
01010000
10100000
00000000
,
10000000
10010000
00010000
00011000
,
00001000
00000000
00000001
00001000
00000001
00000000
00001001
00000000
,
00000000
00000010
00000000
00000000
00000100
00000000
00002000
00000000
,
00003000
00020000
00000000
00030000
00001000
00000000
00011000
00000000
,
00100000
00010000
00100000
00010000
,
01000000
00100000
10000000
00000000
01000000
00000000
00100000
00000000
,
01000000
01000000
10010000
00000000
,
00001000
00010000
00001000
00000000
00000000
00000000
00010000
00000000
,
00010100
00000100
00000110
00000010
,
00000001
00001000
00000001
00000000
00000101
00000000
00000010
00000000
,
00001000
00001000
00000200
00000000
,
00000000
00000300
00000220
00000000
,
00000000
00000000
00000000
00000330
00000001
00000000
00001000
00000000
,
00000010
00000010
00011000
00100000
,
00011000
00000000
00000000
00000000
00000100
00000000
00000000
00000000
00020000
00000000
00000000
00030000
00000000
00000000
00002000
00000000
,
00000000
00003000
00000000
00000000
02000000
00000000
00000000
00000000
00000000
00000000
00000000
00000000
00000000
00000000
00000000
00000000
,
00000000
03000000
00100000
00010000
,
00100000
01100000
10000000
01000000
,
10000000
00010000
01000000
00000000
00001000
00000000
00010000
00000000
,
00001000
00000000
00011000
00000000
00100000
00010000
00100000
00000000
,
00002000
00003000
00000010
00000000
00001000
00000000
00000010
00000000
,
00000110
00000000
00000001
00000000
00000100
00000000
00000001
00001000
,
00000100
00000000
00001001
00000000
00001001
00000000
00000010
00000100
,
00000010
00020000
00000000
00002000
,
00033000
00000100
00000100
00000100
,
00011000
00000010
00000010
00001000
,
00000110
00000001
00000010
00001000
,
00011000
00000000
00010000
00000000
00100000
00000000
20000000
30000000
,
00100000
01000000
00100000
00000000
00100000
00000000
10010000
00000000
,
01000000
01000000
00100000
00100000
,
10000000
00000000
01000000
00000000
00010000
00001000
00010000
00000000
,
00022000
00000000
00000000
00000000
,
00000000
00000000
00000000
00000000
,
00033000
00000000
00000000
00000000
;

//---------------dance-single - ----------------
#NOTEDATA:;
#CHARTNAME:;
#STEPSTYPE:dance-single;
#DESCRIPTION:;
#CHARTSTYLE:;
#DIFFICULTY:Challenge;
#METER:17;
#RADARVALUES:0.790784,0.986252,0.935575,0.433137,0.511101,639.000000,531.000000,108.000000,50.000000,92.000000,0.000000,0.000000,0.000000,0.000000,0.790784,0.986252,0.935575,0.433137,0.511101,639.000000,531.000000,108.000000,50.000000,92.000000,0.000000,0.000000,0.000000,0.000000;
#CREDIT:led_light;
#DISPLAYBPM:80.000000:160.000000;
#NOTES:
// measure 0
0000
0000
0000
0000
,  // measure 1
0000
0000
0000
0000
,  // measure 2
0000
0000
0000
0000
,  // measure 3
0000
0000
0000
0000
,  // measure 4
0000
0000
0000
0000
,  // measure 5
1000
0000
0100
0000
1000
0010
0000
0010
1000
0000
0001
0000
0010
0000
0100
0000
,  // measure 6
1000
0001
0100
0000
0001
0000
1000
0000
0100
0000
0010
0100
0000
0100
0010
0000
,  // measure 7
0001
0000
1000
0000
0100
1000
0001
0000
0100
0000
0010
1000
0000
1000
0100
0000
,  // measure 8
0010
0001
0010
0000
0100
0010
0100
0000
2000
0000
0000
0000
3002
0000
0000
0000
,  // measure 9
1003
0100
0001
MMMM
1000
0001
0100
MMMM
,  // measure 10
1000
0010
0001
MMMM
0010
1000
0001
MMMM
,  // measure 11
1000
0010
0001
MMMM
1000
0100
0001
MMMM
,  // measure 12
1000
0100
0001
MMMM
1000
0010
0001
MMMM
,  // measure 13
1000
0100
1000
0100
1000
0100
1000
0100
0010
0001
0010
0001
0010
0001
0010
0001
,  // measure 14
1000
0010
1000
0010
1000
0010
1000
0010
0100
0001
0100
0001
0100
0010
1000
0001
,  // measure 15
1000
0100
0001
1000
0010
0001
1000
0001
0100
1000
0001
0010
1000
0001
1000
0100
,  // measure 16
0010
0000
MMMM
0000
0110
0100
0001
0100
,  // measure 17
1000
0000
0000
0000
0000
0000
0010
0000
0000
0000
0000
0000
0001
0000
0000
0000
0000
0000
0010
0000
0000
1000
0000
0000
0001
0000
0000
0000
0000
0000
0010
0000
0000
0000
0000
0000
0100
0000
0000
0000
0000
0000
1000
0000
0001
0000
1000
0000
,  // measure 18
0001
0000
0000
0101
0000
0000
0110
0000
0001
0000
0010
1000
0000
0000
1000
0000
,  // measure 19
0010
0000
0000
0000
0000
0000
0000
0000
0000
0000
0000
0000
0001
0000
0000
0000
0000
0000
0000
0000
0000
0000
0000
0000
0000
0000
0000
0000
0000
0000
0000
0000
0000
0000
0000
0000
0000
0000
0000
0000
0000
0000
0000
0000
0000
0000
0000
0000
2002
0000
0000
0000
0000
0000
0000
0000
0000
0000
0000
0000
0000
0000
0000
0000
0000
0000
0000
0000
0000
3000
0000
0000
2000
0000
0000
0000
0000
0000
0000
0000
0000
0003
0000
0000
0002
0000
0000
0000
0000
0000
0000
0000
0000
0000
0000
0000
0000
0000
0000
0000
0000
0000
0000
0000
0000
0000
0000
0000
0000
0000
0000
0003
0002
0000
0000
0000
0000
0000
0000
0000
0000
0000
0000
0000
0000
0000
0003
0000
0002
0000
0000
0000
0000
0000
0000
0000
0000
0000
0000
0000
0000
0003
0000
0000
0002
0000
0000
0000
0000
0000
0000
0000
0000
0000
0000
0000
0000
0000
0000
0000
0000
0000
0000
0000
0000
0003
0000
0000
0002
0000
0000
0000
0000
0000
0000
0000
0000
0000
0000
0000
0000
0000
0000
0000
0000
0000
0000
0000
0000
0003
0000
0000
,  // measure 20
0002
0000
0000
0000
0000
0000
0000
0000
0000
0000
0000
0000
0000
0000
0000
0003
3002
0000
0000
0000
0000
0000
0000
0000
1003
0000
0000
0000
0100
0000
0000
0000
0010
0000
0000
0000
0000
0000
0000
0000
0100
0000
0000
0000
0000
0000
0000
0000
1000
0000
0000
0000
0000
0000
0000
0000
0010
0000
0000
0000
0000
0000
0000
0000
,  // measure 21
0100
0010
1000
0100
0001
0001
0100
0100
,  // measure 22
1000
0000
1000
0001
1000
0000
0001
0000
1001
0000
0001
0000
0011
0000
1000
0000
,  // measure 23
1010
0000
1000
0000
1100
0000
0010
0000
0110
0000
1000
0001
1000
0000
0001
0000
,  // measure 24
0200
0320
1030
MMMM
1001
0000
1000
0000
0001
0000
0100
0000
0110
0000
0001
0000
,  // measure 25
1000
0000
0100
0000
0110
0000
0010
0000
0100
0000
0100
0010
0100
0000
1000
0000
,  // measure 26
0002
0003
0011
1000
1100
0001
0101
0101
,  // measure 27
0110
0000
1000
0000
0002
0000
0000
0000
0000
0000
0000
0000
0013
0100
0010
0100
,  // measure 28
0010
0000
0001
0000
1001
0000
0000
0001
0000
0000
0010
0000
0000
1000
0100
0000
,  // measure 29
0001
0000
1000
0000
1100
0000
0000
1000
0000
0000
0010
0000
0000
0001
0100
0000
,  // measure 30
1000
0000
0001
0000
0100
0010
0100
0010
0001
1000
0001
0010
1000
0001
1000
0001
,  // measure 31
0010
0100
1000
0100
0010
0100
0010
1000
0001
0100
1000
0001
1001
0000
MMMM
0000
,  // measure 32
1001
0010
0110
0010
1000
0001
0101
0010
,  // measure 33
1100
0010
0011
0001
0101
1010
0110
MMMM
,  // measure 34
1001
0001
0010
0001
0101
1001
2200
3300
,  // measure 35
0110
0000
0001
0000
0100
0001
0010
0000
0100
1000
0010
0000
0200
0300
MMMM
0000
,  // measure 36
0110
0010
1010
1000
1100
0100
0110
0001
,  // measure 37
0101
0000
0000
0000
0000
0000
0010
0000
0000
0000
0000
0000
1001
0000
0000
0000
0000
0000
0011
0000
0000
0000
0000
0000
0110
0000
0000
0000
0000
0000
0100
0000
1000
0000
0100
0000
2000
0000
0000
0000
0000
0000
3000
0000
0000
1010
0000
0000
,  // measure 38
0000
0000
0002
0000
0003
0011
0000
0000
0210
0000
0300
0000
1001
0000
1010
0000
,  // measure 39
0110
MMMM
1100
0000
0011
0000
0110
MMMM
1001
0000
MMMM
0000
1001
0000
0001
0000
,  // measure 40
0100
0010
1001
0010
1001
1000
1100
1000
,  // measure 41
1010
0011
1001
0110
0011
MMMM
0011
1000
,  // measure 42
1100
0001
0100
0010
0220
0330
MMMM
0000
,  // measure 43
0001
1000
0001
0000
0010
0000
0010
0000
0100
0000
0110
0000
1001
0000
MMMM
0000
,  // measure 44
1010
0001
0110
1000
1100
0001
0101
0001
,  // measure 45
0011
0000
0000
0011
0000
0000
1010
0000
0000
0001
1000
0100
0020
0000
0000
0030
0000
0000
1010
0000
0000
0110
0000
0000
,  // measure 46
0011
0000
1000
0000
0001
0000
0010
0100
1000
0000
0002
0000
0003
0000
0200
0000
,  // measure 47
0300
2000
3000
0100
0020
0000
0000
0000
,  // measure 48
0000
0000
0000
0000
0000
0000
0030
MMMM
0110
0000
0100
0000
1000
0000
0100
0000
,  // measure 49
0001
0000
0000
0000
0000
0000
0010
0000
0000
0000
0000
0000
1000
0000
0000
0000
0000
0000
0010
0000
0000
0001
0000
0000
1000
0000
0000
0000
0000
0000
0010
0000
0000
0000
0000
0000
0100
0000
0000
0000
0000
0000
0001
0000
1000
0000
0001
0000
,  // measure 50
1000
0000
0000
1100
0000
0000
0110
0000
1000
0000
0010
0001
0000
0000
0001
0000
,  // measure 51
0010
0000
0000
0000
0000
0000
0000
0000
0000
0000
0000
0000
1000
0000
0000
0000
0000
0000
0000
0000
0000
0000
0000
0000
0000
0000
0000
0000
0000
0000
0000
0000
0000
0000
0000
0000
0000
0000
0000
0000
0000
0000
0000
0000
0000
0000
0000
0000
2002
0000
0000
0000
0000
0000
0000
0000
0000
0000
0000
0000
0000
0000
0000
0000
0000
0000
0000
0000
0000
0003
0000
0000
0002
0000
0000
0000
0000
0000
0000
0000
0000
3000
0000
0000
2000
0000
0000
0000
0000
0000
0000
0000
0000
0000
0000
0000
0000
0000
0000
0000
0000
0000
0000
0000
0000
0000
0000
0000
0000
0000
0000
3000
2000
0000
0000
0000
0000
0000
0000
0000
0000
0000
0000
0000
0000
0000
3000
0000
2000
0000
0000
0000
0000
0000
0000
0000
0000
0000
0000
0000
0000
3000
0000
0000
2000
0000
0000
0000
0000
0000
0000
0000
0000
0000
0000
0000
0000
0000
0000
0000
0000
0000
0000
0000
0000
3000
0000
0000
2000
0000
0000
0000
0000
0000
0000
0000
0000
0000
0000
0000
0000
0000
0000
0000
0000
0000
0000
0000
0000
3000
0000
0000
,  // measure 52
2000
0000
0000
0000
0000
0000
0000
0000
0000
0000
0000
0000
0000
0000
0000
3000
2003
0000
0000
0000
0000
0000
0000
0000
3001
0000
0000
0000
0100
0000
0000
0000
0010
0000
0000
0000
0000
0000
0000
0000
1000
0000
0000
0000
0000
0000
0000
0000
0001
0000
0000
0000
0000
0000
0000
0000
0010
0000
0000
0000
1000
0000
0000
0000
,  // measure 53
0000
0001
1000
0000
2100
0000
3010
0000
0001
0000
1000
0000
0010
0000
0100
0001
,  // measure 54
0000
0001
0100
0010
1000
0000
0001
0000
1001
0000
0001
0000
0011
0000
0100
0010
,  // measure 55
0000
0010
0100
0000
0110
0000
0001
0000
1000
0000
1000
0010
1000
0000
0001
0000
,  // measure 56
0020
0230
1300
MMMM
0110
0000
1000
0000
0001
0000
0100
1000
0000
0001
1000
0000
,  // measure 57
2010
0000
3100
0000
0001
0000
1000
0000
0100
0000
0010
0001
0000
0001
0010
0100
,  // measure 58
1000
0001
0021
0130
0201
1300
1010
1010
,  // measure 59
0110
0000
0001
0000
0020
0000
0000
0000
0000
0000
0000
0000
0130
0010
0100
0010
,  // measure 60
0100
0000
0010
0000
1001
0000
MMMM
0000
1001
0000
0100
0000
0010
0100
0010
0000
,  // measure 61
1001
0000
0010
0000
0100
0000
0010
0000
1001
0000
0010
0100
0000
0100
1000
0100
,  // measure 62
0010
0000
0100
0000
0101
0000
0000
0000
0110
0000
1000
0000
0001
0010
0001
0000
,  // measure 63
0110
0000
1000
0000
0001
0010
0100
0000
1000
0000
0001
0000
0200
0320
1030
MMMM
,  // measure 64
0011
1001
1100
0001
0011
0100
1000
0001
,  // measure 65
0101
0000
0010
0000
1000
0000
0100
0010
0000
0010
1000
0010
0100
0000
1000
0000
,  // measure 66
1010
0100
1001
0010
1100
0011
0110
1000
,  // measure 67
2020
0000
0000
0000
,  // measure 68
0000
0000
0000
0000
,  // measure 69
3030
0000
0000
0000
;

//---------------dance-double - ----------------
#NOTEDATA:;
#CHARTNAME:;
#STEPSTYPE:dance-double;
#DESCRIPTION:;
#CHARTSTYLE:;
#DIFFICULTY:Challenge;
#METER:17;
#RADARVALUES:0.783359,0.956366,0.935575,0.502439,0.493776,633.000000,525.000000,108.000000,58.000000,192.000000,0.000000,0.000000,0.000000,0.000000,0.783359,0.956366,0.935575,0.502439,0.493776,633.000000,525.000000,108.000000,58.000000,192.000000,0.000000,0.000000,0.000000,0.000000;
#CREDIT:led_light;
#DISPLAYBPM:80.000000:160.000000;
#NOTES:
00000000
00000000
00000000
00000000
,
00000000
00000000
00000000
00000000
,
00000000
00000000
00000000
00000000
,
00000000
00000000
00000000
00000000
,
00000000
00000000
00000000
00000000
,
10000000
00000000
01000000
00000000
00010000
00001000
00000000
00001000
00010000
00000000
00001000
00000000
00000010
00000000
00000001
00000000
,
00000100
00000000
00001000
00000000
00010000
00000000
01000000
00000000
10000000
00100000
00000000
00100000
01000000
00000000
00010000
00000000
,
00100000
00000000
00001000
00000000
00010000
00000000
00000010
00000000
00001000
00000000
00000100
00000010
00000000
00000010
00000001
00000000
,
00001000
00000001
00000010
00000000
00000100
00000000
00001000
00000000
00000002
00000000
00000000
00000000
00000203
00000000
00000000
00000000
,
00000301
00000100
00001000
MMMMMMMM
00001000
00000100
00000010
MMMMMMMM
,
00000010
00010000
00001000
MMMMMMMM
00010000
01000000
00100000
MMMMMMMM
,
10000000
01000000
00010000
MMMMMMMM
00010000
01000000
00100000
MMMMMMMM
,
00100000
00001000
00010000
MMMMMMMM
00001000
00000100
00000010
MMMMMMMM
,
00000001
00000010
00000001
00000010
00000001
00000010
00000001
00000010
00000100
00001000
00000100
00001000
00000100
00010000
00001000
00000000
,
01000000
00010000
01000000
00010000
01000000
00010000
01000000
00010000
10000000
00100000
10000000
00100000
01000000
00010000
10000000
00000000
,
01000000
00100000
00010000
01000000
00001000
00010000
00000010
00001000
00000100
00000010
00000001
00000100
00000010
00001000
00000100
00010000
,
00001000
00000000
MMMMMMMM
00000000
00011000
00000100
00010000
00010000
,
00001000
00000000
00000000
00000000
00000000
00000000
00001000
00000000
00000000
00000000
00000000
00000000
01000000
00000000
00000000
00000000
00000000
00000000
01000000
00000000
00000000
00010000
00000000
00000000
00100000
00000000
00000000
00000000
00000000
00000000
01000000
00000000
00000000
00000000
00000000
00000000
10000000
00000000
00000000
00000000
00000000
00000000
00010000
00000000
01000000
00000000
00010000
00000000
,
01000000
00000000
00000000
10100000
00000000
00000000
01010000
00000000
00001000
00000000
00010000
00000100
00000000
00000000
00000100
00000000
,
00001000
00000000
00000000
00000000
00000000
00000000
00000000
00000000
00000000
00000000
00000000
00000000
00000010
00000000
00000000
00000000
00000000
00000000
00000000
00000000
00000000
00000000
00000000
00000000
00000000
00000000
00000000
00000000
00000000
00000000
00000000
00000000
00000000
00000000
00000000
00000000
00000000
00000000
00000000
00000000
00000000
00000000
00000000
00000000
00000000
00000000
00000000
00000000
00000220
00000000
00000000
00000000
00000000
00000000
00000000
00000000
00000000
00000000
00000000
00000000
00000000
00000000
00000000
00000000
00000000
00000000
00000000
00000000
00000000
00000300
00000000
00000000
00000200
00000000
00000000
00000000
00000000
00000000
00000000
00000000
00000000
00000030
00000000
00000000
00000020
00000000
00000000
00000000
00000000
00000000
00000000
00000000
00000000
00000000
00000000
00000000
00000000
00000000
00000000
00000000
00000000
00000000
00000000
00000000
00000000
00000000
00000000
00000000
00000000
00000000
00000000
00000030
00000020
00000000
00000000
00000000
00000000
00000000
00000000
00000000
00000000
00000000
00000000
00000000
00000000
00000000
00000030
00000000
00000020
00000000
00000000
00000000
00000000
00000000
00000000
00000000
00000000
00000000
00000000
00000000
00000000
00000030
00000000
00000000
00000020
00000000
00000000
00000000
00000000
00000000
00000000
00000000
00000000
00000000
00000000
00000000
00000000
00000000
00000000
00000000
00000000
00000000
00000000
00000000
00000000
00000030
00000000
00000000
00000020
00000000
00000000
00000000
00000000
00000000
00000000
00000000
00000000
00000000
00000000
00000000
00000000
00000000
00000000
00000000
00000000
00000000
00000000
00000000
00000000
00000030
00000000
00000000
,
00000020
00000000
00000000
00000000
00000000
00000000
00000000
00000000
00000000
00000000
00000000
00000000
00000000
00000000
00000000
00000030
00000320
00000000
00000000
00000000
00000000
00000000
00000000
00000000
00000130
00000000
00000000
00000000
00000001
00000000
00000000
00000000
00001000
00000000
00000000
00000000
00000000
00000000
00000000
00000000
00000100
00000000
00000000
00000000
00000000
00000000
00000000
00000000
00000001
00000000
00000000
00000000
00000000
00000000
00000000
00000000
00000100
00000000
00000000
00000000
00000000
00000000
00000000
00000000
,
00001000
00000010
00000001
00000010
00010000
00010000
00001000
00001000
,
00100000
00000000
00100000
00010000
00100000
00000000
00001000
00000000
00011000
00000000
00001000
00000000
01001000
00000000
01000000
00000000
,
01100000
00000000
00100000
00000000
10100000
00000000
00010000
00000000
00110000
00000000
01000000
00100000
01000000
00000000
10000000
00000000
,
00020000
02030000
03001000
MMMMMMMM
00011000
00000000
00100000
00000000
00010000
00000000
01000000
00000000
01100000
00000000
00010000
00000000
,
00100000
00000000
00001000
00000000
00011000
00000000
00010000
00000000
00000010
00000000
00000010
00000100
00000010
00000000
00001000
00000000
,
00000002
00000003
00020010
00031000
00102000
00013000
00010010
00001010
,
00001100
00000000
00000010
00000000
00000002
00000000
00000000
00000000
00000000
00000000
00000000
00000000
00000013
00000100
00000010
00000100
,
00000010
00000000
00001000
00000000
00011000
00000000
00000000
00010000
00000000
00000000
01010000
00000000
00000000
01000000
10000000
00000000
,
00100000
00000000
00010000
00000000
00011000
00000000
00000000
00001000
00000000
00000000
00001100
00000000
00000000
00000100
00000001
00000000
,
00000010
00000000
00001000
00000000
00010000
00100000
10000000
00100000
00000000
00100000
00010000
00001000
00010000
00001000
00000010
00000001
,
00000000
00000001
00000010
00000100
00001000
00000010
00010000
00000010
00001000
00000010
00000001
00000010
00000110
00000000
MMMMMMMM
00000000
,
00001001
00000000
00000001
00000000
00000011
00000000
00000100
00001000
00000100
00000000
00010000
00000000
00011000
00000000
00001000
00000000
,
00100000
00010000
01010000
00001000
00010100
00001100
00011000
MMMMMMMM
,
00011000
00000010
00001010
00000100
00001001
00000110
00000022
00000033
,
00001100
00000000
00000001
00000000
00000100
00001000
00010000
00000000
00001000
00010000
00100000
00000000
20000000
30000000
MMMMMMMM
00000000
,
00110000
01000000
00110000
00001000
01010000
00100000
01010000
00001000
,
00011000
00000000
00000000
00000000
00000000
00000000
00100000
00000000
00000000
00000000
00000000
00000000
00110000
00000000
00000000
00000000
00000000
00000000
10100000
00000000
00000000
00000000
00000000
00000000
01010000
00000000
00000000
00000000
00000000
00000000
00001000
00000000
00010000
00000000
00001000
00000000
00020000
00000000
00000000
00000000
00000000
00000000
00030000
00000000
00000000
00001010
00000000
00000000
,
00000000
00000000
00020000
00000000
00030000
00001100
00000000
00000000
00000210
00000000
00000300
00000000
00011000
00000000
00110000
00000000
,
01010000
MMMMMMMM
00011000
00000000
00001010
00000000
00001100
MMMMMMMM
00011000
00000000
MMMMMMMM
00000000
00011000
00000000
00000010
00000000
,
00011000
01000000
00001000
00010000
00201000
00310000
00021000
00030010
,
00001010
00001010
00010010
00001100
00000011
MMMMMMMM
00001001
00000010
,
00001100
00010000
00001000
01000000
02200000
03300000
MMMMMMMM
00000000
,
00010000
10000000
00010000
00000000
00100000
00000000
00100000
00000000
00001000
00000000
00010100
00000000
00011000
00000000
MMMMMMMM
00000000
,
02001000
03010000
00100000
00001000
00010200
00001300
00000010
00010000
,
00011000
00000000
00000000
00110000
00000000
00000000
01100000
00000000
00000000
00010000
01000000
00001000
00020000
00000000
00000000
00030000
00000000
00000000
00010100
00000000
00000000
00010100
00000000
00000000
,
00011000
00000000
00001000
00000000
01000000
00000000
00001000
00010000
00000100
00000000
00000020
00000000
00000030
00000000
00000002
00000000
,
00000003
00000200
00000300
00001000
00020000
00000000
00000000
00000000
,
00000000
00000000
00000000
00000000
00000000
00000000
00030000
MMMMMMMM
00011000
00000000
00100000
00000000
00001000
00000000
00001000
00000000
,
00010000
00000000
00000000
00000000
00000000
00000000
00010000
00000000
00000000
00000000
00000000
00000000
00000010
00000000
00000000
00000000
00000000
00000000
00000010
00000000
00000000
00001000
00000000
00000000
00000100
00000000
00000000
00000000
00000000
00000000
00000010
00000000
00000000
00000000
00000000
00000000
00000001
00000000
00000000
00000000
00000000
00000000
00001000
00000000
00000010
00000000
00001000
00000000
,
00000010
00000000
00000000
00000101
00000000
00000000
00001010
00000000
00010000
00000000
00001000
00100000
00000000
00000000
00100000
00000000
,
00010000
00000000
00000000
00000000
00000000
00000000
00000000
00000000
00000000
00000000
00000000
00000000
01000000
00000000
00000000
00000000
00000000
00000000
00000000
00000000
00000000
00000000
00000000
00000000
00000000
00000000
00000000
00000000
00000000
00000000
00000000
00000000
00000000
00000000
00000000
00000000
00000000
00000000
00000000
00000000
00000000
00000000
00000000
00000000
00000000
00000000
00000000
00000000
02200000
00000000
00000000
00000000
00000000
00000000
00000000
00000000
00000000
00000000
00000000
00000000
00000000
00000000
00000000
00000000
00000000
00000000
00000000
00000000
00000000
00300000
00000000
00000000
00200000
00000000
00000000
00000000
00000000
00000000
00000000
00000000
00000000
03000000
00000000
00000000
02000000
00000000
00000000
00000000
00000000
00000000
00000000
00000000
00000000
00000000
00000000
00000000
00000000
00000000
00000000
00000000
00000000
00000000
00000000
00000000
00000000
00000000
00000000
00000000
00000000
00000000
00000000
03000000
02000000
00000000
00000000
00000000
00000000
00000000
00000000
00000000
00000000
00000000
00000000
00000000
00000000
00000000
03000000
00000000
02000000
00000000
00000000
00000000
00000000
00000000
00000000
00000000
00000000
00000000
00000000
00000000
00000000
03000000
00000000
00000000
02000000
00000000
00000000
00000000
00000000
00000000
00000000
00000000
00000000
00000000
00000000
00000000
00000000
00000000
00000000
00000000
00000000
00000000
00000000
00000000
00000000
03000000
00000000
00000000
02000000
00000000
00000000
00000000
00000000
00000000
00000000
00000000
00000000
00000000
00000000
00000000
00000000
00000000
00000000
00000000
00000000
00000000
00000000
00000000
00000000
03000000
00000000
00000000
,
02000000
00000000
00000000
00000000
00000000
00000000
00000000
00000000
00000000
00000000
00000000
00000000
00000000
00000000
00000000
03000000
02300000
00000000
00000000
00000000
00000000
00000000
00000000
00000000
03100000
00000000
00000000
00000000
10000000
00000000
00000000
00000000
00010000
00000000
00000000
00000000
00000000
00000000
00000000
00000000
00100000
00000000
00000000
00000000
00000000
00000000
00000000
00000000
10000000
00000000
00000000
00000000
00000000
00000000
00000000
00000000
00100000
00000000
00000000
00000000
00010000
00000000
00000000
00000000
,
00000000
00100000
00001000
00000000
00021000
00000000
00030010
00000000
00000100
00000000
00000010
00000000
00000001
00000000
00000010
00001000
,
00000000
00001000
00000100
00000010
00000001
00000000
00000010
00000000
00000110
00000000
00001000
00000000
00001001
00000000
00000010
00001000
,
00000000
00001000
00000010
00000000
00011000
00000000
00100000
00000000
00010000
00000000
10000000
00100000
10000000
00000000
01000000
00000000
,
00020000
00032000
00013000
MMMMMMMM
00011000
00000000
00000100
00000000
00000001
00000000
00000100
00001000
00000000
00000100
00010000
00000000
,
00012000
00000000
01003000
00000000
00100000
00000000
01000000
00000000
10000000
00000000
01000000
00010000
00000000
00010000
00100000
01000000
,
10000000
01000000
01020000
00031000
00012000
00003100
00001100
00000110
,
00000110
00000000
00001000
00000000
00000002
00000000
00000000
00000000
00000000
00000000
00000000
00000000
00000013
00000100
00000010
00000100
,
00000010
00000000
00000100
00000000
00001001
00000000
MMMMMMMM
00000000
00011000
00000000
01000000
00000000
00100000
01000000
00100000
00000000
,
10010000
00000000
00100000
00000000
01000000
00000000
00100000
00000000
00011000
00000000
00100000
00010000
00000000
00010000
01000000
00001000
,
00010000
00000000
00001000
00000000
00011000
00000000
MMMMMMMM
00000000
00000110
00000000
00001000
00000000
00000001
00000010
00000001
00000000
,
00000110
00000000
00001000
00000000
00000001
00000100
00000010
00000000
00001000
00000000
00010000
00000000
02000000
03200000
10300000
MMMMMMMM
,
01100000
00110000
00011000
00000100
00011000
00000010
00001000
00000001
,
00000110
00000000
00001000
00000000
00010000
00000000
01000000
00100000
00000000
00100000
10000000
00100000
00010000
00000000
00100000
00000000
,
00102000
00013000
00020010
00031000
01001000
00010100
00011000
00000010
,
00000220
00000000
00000000
00000000
,
00000000
00000000
00000000
00000000
,
00000330
00000000
00000000
00000000
;
