#VERSION:0.83;
#TITLE:AGEN WIDA;
#SUBTITLE:;
#ARTIST:JOYRYDE & Skrillex;
#TITLETRANSLIT:;
#SUBTITLETRANSLIT:;
#ARTISTTRANSLIT:;
#GENRE:Popular Songs;
#ORIGIN:;
#CREDIT:;
#BANNER:AGEN WIDA.png;
#BACKGROUND:AGEN WIDA-bg.png;
#PREVIEWVID:;
#JACKET:AGEN WIDA-jacket.png;
#CDIMAGE:;
#DISCIMAGE:;
#LYRICSPATH:;
#CDTITLE:../cdtitle.png;
#MUSIC:AGEN WIDA.ogg;
#OFFSET:1.321000;
#SAMPLESTART:31.059999;
#SAMPLELENGTH:15.000000;
#SELECTABLE:YES;
#DISPLAYBPM:63.000000:126.000000;
#BPMS:0.000=126.000,
64.000=63.000,
65.000=252.000,
67.000=126.000,
98.000=252.000,
99.000=126.000,
157.500=63.000,
158.000=126.000;
#STOPS:65.000=0.060,
65.250=0.059,
65.500=0.060,
65.750=0.059,
66.000=0.060,
66.250=0.059,
66.500=0.060,
66.750=0.059,
98.000=0.060,
98.250=0.059,
98.500=0.060,
98.750=0.059,
127.000=1.429,
156.250=0.238,
156.750=0.238,
157.250=0.238;
#DELAYS:;
#WARPS:;
#TIMESIGNATURES:0.000=4=4;
#TICKCOUNTS:0.000=4;
#COMBOS:0.000=1;
#SPEEDS:0.000=1.000=0.000=0;
#SCROLLS:0.000=1.000;
#FAKES:;
#LABELS:0.000=Song Start;
#BGCHANGES:-99.000=../bg.avi=1.000=0=0=1=====,
99999=-nosongbg-=1.000=0=0=0 // don't automatically add -songbackground-
;
#KEYSOUNDS:;
#ATTACKS:
;

//---------------dance-single - ----------------
#NOTEDATA:;
#CHARTNAME:;
#STEPSTYPE:dance-single;
#DESCRIPTION:;
#CHARTSTYLE:;
#DIFFICULTY:Beginner;
#METER:3;
#RADARVALUES:0.110051,0.181936,0.098344,0.032781,0.000000,94.000000,82.000000,12.000000,4.000000,0.000000,0.000000,0.000000,0.000000,0.000000,0.110051,0.181936,0.098344,0.032781,0.000000,94.000000,82.000000,12.000000,4.000000,0.000000,0.000000,0.000000,0.000000,0.000000;
#CREDIT:led_light;
#DISPLAYBPM:63.000000:126.000000;
#NOTES:
0000
0000
0000
0000
,
0000
0000
0000
0000
,
0000
0000
0000
0000
,
0000
0000
0000
0000
,
0000
0000
0000
0000
,
0010
0000
0000
0000
,
0000
0000
0000
0000
,
0100
0000
0000
0000
,
0000
0000
0000
0000
,
1001
0000
0000
0000
,
0010
0000
0000
0000
,
1001
0000
0000
0000
,
0100
0000
0000
0000
,
0010
0000
0010
0000
,
0100
0000
0100
0000
,
0020
0000
0000
0000
,
0030
0000
0000
0000
,
1000
0000
0001
0000
,
1000
0000
0000
0100
,
0000
0010
0000
0100
,
0000
0000
0000
0000
,
0001
0000
1000
0000
,
0001
0000
0000
0010
,
0000
0100
0000
0010
,
0000
0000
0000
0000
,
1000
0000
0100
0000
,
0010
0000
0000
0001
,
0001
0001
0000
0001
,
0001
0001
0000
0010
,
0000
0100
0000
1000
,
0000
0001
0000
1000
,
1000
1000
0000
1001
,
0000
0100
0100
0000
,
0100
0100
0100
0000
,
1000
0000
0001
0000
,
0200
0000
0300
0000
,
0110
0000
0100
0000
,
0010
0000
0010
0000
,
0200
0000
0000
0000
,
0300
0000
0000
0000
,
0100
0000
0010
0010
,
0010
0000
0110
0000
,
1000
0000
0001
0002
,
0003
0000
1001
0000
,
0010
0000
0100
0100
,
0100
0000
0110
0000
,
0000
0000
0000
1000
,
1000
0000
1001
0000
,
0000
0000
0010
0000
,
0100
0000
0110
0000
,
0000
0000
1000
0000
,
0001
0000
1001
0000
,
0000
0000
0100
0000
,
0010
0000
0110
0000
,
0000
0000
0001
0000
,
1000
0000
1001
0000
;

//---------------dance-single - ----------------
#NOTEDATA:;
#CHARTNAME:;
#STEPSTYPE:dance-single;
#DESCRIPTION:;
#CHARTSTYLE:;
#DIFFICULTY:Easy;
#METER:6;
#RADARVALUES:0.213078,0.309783,0.262250,0.221273,0.000000,182.000000,150.000000,32.000000,27.000000,0.000000,0.000000,0.000000,0.000000,0.000000,0.213078,0.309783,0.262250,0.221273,0.000000,182.000000,150.000000,32.000000,27.000000,0.000000,0.000000,0.000000,0.000000,0.000000;
#CREDIT:led_light;
#DISPLAYBPM:63.000000:126.000000;
#NOTES:
0000
0000
0000
0000
,
0000
0000
0000
0000
,
0000
0000
0000
0000
,
0000
0000
0000
0000
,
0000
0000
0000
0000
,
0200
0000
0300
0000
,
0020
0000
2030
0000
,
3002
0000
0003
0000
,
0020
0230
0310
0000
,
1001
0000
0000
0000
,
0101
0000
0000
0000
,
1100
0000
0000
0000
,
1010
0000
0000
0000
,
0011
0000
0110
0000
,
1001
0100
1001
0010
,
0002
0203
2300
3020
,
0032
0003
0000
1001
,
0010
0001
0010
1000
,
0010
0001
1010
0001
,
0100
0001
0101
1000
,
0100
1000
0000
1001
,
0100
1000
0100
0001
,
0100
1000
0101
1000
,
0010
1000
1010
0001
,
0010
0001
0000
1001
,
0001
0100
0100
1000
,
1000
0010
0110
1000
,
0010
1000
1100
0001
,
0010
0001
0101
1000
,
1000
0100
0100
0001
,
0001
1000
1000
0010
,
0100
0010
0100
1001
,
1000
1000
0100
0000
,
0001
0100
0010
0000
,
0100
0100
0010
0100
,
2000
0000
3001
0000
,
1001
0000
0101
0000
,
1001
0100
1001
0010
,
0200
0000
0000
0000
,
0300
0000
1001
0000
,
0100
0000
0010
0010
,
0200
0300
0110
0000
,
0001
0000
1000
1000
,
2000
3000
1001
0000
,
0010
0000
0100
0100
,
0020
0030
0110
0000
,
0000
0000
0000
0001
,
0110
0001
1100
0000
,
0100
0000
0010
0000
,
0100
0010
0011
0000
,
1000
0000
0001
0001
,
0010
0000
0110
0000
,
0001
0000
1000
0000
,
0001
0100
1010
0000
,
0100
0000
0010
1000
,
0001
0000
2000
0000
,
3000
0000
0200
0000
,
0320
0000
0032
0000
,
0003
0000
2000
0000
,
3020
0000
0230
0000
,
0300
0000
0002
0000
,
2003
0000
3200
0000
,
0300
0000
0020
0000
,
0030
0000
0000
0000
;

//---------------dance-single - ----------------
#NOTEDATA:;
#CHARTNAME:;
#STEPSTYPE:dance-single;
#DESCRIPTION:;
#CHARTSTYLE:;
#DIFFICULTY:Medium;
#METER:8;
#RADARVALUES:0.286836,0.413044,0.336008,0.229469,0.000000,245.000000,204.000000,41.000000,28.000000,0.000000,0.000000,0.000000,0.000000,0.000000,0.286836,0.413044,0.336008,0.229469,0.000000,245.000000,204.000000,41.000000,28.000000,0.000000,0.000000,0.000000,0.000000,0.000000;
#CREDIT:led_light;
#DISPLAYBPM:63.000000:126.000000;
#NOTES:
0000
0000
0000
0000
,
0000
0000
0000
0000
,
0000
0000
0000
0000
,
0000
0000
0000
0000
,
0000
0000
0000
0000
,
0002
0000
0103
0000
,
2000
0000
3200
0000
,
0302
0000
0013
0000
,
2000
3020
0031
0000
,
1001
0000
0100
0000
,
1001
0000
0010
0000
,
0110
0000
1000
0000
,
0110
0000
0001
0000
,
1100
0001
0101
0010
,
1010
0011
1010
0110
,
1000
0100
0010
0000
0001
0100
0010
0000
,
0220
0330
0000
1001
,
0001
1000
0100
0000
1000
0001
0100
0000
,
0001
0010
0100
0000
0110
0000
0001
0000
,
1000
0100
0001
0100
1000
0000
1100
0000
,
1000
0010
0200
0000
0300
0000
1001
0000
,
1000
0001
0010
0000
0001
1000
0010
0000
,
1000
0100
0010
0000
0110
0000
1000
0000
,
0001
0010
1000
0010
0001
0000
0011
0000
,
0001
0100
0020
0000
0030
0000
0110
0000
,
0100
0100
1000
0000
0100
0100
0001
0000
,
0010
0010
1000
0000
0011
0000
1000
1000
,
0010
0010
1000
0001
0100
0000
0001
0001
,
0010
0010
0001
1000
0100
0000
1100
0000
,
0110
1100
0001
0110
,
1001
0000
0110
0000
1000
0000
0001
0100
,
0010
0000
0000
0000
0000
0000
0000
0000
0000
0000
0000
0000
0000
0000
0000
0000
1000
0000
0000
0000
0000
0000
0000
0000
0100
0000
0000
0000
0000
0000
0000
0000
0010
0000
0000
0000
0000
0000
0000
0000
0000
0000
0000
0000
0000
0000
0000
0000
0220
0330
0000
0000
0000
0000
0000
0000
0000
0000
0000
0000
0000
0000
0000
0000
,
0100
0100
1001
0000
,
0101
0000
0010
1000
0001
0000
0000
0000
,
1000
0000
1000
0000
0001
0000
0010
0100
,
2000
0000
3100
0000
,
1001
0000
1010
0000
,
0100
0100
0001
1000
,
0100
1000
0010
0000
0100
0001
0010
0000
,
0100
0000
1001
0000
,
0100
0000
0000
0000
1000
0100
1000
0000
,
0020
0030
0011
0000
,
0100
0000
0000
0000
0001
0100
0001
0000
,
1000
0000
1001
0000
,
0010
0000
0000
0000
1000
0010
1000
0000
,
0200
0300
0101
0000
,
0000
0000
0000
0101
,
1100
0010
1001
0000
,
0100
0000
0000
0000
1000
1000
0001
0000
,
0200
0300
1010
0000
,
0100
0000
0000
0000
0001
0001
0010
0000
,
0100
1000
0100
0000
1001
0000
0000
0000
,
0010
0000
0000
0000
0001
0001
1000
0000
,
0020
0030
0101
0000
,
0010
0000
0000
0000
1000
1000
0100
0000
,
0010
0000
2100
0000
,
3001
0000
0002
0000
,
2003
0000
3020
0000
,
0130
0000
0200
0000
,
0302
0000
2003
0000
,
3001
0000
0002
0000
,
2003
0000
3200
0000
,
0310
0000
0200
0000
,
0300
0000
0000
0000
;

//---------------dance-single - ----------------
#NOTEDATA:;
#CHARTNAME:;
#STEPSTYPE:dance-single;
#DESCRIPTION:;
#CHARTSTYLE:;
#DIFFICULTY:Hard;
#METER:10;
#RADARVALUES:0.429668,0.516305,0.368789,0.180297,0.000000,367.000000,322.000000,45.000000,22.000000,0.000000,0.000000,0.000000,0.000000,0.000000,0.429668,0.516305,0.368789,0.180297,0.000000,367.000000,322.000000,45.000000,22.000000,0.000000,0.000000,0.000000,0.000000,0.000000;
#CREDIT:led_light;
#DISPLAYBPM:63.000000:126.000000;
#NOTES:
0000
0000
0000
0000
,
0000
0000
0000
0000
,
0000
0000
0000
0000
,
0000
0000
0000
0000
,
0000
0000
0000
0000
,
2000
0010
0100
3001
,
0002
0100
2003
0100
,
3020
0100
0001
1030
,
0002
0023
0130
0000
,
0110
1000
0100
0100
,
0110
0001
0100
0100
,
1010
0100
0001
0001
,
0011
0100
1000
1000
,
1010
0100
0011
0100
,
1100
0101
1010
0011
,
0001
0100
1000
0100
0001
0010
1000
0010
,
0002
0003
0000
1001
,
0011
1000
0100
0000
1010
0001
0100
0000
,
0011
1000
0100
0010
0100
0000
1001
0000
,
0101
1000
0100
1000
0010
1000
1100
0000
,
0001
0100
0020
0000
0130
0000
1001
0000
,
1100
0001
0010
0000
0101
1000
0010
0000
,
1100
0001
0010
0100
0010
0000
1001
0000
,
1100
0001
0100
0001
0010
0001
0101
0000
,
1000
0100
0020
0000
0030
0000
0110
0000
,
0100
0010
0001
0000
0100
0010
1000
0000
,
0001
0010
0100
0010
0001
0000
1000
0010
,
0001
0010
1000
0010
0001
0000
1000
0100
,
0001
0100
1000
0100
0001
0000
1000
1000
,
0100
0100
0010
0010
0001
0100
0010
0010
,
1000
1000
0001
0001
0010
0100
1000
0100
,
0001
0000
0000
0000
0000
0000
0000
0000
0100
0000
0000
0000
0000
0000
0000
0000
1000
0000
0000
0000
0000
0000
0000
0000
0010
0000
0000
0000
0000
0000
0000
0000
0001
0000
0000
0000
0000
0000
0000
0000
0010
0000
0000
0000
0000
0000
0000
0000
2000
3000
0000
0000
0000
0000
0000
0000
0000
0000
0000
0000
0000
0000
0000
0000
,
1100
0101
0011
0100
,
0011
0000
0001
0100
1000
0000
1100
0000
,
0001
0000
0011
0000
0101
0000
0010
1000
,
0200
0001
1300
0010
,
1002
0103
2001
3100
,
0010
0010
0100
0100
1000
1000
0001
0001
,
0100
0010
1000
0001
0010
0100
1000
0001
,
1000
0000
0000
0000
1001
0000
0100
0100
,
0001
0100
1000
0000
0010
0010
0001
0010
,
1000
0001
0100
0000
1100
0000
0001
0001
,
0100
0001
1000
0000
0100
0100
0010
0100
,
2000
0000
3000
0000
1001
0000
0010
0010
,
1000
0010
0001
0000
0100
0100
1000
0100
,
0001
1000
0010
0000
1001
0000
0100
0000
,
0100
0000
0100
0000
0100
0000
0011
1000
,
1100
0001
0101
0010
0110
0000
0001
0100
,
1000
0100
0001
1000
0100
0100
0001
0100
,
1000
1000
0010
0100
0110
0000
0010
1000
,
0001
1000
0100
0010
0100
0100
1000
0010
,
0100
0100
0001
1000
1001
0000
1000
0010
,
0001
0010
1000
0001
0010
0010
1000
0010
,
0001
0001
0100
0010
0110
0000
0100
0001
,
1000
0001
0010
0100
0010
0010
0001
0100
,
0010
0010
1000
0001
2000
0000
0100
0000
,
0100
3100
0002
0100
,
0010
1003
2000
0010
,
0010
3010
0002
0010
,
0100
1003
2000
0100
,
0001
3100
0020
0100
,
1000
0130
0002
0010
,
1000
0013
0200
0000
,
0300
0000
0000
0000
;

//---------------dance-single - ----------------
#NOTEDATA:;
#CHARTNAME:;
#STEPSTYPE:dance-single;
#DESCRIPTION:;
#CHARTSTYLE:;
#DIFFICULTY:Challenge;
#METER:10;
#RADARVALUES:0.325471,0.438859,0.336008,0.163906,0.000000,278.000000,237.000000,41.000000,20.000000,216.000000,0.000000,0.000000,0.000000,0.000000,0.325471,0.438859,0.336008,0.163906,0.000000,278.000000,237.000000,41.000000,20.000000,216.000000,0.000000,0.000000,0.000000,0.000000;
#CREDIT:led_light;
#DISPLAYBPM:63.000000:126.000000;
#NOTES:
0000
0000
0000
0000
,
0000
0000
0000
0000
,
0000
0000
0000
0000
,
0000
0000
0000
0000
,
0000
0000
0000
0000
,
2000
0100
0001
3100
,
0002
0100
0010
1003
,
0020
1000
0001
0130
,
0002
2003
3100
MMMM
,
0110
0001
MMMM
0001
,
0110
1000
MMMM
1000
,
1001
0100
MMMM
0100
,
1001
0010
MMMM
0010
,
1100
MMMM
0101
MMMM
,
1010
0011
1100
0101
,
1000
0010
0001
0010
1000
0100
0010
0001
,
2000
0000
0000
3000
MMMM
0000
0000
0000
MMMM
0000
0000
0000
1001
0000
0000
0000
,
0001
0100
0010
0000
1000
0100
0010
0000
,
0001
0100
0010
1000
MMMM
0000
0011
0000
,
1000
0100
0001
0100
1000
0000
1100
0000
,
0001
0100
1000
0000
MMMM
0000
0110
0000
,
0100
0001
0010
0000
0100
1000
0010
0000
,
0100
0001
0010
0000
MMMM
0000
1010
0000
,
0001
0100
1000
0100
0001
0000
0101
0000
,
1000
0100
0001
0000
MMMM
0000
0110
0000
,
1000
0100
0001
0000
0001
0100
1000
0000
,
1000
0010
0001
0000
0110
0000
1000
MMMM
,
0001
MMMM
1000
MMMM
0001
0000
0001
MMMM
,
1000
MMMM
0001
MMMM
1000
0000
0011
0000
,
1100
0011
0100
0110
,
1001
0000
0110
0000
1000
0000
0001
0010
,
1000
0000
0000
0000
0000
0000
0000
0000
0010
0000
0000
0000
0000
0000
0000
0000
0001
0000
0000
0000
0000
0000
0000
0000
0100
0000
0000
0000
0000
0000
0000
0000
0010
0000
0000
0000
0000
0000
0000
0000
1000
0000
0000
0000
0000
0000
0000
0000
0002
0003
0000
0000
0000
0000
0000
0000
0000
0000
0000
0000
0000
0000
0000
0000
,
1100
0101
1100
MMMM
,
0110
0000
0001
1000
0010
0000
MMMM
0000
,
1010
0000
0001
0000
1000
0000
0100
0010
,
0002
1000
0103
MMMM
,
1000
MMMM
0001
MMMM
,
1010
1100
0011
0101
,
0010
1000
0100
0001
0100
1000
0010
0100
,
MMMM
MMMM
MMMM
MMMM
1001
0000
MMMM
0000
,
0100
0000
MMMM
0000
0010
0010
0010
0000
,
0100
0001
0010
0001
0101
0000
MMMM
0000
,
0010
0000
MMMM
0000
0100
1000
0020
0030
,
0010
0001
MMMM
MMMM
1001
0000
MMMM
0000
,
0010
0000
MMMM
0000
0100
0100
0100
0000
,
1000
0001
MMMM
MMMM
0110
0000
MMMM
0000
,
MMMM
0000
MMMM
0000
MMMM
0000
1000
0100
,
0001
0100
0010
0100
1001
0000
MMMM
0000
,
0100
0000
MMMM
0000
0010
0010
0010
0000
,
1000
0100
1000
0000
0110
0000
MMMM
0000
,
0100
0000
MMMM
0000
0010
0010
0010
0000
,
0001
0100
0010
1000
1001
0000
MMMM
0000
,
0100
0000
MMMM
0000
0010
0010
0010
0000
,
0001
0100
0001
0000
0110
0000
MMMM
0000
,
0100
0000
MMMM
0000
0010
0010
0010
0000
,
1000
0100
0010
0001
2000
0000
0100
0000
,
3100
MMMM
0002
0100
,
2003
0100
3200
0001
,
0310
MMMM
2000
0100
,
3020
0100
2030
0010
,
3010
MMMM
0002
0010
,
2003
0010
3020
0001
,
0130
MMMM
0020
0000
,
0030
0000
0000
0000
;

//---------------dance-double - ----------------
#NOTEDATA:;
#CHARTNAME:;
#STEPSTYPE:dance-double;
#DESCRIPTION:;
#CHARTSTYLE:;
#DIFFICULTY:Easy;
#METER:5;
#RADARVALUES:0.184980,0.258152,0.180297,0.180297,0.000000,158.000000,136.000000,22.000000,22.000000,0.000000,0.000000,0.000000,0.000000,0.000000,0.184980,0.258152,0.180297,0.180297,0.000000,158.000000,136.000000,22.000000,22.000000,0.000000,0.000000,0.000000,0.000000,0.000000;
#CREDIT:led_light;
#DISPLAYBPM:63.000000:126.000000;
#NOTES:
00000000
00000000
00000000
00000000
,
00000000
00000000
00000000
00000000
,
00000000
00000000
00000000
00000000
,
00000000
00000000
00000000
00000000
,
00000000
00000000
00000000
00000000
,
02000000
00000000
03000000
00000000
,
00002000
00000000
00023000
00000000
,
00032000
00000000
00003000
00000000
,
00000010
00000100
00000010
00000000
,
00001001
00000000
00000000
00000000
,
00000110
00000000
00000000
00000000
,
00011000
00000000
00000000
00000000
,
01100000
00000000
00000000
00000000
,
10010000
00000000
01000000
00000000
,
00010000
00010000
00001000
00001000
,
00020000
00000000
00000000
00000000
,
00031000
00000000
00000000
00011000
,
00000100
00000000
00010000
00000000
,
00000010
00000000
00001001
00000001
,
00000010
00000001
00000001
00001000
,
00000010
00000100
00000000
00011000
,
01000000
00000000
00001000
00000000
,
00100000
00000000
10010000
10000000
,
00100000
10000000
10000000
00010000
,
00100000
01000000
00000000
10010000
,
00010000
00000000
01000000
00000000
,
00001000
00000000
00011000
00010000
,
00001000
00010000
00000000
00001000
,
00010000
00001000
00000000
00000010
,
00000010
00000001
00000001
00000100
,
00000100
00001000
00001000
00010000
,
01000000
00000000
00000000
00000000
00000000
00000000
00000000
00000000
00000000
00000000
00000000
00000000
00000000
00000000
00000000
00000000
00010000
00000000
00000000
00000000
00000000
00000000
00000000
00000000
00000000
00000000
00000000
00000000
00000000
00000000
00000000
00000000
01000000
00000000
00000000
00000000
00000000
00000000
00000000
00000000
00000000
00000000
00000000
00000000
00000000
00000000
00000000
00000000
20000000
30000000
00000000
00000000
00000000
00000000
00000000
00000000
00000000
00000000
00000000
00000000
00000000
00000000
00000000
00000000
,
00010000
00100000
00011000
00000000
,
00000100
00000100
00010000
00000000
,
00001000
00001000
00000100
00000001
,
00000020
00000000
00000130
00000000
,
00001001
00000000
00000100
00000000
,
00001000
00001000
00010000
00010000
,
00002000
00000000
00000000
00000000
,
00003000
00000000
00011000
00000000
,
00001000
00000000
00100000
00100000
,
02000000
03000000
01100000
00000000
,
10000000
00000000
00100000
00100000
,
00020000
00030000
00011000
00000000
,
00010000
00000000
00000100
00000100
,
00000020
00000030
00000110
00000000
,
00000000
00000000
00000000
00000001
,
00001100
00010000
00001010
00000000
,
00000100
00000000
00000001
00001000
,
00000100
00000000
00001001
00000000
,
00000010
00000000
00001000
00001000
,
00010000
00000000
00110000
00000000
,
01000000
00000000
10000000
00010000
,
01000000
00000000
10010000
00000000
,
00100000
00000000
00010000
00010000
,
00001000
00000000
00020000
00000000
,
00030000
00000000
00002000
00000000
,
00003020
00000000
00000032
00000000
,
00000003
00000000
00002000
00000000
,
00003020
00000000
00000230
00000000
,
00000300
00000000
00002000
00000000
,
00023000
00000000
02030000
00000000
,
03000000
00000000
20000000
00000000
,
30000000
00000000
00000000
00000000
;

//---------------dance-double - ----------------
#NOTEDATA:;
#CHARTNAME:;
#STEPSTYPE:dance-double;
#DESCRIPTION:;
#CHARTSTYLE:;
#DIFFICULTY:Medium;
#METER:7;
#RADARVALUES:0.266933,0.413044,0.311422,0.270445,0.000000,228.000000,190.000000,38.000000,33.000000,0.000000,0.000000,0.000000,0.000000,0.000000,0.266933,0.413044,0.311422,0.270445,0.000000,228.000000,190.000000,38.000000,33.000000,0.000000,0.000000,0.000000,0.000000,0.000000;
#CREDIT:led_light;
#DISPLAYBPM:63.000000:126.000000;
#NOTES:
00000000
00000000
00000000
00000000
,
00000000
00000000
00000000
00000000
,
00000000
00000000
00000000
00000000
,
00000000
00000000
00000000
00000000
,
00000000
00000000
00000000
00000000
,
00020000
00000000
00031000
00000000
,
00000020
00000000
00000230
00000000
,
00020300
00000000
00031000
00000000
,
00200000
00320000
10030000
00000000
,
10010000
00000000
01000000
00000000
,
00011000
00000000
00000100
00000000
,
00001001
00000000
00000010
00000000
,
00011000
00000000
00100000
00000000
,
11000000
01000000
01010000
00010000
,
00011000
00000100
00011000
01000000
,
00100000
00010000
00001000
00000000
00010000
00001000
00000100
00000000
,
00000220
00000330
00000000
00001001
,
00000100
00001000
01000000
00010000
,
00000100
00001000
00011000
00000010
,
00000001
00000000
00000100
00001000
00010000
00000000
00011000
00000000
,
00001000
00010000
02000000
00000000
03000000
00000000
10010000
00000000
,
01000000
00010000
00000100
00001000
,
01000000
00010000
00011000
00100000
,
10000000
00000000
01000000
00010000
00001000
00000000
00011000
00000000
,
00010000
00001000
00000200
00000000
00000300
00000000
00000110
00000000
,
00000010
00001000
00000100
00000000
00000100
00001000
00000010
00000000
,
00000010
00001000
00010000
00000000
01100000
00000000
10000000
00000000
,
10000000
00000000
10000000
01000000
00010000
00000000
00001000
00000000
,
00001000
00000000
00001000
00000100
00000001
00000000
00000101
00000000
,
00000011
00001010
00010000
00110000
,
10100000
00000000
11000000
00000000
00010000
00000000
00001000
00000100
,
00000001
00000000
00000000
00000000
00000000
00000000
00000000
00000000
00000000
00000000
00000000
00000000
00000000
00000000
00000000
00000000
00000001
00000000
00000000
00000000
00000000
00000000
00000000
00000000
00000010
00000000
00000000
00000000
00000000
00000000
00000000
00000000
00001000
00000000
00000000
00000000
00000000
00000000
00000000
00000000
00000000
00000000
00000000
00000000
00000000
00000000
00000000
00000000
00022000
00033000
00000000
00000000
00000000
00000000
00000000
00000000
00000000
00000000
00000000
00000000
00000000
00000000
00000000
00000000
,
00000100
00000100
00001001
00000000
,
00000101
00000000
00000010
00001000
00000100
00000000
00000000
00000000
,
00010000
00000000
00010000
00000000
00001000
00000000
01000000
00100000
,
20000000
00000000
30010000
00000000
,
01010000
00000000
00101000
00000000
,
00010000
00010000
00001000
00001000
,
00000002
00002003
00023000
20030000
,
30010000
00000000
01100000
00000000
,
00010000
00000000
00000000
00000000
00100000
00001000
00100000
00000000
,
02000000
03000000
01100000
00000000
,
10000000
00000000
00000000
00000000
00010000
01000000
00001000
00000000
,
00010000
00000000
00011000
00000000
,
00010000
00000000
00000000
00000000
00000010
00001000
00000010
00000000
,
00000200
00000300
00000110
00000000
,
00000000
00000000
00000000
00000001
,
00011000
10000000
00011000
00000000
,
00000100
00000000
00000000
00000000
00010000
00010000
00001000
00000000
,
00020000
00030000
01100000
00000000
,
10000000
00000000
00000000
00000000
00100000
01000000
00100000
00000000
,
10000000
01000000
00010000
00000000
00011000
00000000
00000000
00000000
,
00100000
00000000
00000000
00000000
00001000
00001000
00010000
00000000
,
00002000
00003000
00000110
00000000
,
00000001
00000000
00000000
00000000
00000100
00000010
00000100
00000000
,
00002000
00003000
00021000
00000000
,
00031000
00000000
00200000
00000000
,
00320000
00000000
20030000
00000000
,
30100000
00000000
00200000
00000000
,
02300000
00000000
03002000
00000000
,
00013000
00000000
00000200
00000000
,
00000320
00000000
00000032
00000000
,
00001003
00000000
00000020
00000000
,
00000030
00000000
00000000
00000000
;

//---------------dance-double - ----------------
#NOTEDATA:;
#CHARTNAME:;
#STEPSTYPE:dance-double;
#DESCRIPTION:;
#CHARTSTYLE:;
#DIFFICULTY:Hard;
#METER:10;
#RADARVALUES:0.410936,0.464674,0.303226,0.237664,0.000000,351.000000,314.000000,37.000000,29.000000,0.000000,0.000000,0.000000,0.000000,0.000000,0.410936,0.464674,0.303226,0.237664,0.000000,351.000000,314.000000,37.000000,29.000000,0.000000,0.000000,0.000000,0.000000,0.000000;
#CREDIT:led_light;
#DISPLAYBPM:63.000000:126.000000;
#NOTES:
00000000
00000000
00000000
00000000
,
00000000
00000000
00000000
00000000
,
00000000
00000000
00000000
00000000
,
00000000
00000000
00000000
00000000
,
00000000
00000000
00000000
00000000
,
02000000
10000000
00100000
03010000
,
00200000
00010000
01000000
00301000
,
00000020
00000100
00000001
00001030
,
00000002
00002003
00003100
00000000
,
00000110
00000100
00000100
00000000
,
00011000
00010000
00010000
00000000
,
01100000
01000000
01000000
00000000
,
00011000
00001000
00001000
00000000
,
01100000
10000000
01100000
00010000
,
00011000
00001100
00001001
00001010
,
00000100
00000001
00000010
00000100
00001000
00010000
00100000
01000000
,
20000000
30000000
00000000
01010000
,
00100000
10000000
01000000
00000000
00100000
00010000
01000000
00000000
,
00100000
00010000
00001000
00001000
00010000
00000000
00011000
00000000
,
00001100
00010000
00001000
00010000
00000010
00010000
00011000
00000000
,
00000010
00000100
00000020
00000000
00000031
00000000
00001100
00000000
,
00000010
00000001
00000100
00000000
00000010
00001000
00000100
00000000
,
00000010
00001000
00010000
00010000
00001000
00000000
00011000
00000000
,
01010000
00001000
00010000
00001000
00100000
00001000
00011000
00000000
,
00100000
01000000
00200000
00000000
00300000
00000000
01100000
00000000
,
00010000
10000000
01000000
00000000
00010000
01000000
10000000
00000000
,
00100000
00010000
00001000
00000000
00011000
00000000
00001000
00010000
,
01000000
00010000
00001000
00010000
01000000
00000000
00010000
00001000
,
00000100
00001000
00010000
00001000
00000100
00000000
00000001
00000001
,
00001000
00001000
00000010
00000010
00010000
01000000
10000000
10000000
,
00010000
00010000
00100000
00100000
00001000
00000010
00000100
00010000
,
00001000
00000000
00000000
00000000
00000000
00000000
00000000
00000000
00000100
00000000
00000000
00000000
00000000
00000000
00000000
00000000
00010000
00000000
00000000
00000000
00000000
00000000
00000000
00000000
01000000
00000000
00000000
00000000
00000000
00000000
00000000
00000000
00001000
00000000
00000000
00000000
00000000
00000000
00000000
00000000
00100000
00000000
00000000
00000000
00000000
00000000
00000000
00000000
02000000
03000000
00000000
00000000
00000000
00000000
00000000
00000000
00000000
00000000
00000000
00000000
00000000
00000000
00000000
00000000
,
01010000
11000000
10100000
00010000
,
00011000
00000000
00001000
00000100
00000001
00000000
00000110
00000000
,
00000001
00000000
00000010
00000000
00000101
00000000
00001000
00000100
,
00020000
00001000
00030010
00000000
,
00001020
00000130
00021000
01030000
,
10000000
10000000
01000000
01000000
00010000
00010000
00001000
00001000
,
00000100
00000001
00000010
00001000
00010000
00001000
00010000
00100000
,
10000000
00000000
00000000
00000000
00110000
00000000
00001000
00001000
,
00100000
10000000
00010000
00000000
00001000
00001000
00010000
10000000
,
02000000
00000000
03001000
00000000
00011000
00000000
00010000
00010000
,
00001000
00000010
00000001
00000000
00001000
00001000
00000010
00000100
,
00000020
00000000
00000030
00000000
00001100
00000000
00010000
00010000
,
00000100
00000001
00001000
00000000
00010000
00010000
00001000
00000001
,
00000020
00010030
00011000
00000100
,
00000010
00000000
00000100
00000000
00000010
00000000
00001100
00010000
,
00001000
01000000
00010000
00100000
02100000
03000000
00010000
01000000
,
10000000
01000000
00010000
00001000
00000100
00000100
00000001
00000100
,
00001000
00010000
01000000
10000000
11000000
00000000
00100000
00010000
,
10000000
00100000
01000000
00100000
10000000
10000000
01000000
00100000
,
00001000
00001000
00000010
00000100
00000120
00000030
00001000
00000010
,
00000001
00000010
00001000
00010000
00100000
00100000
10000000
00100000
,
00010000
00001000
00000010
00000001
00000011
00000000
00000100
00001000
,
00000001
00000100
00000010
00000100
00000001
00000001
00000010
00000100
,
00010000
00010000
01000000
00100000
00020000
00000000
10000000
00000000
,
10030000
00010000
02000000
00100000
,
03002000
00100000
00023000
00000100
,
00031000
00010000
00002000
00000100
,
00023000
00030200
00002300
00000001
,
00003001
00001000
00000020
00000100
,
00020030
00000100
00032000
00100000
,
00013000
00001000
00020000
00000000
,
00030000
00000000
00000000
00000000
;

//---------------dance-double - ----------------
#NOTEDATA:;
#CHARTNAME:;
#STEPSTYPE:dance-double;
#DESCRIPTION:;
#CHARTSTYLE:;
#DIFFICULTY:Challenge;
#METER:10;
#RADARVALUES:0.328983,0.438859,0.319617,0.188492,0.000000,281.000000,242.000000,39.000000,23.000000,424.000000,0.000000,0.000000,0.000000,0.000000,0.328983,0.438859,0.319617,0.188492,0.000000,281.000000,242.000000,39.000000,23.000000,424.000000,0.000000,0.000000,0.000000,0.000000;
#CREDIT:led_light;
#DISPLAYBPM:63.000000:126.000000;
#NOTES:
// measure 0
00000000
00000000
00000000
00000000
,  // measure 1
00000000
00000000
00000000
00000000
,  // measure 2
00000000
00000000
00000000
00000000
,  // measure 3
00000000
00000000
00000000
00000000
,  // measure 4
00000000
00000000
00000000
00000000
,  // measure 5
00200000
00010000
01000000
00310000
,  // measure 6
00002000
00013000
02000000
03010000
,  // measure 7
00002000
00010000
00100000
00013000
,  // measure 8
00000200
00002300
00003001
MMMMMMMM
,  // measure 9
00001001
00000100
MMMMMMMM
00000100
,  // measure 10
00011000
01000000
MMMMMMMM
01000000
,  // measure 11
10010000
00100000
MMMMMMMM
00100000
,  // measure 12
00011000
00000010
MMMMMMMM
00000010
,  // measure 13
00000110
MMMMMMMM
00011000
MMMMMMMM
,  // measure 14
01100000
11000000
01010000
00011000
,  // measure 15
00010000
01000000
10000000
00100000
00010000
00001000
00000010
00000001
,  // measure 16
00002000
00000000
00000000
00003000
MMMMMMMM
00000000
00000000
00000000
MMMMMMMM
00000000
00000000
00000000
00001001
00000000
00000000
00000000
,  // measure 17
00000001
00000100
00001000
00000000
00000100
00000001
00000010
00000000
,  // measure 18
00001000
00010000
00100000
00010000
MMMMMMMM
00000000
00011000
00000000
,  // measure 19
00001000
00100000
00010000
00100000
01000000
00000000
11000000
00000000
,  // measure 20
00010000
01000000
00100000
00000000
MMMMMMMM
00000000
10010000
00000000
,  // measure 21
10000000
01000000
00010000
00000000
01000000
10000000
00100000
00000000
,  // measure 22
00010000
00001000
00000010
00000000
MMMMMMMM
00000000
00011000
00000000
,  // measure 23
00010000
00000010
00001000
00000010
00000100
00000000
00000101
00000000
,  // measure 24
00001000
00000100
00000020
00000030
MMMMMMMM
00000000
00001001
00000000
,  // measure 25
00000001
00000100
00001000
00000000
00000100
00001000
00010000
00000000
,  // measure 26
00001000
00010000
01000000
00000000
01100000
00000000
00001000
0001MMMM
,  // measure 27
00001000
0001MMMM
00001000
0001MMMM
00001000
MMMMMMMM
00010000
MMMM1000
,  // measure 28
00010000
MMMM1000
00010000
MMMM1000
00010000
MMMMMMMM
00011000
00000000
,  // measure 29
00110000
11000000
00010000
00011000
,  // measure 30
00001010
00000000
00000101
00000000
00001000
00000000
00010000
00000010
,  // measure 31
00001000
00000000
00000000
00000000
00000000
00000000
00000000
00000000
00000100
00000000
00000000
00000000
00000000
00000000
00000000
00000000
00010000
00000000
00000000
00000000
00000000
00000000
00000000
00000000
00001000
00000000
00000000
00000000
00000000
00000000
00000000
00000000
01000000
00000000
00000000
00000000
00000000
00000000
00000000
00000000
00010000
00000000
00000000
00000000
00000000
00000000
00000000
00000000
00200000
00300000
00000000
00000000
00000000
00000000
00000000
00000000
00000000
00000000
00000000
00000000
00000000
00000000
00000000
00000000
,  // measure 32
11000000
00011000
00000101
MMMMMMMM
,  // measure 33
00000110
00000000
00001000
00000100
00010000
00000000
MMMMMMMM
00000000
,  // measure 34
01000000
00000000
00001000
00000000
00100000
00000000
00010000
10000000
,  // measure 35
00200000
00000000
01300000
MMMMMMMM
,  // measure 36
10000000
MMMMMMMM
00010000
MMMMMMMM
,  // measure 37
00001000
00001000
00000001
00000001
00001000
00001000
00010000
00010000
,  // measure 38
10000000
01000000
00010000
01000000
10000000
00100000
00010000
00001000
,  // measure 39
MMMMMMMM
MMMMMMMM
MMMMMMMM
MMMMMMMM
00011000
00000000
MMMMMMMM
00000000
,  // measure 40
00000100
00000000
MMMMMMMM
00000000
00010000
00001000
00010000
00000000
,  // measure 41
01000000
10000000
00100000
00000000
01100000
00000000
MMMMMMMM
00000000
,  // measure 42
00010000
00000000
MMMMMMMM
00000000
10000000
01000000
00020000
00000000
,  // measure 43
00031000
00010000
MMMMMMMM
MMMMMMMM
00011000
00000000
MMMMMMMM
00000000
,  // measure 44
01000000
00000000
MMMMMMMM
00000000
00001000
00010000
00001000
00000000
,  // measure 45
00010000
00000100
MMMMMMMM
MMMMMMMM
00000110
00000000
MMMMMMMM
00000000
,  // measure 46
MMMMMMMM
MMMMMMMM
MMMMMMMM
00000101
,  // measure 47
00001010
01010000
10100000
MMMMMMMM
,  // measure 48
01000000
00000000
MMMMMMMM
00000000
00010000
00010000
00010000
00000000
,  // measure 49
00100000
00010000
00001000
00000000
00001100
00000000
MMMMMMMM
00000000
,  // measure 50
00000010
00000000
MMMMMMMM
00000000
00000001
00000001
00000001
00000000
,  // measure 51
00001000
00000010
00000100
00000001
00000101
00000000
MMMMMMMM
00000000
,  // measure 52
00000010
00000000
MMMMMMMM
00000000
00001000
00001000
00001000
00000000
,  // measure 53
00000100
00001000
00010000
00000000
00110000
00000000
MMMMMMMM
00000000
,  // measure 54
01000000
00000000
MMMMMMMM
00000000
10000000
10000000
10000000
00000000
,  // measure 55
00010000
01000000
00100000
10000000
00020000
00000000
00100000
00000000
,  // measure 56
00130000
MMMMMMMM
20000000
01000000
,  // measure 57
30020000
01000000
00230000
01000000
,  // measure 58
00310000
MMMMMMMM
00000020
00001000
,  // measure 59
00020030
00030200
00002300
00000010
,  // measure 60
00003010
MMMMMMMM
00000002
00000100
,  // measure 61
00002003
00000100
00003020
00000100
,  // measure 62
00001030
MMMMMMMM
00200000
00000000
,  // measure 63
00300000
00000000
00000000
00000000
;
