#TITLE:A Song About Literally EVERY Jessica;
#SUBTITLE:;
#ARTIST:gunnarolla;
#TITLETRANSLIT:;
#SUBTITLETRANSLIT:;
#ARTISTTRANSLIT:;
#GENRE:Variety;
#CREDIT:;
#BANNER:A Song About Literally EVERY Jessica.png;
#BACKGROUND:A Song About Literally EVERY Jessica-bg.png;
#LYRICSPATH:;
#CDTITLE:../cdtitle.png;
#MUSIC:A Song About Literally EVERY Jessica.ogg;
#OFFSET:1.767000;
#SAMPLESTART:36.126999;
#SAMPLELENGTH:15.000000;
#LASTBEATHINT:1.457300;
#SELECTABLE:YES;
#BPMS:0.000000=114.000000
;
#STOPS:
;
#BGCHANGES:3.250=A Song About Literally EVERY Jessica.avi=1.000=0=0=0=StretchNoLoop====,
99999=-nosongbg-=1.000=0=0=0 // don't automatically add -songbackground-
;
#KEYSOUNDS:;
#ATTACKS:;

//---------------dance-single - ----------------
#NOTES:
     dance-single:
     :
     Hard:
     12:
     0.485169,0.527884,0.272005,0.746072,0.272005,437.000000,402.000000,35.000000,96.000000,0.000000,0.000000,0.485169,0.527884,0.272005,0.746072,0.272005,437.000000,402.000000,35.000000,96.000000,0.000000,0.000000:
0000
0000
0000
0000
,
0000
0000
0000
0000
,
0002
0000
1003
0100
1000
0000
0101
0000
,
0002
1003
0200
1300
,
0020
0000
1030
0001
0200
0000
0310
0000
,
0020
2030
3200
0320
,
0032
0000
1003
0010
1000
0000
0011
0000
,
0010
0001
0200
0000
0310
1000
0001
0000
,
0100
0000
0000
0001
0100
0000
0010
0000
2000
0000
0000
0000
3001
0000
0000
0000
,
0020
0230
2300
3002
,
1003
0000
0100
1000
0000
1000
0100
0000
1000
0000
0010
0000
0110
0000
0000
0000
,
0001
0000
0100
0001
0000
0001
0100
0000
0001
0000
0010
0000
0110
0000
0000
0000
,
0002
0000
0000
0203
0000
0000
0320
0000
2030
0000
0000
3200
0000
0000
0320
0000
,
0032
0000
0100
0000
0013
0100
1001
0000
,
0001
0000
0010
0001
0000
0100
0000
0010
1000
0000
0000
0000
1001
0000
0000
0000
,
1000
0000
0100
1000
0000
0010
0000
0100
0001
0000
0000
0000
1001
0000
0100
0000
,
0020
0000
1030
0002
0000
0203
0000
2300
,
0000
0000
3100
0000
0011
0000
0010
0000
1010
0000
0010
0100
0001
1000
0100
0000
,
0120
0000
0031
0100
2000
0000
3100
0000
,
0001
0100
0001
0000
1000
0000
0010
0000
0100
0001
0000
0001
2000
0000
3000
0000
,
0200
0000
1300
0010
0002
0000
0013
0000
,
1000
0010
1000
0000
0001
0000
0100
0010
1000
0000
0001
0000
0020
0000
0000
0000
,
0032
0000
0000
0000
0103
0000
1000
0000
0200
0000
0000
0000
0301
0000
0000
1000
,
0100
0000
0010
0001
0100
0001
0100
0000
0001
0000
1000
0000
0100
0000
1000
0000
,
0020
0000
1030
0100
0002
0000
0103
0000
,
1000
0000
1000
0000
0011
0000
0110
0000
1100
0000
0001
0100
0010
1000
0001
0000
,
2000
0000
0000
3100
1000
0000
0001
0000
1000
0000
0000
0000
0101
0000
0000
0000
,
0002
0000
0000
0013
0001
0000
0100
0000
0010
0000
0100
0000
0110
0000
0000
0000
,
0002
0000
1003
0100
1000
0000
0101
0100
,
0002
0000
0000
2003
0000
0000
3200
0000
0320
0000
0000
0032
0000
0000
0203
0000
,
0320
0000
1030
0001
0200
0000
0310
0000
,
0020
2030
3200
0320
,
0032
0000
1003
0010
1000
0000
0011
0010
,
0002
0000
0000
0203
0000
0000
0310
0000
0000
0000
2000
0000
0000
3002
0000
0000
,
0203
0000
0000
0320
0000
0000
2030
0000
0100
0000
0000
0000
3001
0000
0000
0000
,
0020
0000
0230
0000
2300
0000
3001
0100
,
0001
0000
0010
0001
0000
0001
0010
0000
0001
0000
0100
0000
0110
0000
0000
0000
,
1000
0000
0010
1000
0000
1000
0010
0000
1000
0000
0100
0000
0110
0000
1000
0000
,
0002
0000
0000
0203
0000
0000
0320
0000
2030
0000
0000
3200
0000
0000
0320
0000
,
0032
0000
0100
0000
0013
0100
1001
0010
,
0001
0000
0010
0001
0000
0100
0000
0010
1000
0000
0000
0000
1001
0000
0100
0000
,
1000
0000
0100
1000
0000
0010
0000
0100
0001
0000
0100
0000
1001
0000
0010
0000
,
0200
0000
0301
2000
0000
3020
0000
0032
,
0000
0000
0013
0000
1100
0000
0100
0000
0101
0000
0100
0010
1000
0001
0010
0000
,
0210
0000
1300
0010
0002
0000
0013
0000
,
1000
0010
1000
0000
0001
0000
0100
0000
0010
1000
0000
1000
0002
0000
0003
0000
,
0020
0000
0031
0100
2000
0000
3100
0000
,
0001
0100
0001
0000
1000
0000
0010
0100
0001
0000
1000
0000
0200
0000
0000
0000
,
2300
0000
0000
0000
3010
0000
0001
0000
0020
0000
0000
0000
1030
0000
0000
0001
,
0010
0000
0100
1000
0010
1000
0010
0000
1000
0000
0001
0000
0010
0000
0001
0000
,
0200
0000
0000
0000
0301
0000
0010
0000
2000
0000
0000
0000
3010
0000
0000
0010
,
0001
0000
0001
0000
0110
0000
0101
0000
1010
0000
0100
0010
1000
0001
0010
0000
,
0120
0000
0000
0000
0031
0000
0100
0000
2000
0000
0000
0000
3100
0000
0000
0100
,
0001
0100
0001
0000
1000
0000
0010
0000
0100
0001
0000
0001
2000
0000
3000
0000
,
0200
0000
1300
0010
0002
0000
0013
0000
,
1000
0010
1000
0000
0001
0000
0100
0010
1000
0000
0001
0000
0020
0000
0000
0000
,
0032
0000
0000
0000
0103
0000
1000
0000
0200
0000
0000
0000
0301
0000
0000
1000
,
0100
0000
0010
0001
0100
0001
0100
0000
0001
0000
1000
0000
0100
0000
1000
0000
,
0020
0000
1030
0100
0002
0000
0103
0000
,
1000
0000
1000
0000
0011
0000
0110
0000
1100
0000
0001
0100
0010
1000
0001
0000
,
2000
0000
0000
3100
1000
0000
0001
0000
1000
0000
0000
0000
0101
0000
0000
0000
,
0002
0000
0000
0013
0001
0000
0100
0000
0010
0000
0110
0000
1001
0000
0000
0000
;

//---------------dance-single - ----------------
#NOTES:
     dance-single:
     :
     Medium:
     8:
     0.370815,0.359921,0.147660,0.567325,0.058287,334.000000,315.000000,19.000000,73.000000,0.000000,0.000000,0.370815,0.359921,0.147660,0.567325,0.058287,334.000000,315.000000,19.000000,73.000000,0.000000,0.000000:
0000
0000
0000
0000
,
0000
0000
0000
0000
,
2000
0000
3001
0100
0001
0000
0000
0000
,
2000
3100
0002
0103
,
0020
0000
0130
0001
2000
0000
3000
0000
,
0020
0230
0320
0230
,
0302
0000
1003
0100
1000
0000
0000
0000
,
0002
0000
0103
0100
0010
0000
0000
0000
,
0200
0000
0310
0100
0020
0000
0030
0000
,
0200
0302
2003
3200
,
0310
0000
0000
0100
0000
0000
1000
0000
0100
0000
0000
0000
1001
0000
0000
0000
,
0010
0000
0000
0100
0000
0000
0001
0000
0100
0000
0000
0000
1001
0000
0000
0000
,
0010
0000
0000
0100
0000
0000
1000
0000
0010
0000
0000
0100
0000
0000
0001
0000
,
2000
0000
3000
0100
1000
0000
1100
0000
,
0010
0000
0000
0001
0000
0000
0100
0000
0010
0000
0000
0000
0110
0000
0000
0000
,
1000
0000
0000
0100
0000
0000
0001
0000
0100
0000
0000
0000
1001
0000
0000
0000
,
0002
0000
0103
0020
0000
2030
0000
3002
,
0000
0010
0013
0001
0100
0001
1100
0000
,
2000
0000
3010
1000
0200
0000
0310
0000
,
0001
0100
1000
0100
0001
0100
0010
0000
,
0002
0000
0013
0100
0020
0000
1030
0000
,
0100
1000
0100
0010
0001
1000
0001
0000
,
0200
0000
0310
1000
0002
0000
0103
0000
,
0001
0010
1000
0010
0001
0010
0100
1000
,
0020
0000
0130
0010
2000
0000
3100
0000
,
0010
0001
0010
0100
1000
1000
1001
0000
,
0002
0000
0103
0001
0100
0000
1100
0000
,
0020
0000
0031
0010
0001
0100
1010
0000
,
0002
0000
1003
0100
1000
0000
0000
0000
,
0002
0103
2000
3100
,
0020
0000
0130
1000
0002
0000
0003
0000
,
0020
0230
0320
0230
,
2300
0000
3001
0100
0001
0000
0000
0000
,
2000
0000
0000
0100
0000
0000
3100
0000
0000
0000
0010
0000
0000
0100
0000
0000
,
0020
0000
0000
0032
0000
0000
2003
0000
0000
0000
0000
0000
3000
0000
0000
0000
,
0200
2300
3002
0203
,
0310
0000
0000
0100
0000
0000
0001
0000
0100
0000
0000
0000
1001
0000
0000
0000
,
0010
0000
0000
0100
0000
0000
1000
0000
0100
0000
0000
0000
1001
0000
0000
0000
,
0010
0000
0000
0100
0000
0000
0001
0000
0010
0000
0000
0100
0000
0000
1000
0000
,
0002
0000
0003
0100
0001
0000
0101
0000
,
0010
0000
0000
1000
0000
0000
0100
0000
0010
0000
0000
0000
0110
0000
0000
0000
,
0001
0000
0000
0100
0000
0000
1000
0000
0100
0000
0000
0000
1001
0000
0000
0000
,
2000
0000
3100
0020
0000
0032
0000
2003
,
0000
0010
3010
1000
0100
1000
0101
0000
,
2000
0000
3100
1000
0020
0000
0130
0000
,
0001
0010
1000
0010
0001
0010
0100
0000
,
0002
0000
0103
0010
0200
0000
1300
0000
,
0010
1000
0010
0100
0001
1000
0001
0000
,
0020
0000
0130
1000
0002
0000
0013
0000
,
0001
0100
1000
0100
0001
0100
0010
1000
,
0200
0000
0310
0100
2000
0000
3010
0000
,
0100
0001
0100
0010
1000
1000
1001
0000
,
0002
0000
0013
0001
0200
0000
0310
0000
,
1000
0100
0001
0100
1000
0100
0010
0000
,
2000
0000
3010
0100
0020
0000
0031
0000
,
0100
0001
0100
0010
1000
0001
1000
0000
,
0200
0000
0310
0001
2000
0000
3100
0000
,
1000
0010
0001
0010
1000
0010
0100
0001
,
0020
0000
0130
0010
0002
0000
0103
0000
,
0010
1000
0010
0100
0001
0001
1001
0000
,
2000
0000
3100
1000
0100
0000
0101
0000
,
0020
0000
1030
0010
1000
0100
0011
0000
;

//---------------dance-single - ----------------
#NOTES:
     dance-single:
     :
     Easy:
     5:
     0.242029,0.239947,0.139888,0.388579,0.000000,218.000000,200.000000,18.000000,50.000000,0.000000,0.000000,0.242029,0.239947,0.139888,0.388579,0.000000,218.000000,200.000000,18.000000,50.000000,0.000000,0.000000:
0000
0000
0000
0000
,
0000
0000
0000
0000
,
2000
0001
3001
0000
,
0002
0103
2000
3100
,
0020
0100
0200
0330
,
0001
0100
0010
1000
,
0200
0010
0310
0000
,
0002
0010
0013
0000
,
2000
0010
0020
3030
,
0010
0100
0001
1000
,
0100
0100
0110
0000
,
0001
0001
1001
0000
,
0200
0310
0002
0103
,
0020
0000
1030
0000
,
1000
1000
0100
0000
,
0001
0001
0100
0000
,
1000
0100
1000
0010
,
0002
0000
0010
0013
,
2000
0100
0002
3003
,
0001
1000
0001
0101
,
0020
0100
2000
3030
,
0001
0010
0001
1001
,
2000
0100
0020
3030
,
0100
0001
0100
0110
,
0002
0100
0020
0033
,
0001
1000
0001
0110
,
0100
0100
1000
0000
,
0100
0100
0001
1001
,
0002
1000
1003
0000
,
2000
3100
0002
0103
,
0020
0100
0200
0330
,
1000
0100
0010
0001
,
0200
0010
0310
0000
,
2000
0000
3100
0000
,
0020
0000
0002
0033
,
0010
0100
1000
0001
,
0100
0100
0110
0000
,
1000
1000
1001
0000
,
0200
0310
2000
3100
,
0020
0000
0031
0000
,
0001
0001
0100
0000
,
1000
1000
0100
0000
,
0001
0100
0001
0010
,
2000
0000
0010
3010
,
0002
0100
2000
3003
,
1000
0001
1000
1100
,
0020
0100
0002
0033
,
1000
0010
1000
1001
,
0002
0100
0020
0033
,
0100
1000
0100
0110
,
2000
0100
0020
3030
,
1000
0001
1000
0110
,
0002
0010
2000
3003
,
1000
0001
1000
1010
,
0200
0010
0002
0303
,
1000
0100
1000
1001
,
0002
0010
0200
0303
,
0010
1000
0010
0110
,
2000
0010
0200
3300
,
1000
0001
1000
0110
,
0010
0010
0001
0000
,
0010
0010
1000
1001
;

//---------------dance-single - ----------------
#NOTES:
     dance-single:
     :
     Beginner:
     2:
     0.064393,0.095979,0.000000,0.186518,0.000000,58.000000,58.000000,0.000000,24.000000,0.000000,0.000000,0.064393,0.095979,0.000000,0.186518,0.000000,58.000000,58.000000,0.000000,24.000000,0.000000,0.000000:
0000
0000
0000
0000
,
0000
0000
0000
0000
,
2000
0000
0000
0000
,
3000
0000
0000
0000
,
0002
0000
0000
0000
,
0003
0000
0000
0000
,
0020
0000
0000
0000
,
0030
0000
0000
0000
,
0200
0000
0000
0000
,
0300
0000
0000
0000
,
1000
0000
0000
0000
,
1000
0000
0000
0000
,
0100
0000
0100
0000
,
0020
0000
0030
0000
,
0001
0000
0000
0000
,
1000
0000
0000
0000
,
0100
0000
0100
0000
,
2000
0000
0000
3000
,
0020
0000
0030
0000
,
0010
0000
0000
0000
,
0200
0000
0300
0000
,
0100
0000
0000
0000
,
0002
0000
0003
0000
,
0001
0000
0000
0000
,
2000
0000
3000
0000
,
1000
0000
0000
0000
,
1000
0000
0000
0000
,
0001
0000
0000
0000
,
2000
0000
0000
0000
,
3000
0000
0000
0000
,
0002
0000
0000
0000
,
0003
0000
0000
0000
,
0200
0000
0000
0000
,
0300
0000
0000
0000
,
0020
0000
0000
0000
,
0030
0000
0000
0000
,
1000
0000
0000
0000
,
1000
0000
0000
0000
,
0010
0000
0010
0000
,
0200
0000
0300
0000
,
0001
0000
0000
0000
,
1000
0000
0000
0000
,
0010
0000
0010
0000
,
2000
0000
0000
3000
,
0200
0000
0300
0000
,
0100
0000
0000
0000
,
0020
0000
0030
0000
,
0010
0000
0000
0000
,
0002
0000
0003
0000
,
0001
0000
0000
0000
,
2000
0000
3000
0000
,
1000
0000
0000
0000
,
0020
0000
0030
0000
,
0010
0000
0000
0000
,
0200
0000
0300
0000
,
0100
0000
0000
0000
,
0002
0000
0003
0000
,
0001
0000
0000
0000
,
2000
0000
3000
0000
,
1000
0000
0000
0000
,
1000
0000
0000
0000
,
0001
0000
0001
1000
;

//---------------dance-double - ----------------
#NOTES:
     dance-double:
     :
     Hard:
     12:
     0.449641,0.455900,0.248691,0.753843,0.198175,405.000000,373.000000,32.000000,97.000000,0.000000,0.000000,0.449641,0.455900,0.248691,0.753843,0.198175,405.000000,373.000000,32.000000,97.000000,0.000000,0.000000:
// measure 0
00000000
00000000
00000000
00000000
,  // measure 1
00000000
00000000
00000000
00000000
,  // measure 2
00020000
00000000
00030100
00001000
00000100
00000000
00000110
00000000
,  // measure 3
00000002
00000103
00002000
00003100
,  // measure 4
00000020
00000000
00001030
00000100
00020000
00000000
00030000
00000000
,  // measure 5
00200000
20300000
32000000
03020000
,  // measure 6
00032000
00000000
00103000
00010000
00100000
00000000
01100000
00000000
,  // measure 7
10000000
01000000
20000000
00000000
30100000
01000000
00000000
00000000
,  // measure 8
00010000
00000000
00000000
10000000
01000000
00000000
00100000
00000000
00002000
00000000
00000000
00000000
00013000
00000000
00000000
00000000
,  // measure 9
00000200
00002300
00003020
00000230
,  // measure 10
00000301
00000000
00001000
00000010
00000000
00000010
00001000
00000000
00000100
00000000
00010000
00000000
00011000
00000000
00000000
00000000
,  // measure 11
00100000
00000000
00010000
01000000
00000000
01000000
00010000
00000000
10000000
00000000
01000000
00000000
00110000
00000000
00000000
00000000
,  // measure 12
02000000
00000000
00000000
23000000
00000000
00000000
30200000
00000000
00320000
00000000
00000000
00032000
00000000
00000000
00003020
00000000
,  // measure 13
00000032
00000000
00000000
00000000
00001003
00000001
00000110
00000000
,  // measure 14
00001000
00000000
00000001
00000010
00000000
00000001
00000000
00000100
00000000
00000000
00000000
00000000
00001010
00000000
00001000
00000000
,  // measure 15
00000100
00000000
00010000
00001000
00000000
00100000
00000000
00010000
00000000
00000000
01000000
00000000
01100000
00000000
00100000
00000000
,  // measure 16
20000000
00000000
31000000
00020000
00000000
00032000
00000000
00003200
,  // measure 17
00000000
00000000
00000310
00000000
00001010
00000000
00000001
00000000
00000011
00000000
00001000
00000001
00000100
00000000
00000010
00000000
,  // measure 18
00000120
00000000
00000031
00000010
00002000
00000000
00003100
00000000
,  // measure 19
00000010
00000100
00000010
00000000
00000001
00000000
00001000
00000000
00000010
00000000
00010000
00000000
00002000
00000000
00003000
00000000
,  // measure 20
02000000
00000000
03010000
00100000
00002000
00000000
00013000
00000000
,  // measure 21
01000000
00100000
01000000
00000000
10000000
00000000
00010000
00000000
01000000
00000000
00100000
00000000
20000000
00000000
00000000
00000000
,  // measure 22
32000000
00000000
00000000
00000000
13000000
00000000
00100000
00000000
00020000
00000000
00000000
00000000
00130000
00000000
00000000
01000000
,  // measure 23
00100000
00000000
01000000
00010000
01000000
00000000
00001000
00000000
00010000
00000000
00000010
00000000
00001000
00000000
00000100
00000000
,  // measure 24
00000020
00000000
00000031
00000100
00002000
00000000
00003100
00000000
,  // measure 25
00000010
00000000
00000010
00000000
00000011
00000000
00000010
00000000
00001010
00000000
00000001
00000100
00000010
00000000
00001000
00000000
,  // measure 26
00000200
00000000
00000000
00000310
00000100
00000000
00010000
00000000
00001000
00000000
00000000
00000000
00011000
00000000
00000000
00000000
,  // measure 27
00200000
00000000
00000000
00310000
01000000
00000000
00001000
00000000
00010000
00000000
00001000
00000000
00011000
00000000
00000000
00000000
,  // measure 28
00020000
00000000
00030100
00001000
00000100
00000000
00000110
00000000
,  // measure 29
00000002
00000000
00000000
00000203
00000000
00000000
00002300
00000000
00003002
00000000
00000000
00000023
00000000
00000000
00002030
00000000
,  // measure 30
00003002
00000000
00001003
00000100
00020000
00000000
00030000
00000000
,  // measure 31
00200000
20300000
32000000
03020000
,  // measure 32
00032000
00000000
00103000
00010000
00100000
00000000
01100000
00100000
,  // measure 33
00020000
00000000
00000000
20030000
00000000
00000000
30100000
00000000
00000000
00000000
02000000
00000000
00000000
03002000
00000000
00000000
,  // measure 34
00023000
00000000
00000000
00030200
00000000
00000000
00000320
00000000
00000000
00000000
00000000
00000000
00000030
00000000
00000000
00000000
,  // measure 35
00000200
00002300
00003020
00000230
,  // measure 36
00000301
00000000
00001000
00000010
00000000
00000010
00001000
00000000
00000100
00000000
00010000
00000000
00011000
00000000
00000000
00000000
,  // measure 37
00100000
00000000
00010000
01000000
00000000
01000000
00010000
00000000
10000000
00000000
01000000
00000000
00110000
00000000
00000000
00000000
,  // measure 38
02000000
00000000
00000000
23000000
00000000
00000000
30200000
00000000
00320000
00000000
00000000
00032000
00000000
00000000
00003020
00000000
,  // measure 39
00000032
00000000
00000000
00000000
00001003
00000001
00000110
00000000
,  // measure 40
00001000
00000000
00000001
00000010
00000000
00000001
00000000
00000100
00000000
00000000
00000000
00000000
00001010
00000000
00001000
00000000
,  // measure 41
00000100
00000000
00010000
00001000
00000000
00100000
00000000
00010000
00000000
00000000
01000000
00000000
01100000
00000000
00100000
00000000
,  // measure 42
20000000
00000000
31000000
00020000
00000000
00032000
00000000
00003200
,  // measure 43
00000000
00000000
00000310
00000000
00001010
00000000
00000001
00000000
00000011
00000000
00001000
00000001
00000100
00000000
00000010
00000000
,  // measure 44
00000120
00000000
00000031
00000010
00002000
00000000
00003100
00000000
,  // measure 45
00000010
00000100
00000010
00000000
00000001
00000000
00001000
00000000
00000010
00000000
00010000
00000000
00002000
00000000
00003000
00000000
,  // measure 46
02000000
00000000
03010000
00100000
00002000
00000000
00013000
00000000
,  // measure 47
01000000
00100000
01000000
00000000
10000000
00000000
00010000
00000000
01000000
00000000
00100000
00000000
20000000
00000000
00000000
00000000
,  // measure 48
32000000
00000000
00000000
00000000
13000000
00000000
00100000
00000000
00020000
00000000
00000000
00000000
00130000
00000000
00000000
01000000
,  // measure 49
00100000
00000000
01000000
00010000
01000000
00000000
00001000
00000000
00010000
00000000
00000010
00000000
00001000
00000000
00000100
00000000
,  // measure 50
00000020
00000000
00000031
00000100
00002000
00000000
00003100
00000000
,  // measure 51
00000010
00000000
00001000
00000000
00011000
00000000
00010000
00000000
00110000
00000000
00010000
10000000
00100000
00000000
01000000
00000000
,  // measure 52
02100000
00000000
13000000
01000000
00020000
00000000
00130000
00000000
,  // measure 53
01000000
00100000
01000000
00000000
10000000
00000000
00010000
00000000
01000000
00000000
00001000
00000000
00020000
00000000
00030000
00000000
,  // measure 54
00000020
00000000
00001030
00000100
00020000
00000000
00031000
00000000
,  // measure 55
00000010
00000100
00000010
00000000
00000001
00000000
00001000
00000000
00000010
00000000
00000100
00000000
00000002
00000000
00000000
00000000
,  // measure 56
00000023
00000000
00000000
00000000
00000031
00000000
00000100
00000000
00002000
00000000
00000000
00000000
00003100
00000000
00000000
00000010
,  // measure 57
00000100
00000000
00000010
00001000
00000010
00000000
00010000
00000000
00001000
00000000
01000000
00000000
00010000
00000000
00100000
00000000
,  // measure 58
02000000
00000000
13000000
00100000
00020000
00000000
00130000
00000000
,  // measure 59
01000000
00000000
01000000
00000000
11000000
00000000
01000000
00000000
01010000
00000000
10000000
00100000
01000000
00000000
00010000
00000000
,  // measure 60
00200000
00000000
00000000
01300000
00100000
00000000
00001000
00000000
00010000
00000000
00000000
00000000
00011000
00000000
00000000
00000000
,  // measure 61
00000200
00000000
00000000
00001300
00000010
00000000
00010000
00000000
00001000
00000000
00110000
00000000
10010000
00000000
00000000
00000000
;

//---------------dance-double - ----------------
#NOTES:
     dance-double:
     :
     Medium:
     8:
     0.364154,0.359921,0.147660,0.575097,0.058287,328.000000,309.000000,19.000000,74.000000,0.000000,0.000000,0.364154,0.359921,0.147660,0.575097,0.058287,328.000000,309.000000,19.000000,74.000000,0.000000,0.000000:
// measure 0
00000000
00000000
00000000
00000000
,  // measure 1
00000000
00000000
00000000
00000000
,  // measure 2
00002000
00000000
00003010
00000100
00000010
00000000
00000000
00000000
,  // measure 3
00000002
00000103
00002000
00003100
,  // measure 4
00000020
00000100
00002000
00003030
,  // measure 5
00000200
00020300
00032000
02003000
,  // measure 6
03020000
00000000
10030000
01000000
10000000
00000000
00000000
00000000
,  // measure 7
00200000
02300000
03010000
00000000
,  // measure 8
00200000
00000000
00301000
00010000
00002000
00000000
00003000
00000000
,  // measure 9
02000000
03002000
00023000
00030200
,  // measure 10
00000310
00000000
00000000
00000010
00000000
00000000
00000100
00000000
00001000
00000000
00000000
00000000
00001001
00000000
00000000
00000000
,  // measure 11
00000010
00000000
00000000
00000010
00000000
00000000
00000100
00000000
00000001
00000000
00000000
00000000
00001001
00000000
00000000
00000000
,  // measure 12
00000001
00000000
00000000
00000100
00000000
00000000
00000010
00000000
00010000
00000000
00000000
00001000
00000000
00000000
00100000
00000000
,  // measure 13
00020000
00000000
01030000
10100000
,  // measure 14
00100000
00000000
00000000
01000000
00000000
00000000
00001000
00000000
00010000
00000000
00000000
00000000
00011000
00000000
00000000
00000000
,  // measure 15
00000100
00000000
00000000
00010000
00000000
00000000
00000010
00000000
00001000
00000000
00000000
00000000
00000110
00000000
00000000
00000000
,  // measure 16
00000002
00000000
00000013
00002000
00000000
00023000
00000000
02030000
,  // measure 17
00000000
00100000
03100000
01000000
10000000
00010000
01100000
00000000
,  // measure 18
20000000
00000000
30010000
01000000
00200000
00000000
10300000
00000000
,  // measure 19
01000000
00010000
00001000
00010000
00100000
00010000
00001000
00000000
,  // measure 20
00020000
00000000
00030100
00001000
00000020
00000000
00000130
00000000
,  // measure 21
00000001
00000010
00001000
00000010
00000001
00001000
00000100
00000000
,  // measure 22
00002000
00000000
00003001
00000100
00000020
00000000
00001030
00000000
,  // measure 23
00000100
00010000
00001000
00010000
00000100
00001000
00000010
00010000
,  // measure 24
00002000
00000000
00103000
00010000
02000000
00000000
03100000
00000000
,  // measure 25
10000000
01000000
00010000
01000000
10000000
00010000
10010000
00000000
,  // measure 26
00200000
00000000
01300000
00010000
01000000
00000000
00011000
00000000
,  // measure 27
00000200
00000000
00000310
00001000
00000010
00000000
00000011
00000000
,  // measure 28
00002000
00000000
00003010
00000100
00000010
00000000
00000000
00000000
,  // measure 29
00000002
00000103
00002000
00003100
,  // measure 30
00000020
00000100
00002000
00003030
,  // measure 31
00000200
00020300
00032000
02003000
,  // measure 32
03020000
00000000
10030000
01000000
10000000
00000000
00000000
00000000
,  // measure 33
02000000
00000000
00000000
00100000
00000000
00000000
03100000
00000000
00000000
00000000
00010000
00000000
00000000
00100000
00000000
00000000
,  // measure 34
00002000
00000000
00000000
00023000
00000000
00000000
00230000
00000000
00000000
00000000
00000000
00000000
00300000
00000000
00000000
00000000
,  // measure 35
02000000
03002000
00023000
00030200
,  // measure 36
00000310
00000000
00000000
00000010
00000000
00000000
00000100
00000000
00001000
00000000
00000000
00000000
00001001
00000000
00000000
00000000
,  // measure 37
00000010
00000000
00000000
00000010
00000000
00000000
00000100
00000000
00000001
00000000
00000000
00000000
00001001
00000000
00000000
00000000
,  // measure 38
00000001
00000000
00000000
00000100
00000000
00000000
00000010
00000000
00010000
00000000
00000000
00001000
00000000
00000000
00100000
00000000
,  // measure 39
00020000
00000000
01030000
10100000
,  // measure 40
00100000
00000000
00000000
01000000
00000000
00000000
00001000
00000000
00010000
00000000
00000000
00000000
00011000
00000000
00000000
00000000
,  // measure 41
00000100
00000000
00000000
00010000
00000000
00000000
00000010
00000000
00001000
00000000
00000000
00000000
00000110
00000000
00000000
00000000
,  // measure 42
00000002
00000000
00000013
00002000
00000000
00023000
00000000
02030000
,  // measure 43
00000000
00100000
03100000
01000000
10000000
00010000
01100000
00000000
,  // measure 44
20000000
00000000
30010000
01000000
00200000
00000000
10300000
00000000
,  // measure 45
01000000
00010000
00001000
00010000
00100000
00010000
00001000
00000000
,  // measure 46
00020000
00000000
00030100
00001000
00000020
00000000
00000130
00000000
,  // measure 47
00000001
00000010
00001000
00000010
00000001
00001000
00000100
00000000
,  // measure 48
00002000
00000000
00003001
00000100
00000020
00000000
00001030
00000000
,  // measure 49
00000100
00010000
00001000
00010000
00000100
00001000
00000010
00010000
,  // measure 50
00002000
00000000
00103000
00010000
02000000
00000000
03100000
00000000
,  // measure 51
00010000
00001000
00010000
00000010
00001000
00000100
00000011
00000000
,  // measure 52
00000002
00000000
00001003
00000100
00000020
00000000
00000031
00000000
,  // measure 53
00000100
00001000
00010000
00001000
00000010
00001000
00010000
00000000
,  // measure 54
00002000
00000000
01003000
00010000
00200000
00000000
01300000
00000000
,  // measure 55
10000000
00100000
00010000
00100000
10000000
00010000
01000000
00000000
,  // measure 56
00020000
00000000
10030000
01000000
00200000
00000000
00310000
00000000
,  // measure 57
01000000
00001000
00010000
00001000
01000000
00010000
00100000
00001000
,  // measure 58
00020000
00000000
00030010
00001000
00000200
00000000
00000310
00000000
,  // measure 59
00000001
00000100
00001000
00000100
00000001
00001000
00001001
00000000
,  // measure 60
00000020
00000000
00000130
00001000
00000100
00000000
00011000
00000000
,  // measure 61
02000000
00000000
03100000
00010000
00100000
10000000
10010000
00000000
;

//---------------dance-double - ----------------
#NOTES:
     dance-double:
     :
     Easy:
     5:
     0.233147,0.239947,0.139888,0.419665,0.000000,210.000000,192.000000,18.000000,54.000000,0.000000,0.000000,0.233147,0.239947,0.139888,0.419665,0.000000,210.000000,192.000000,18.000000,54.000000,0.000000,0.000000:
// measure 0
00000000
00000000
00000000
00000000
,  // measure 1
00000000
00000000
00000000
00000000
,  // measure 2
00020000
00001000
00031000
00000000
,  // measure 3
00020000
00031000
00002000
00103000
,  // measure 4
00200000
01000000
02000000
03300000
,  // measure 5
10000000
01000000
00010000
00001000
,  // measure 6
00020000
00001000
00031000
00000000
,  // measure 7
00200000
00010000
00301000
00000000
,  // measure 8
00020000
00001000
00000020
00030030
,  // measure 9
00001000
00000010
00000100
00000001
,  // measure 10
00001000
00000100
00010100
00000000
,  // measure 11
00010000
00001000
01001000
00000000
,  // measure 12
00020000
00130000
20000000
30100000
,  // measure 13
00020000
00000000
10030000
00000000
,  // measure 14
00100000
00010000
00100000
00000000
,  // measure 15
01000000
00010000
01000000
00000000
,  // measure 16
00002000
00000000
00023000
00000000
,  // measure 17
00032000
00000000
00000000
00003000
,  // measure 18
00000020
00000100
00000200
00000330
,  // measure 19
00001000
00000001
00001000
00001100
,  // measure 20
00000020
00000001
00000002
00000033
,  // measure 21
00001000
00000010
00010000
00011000
,  // measure 22
00200000
01000000
02000000
03300000
,  // measure 23
10000000
00010000
10000000
10100000
,  // measure 24
02000000
00010000
00020000
03030000
,  // measure 25
10000000
10000000
01000000
01100000
,  // measure 26
00010000
00010000
01000000
00000000
,  // measure 27
00001000
00001000
00010000
00011000
,  // measure 28
00002000
00010000
00013000
00000000
,  // measure 29
00002000
00013000
00020000
00030100
,  // measure 30
00000200
00000010
00000020
00000330
,  // measure 31
00000001
00000010
00001000
00010000
,  // measure 32
00002000
00010000
00013000
00000000
,  // measure 33
00000200
00000000
00010300
00000000
,  // measure 34
00002000
00000000
02000000
03003000
,  // measure 35
00010000
01000000
00100000
10000000
,  // measure 36
00010000
00100000
00101000
00000000
,  // measure 37
00001000
00010000
00010010
00000000
,  // measure 38
00002000
00003100
00000002
00000103
,  // measure 39
00002000
00000000
00003001
00000000
,  // measure 40
00000100
00001000
00000100
00000000
,  // measure 41
00000010
00001000
00000010
00000000
,  // measure 42
00020000
00000000
00032000
00000000
,  // measure 43
00023000
00000000
00000000
00030000
,  // measure 44
02000000
00100000
00200000
03300000
,  // measure 45
00010000
10000000
00010000
00110000
,  // measure 46
02000000
10000000
20000000
33000000
,  // measure 47
00010000
01000000
00001000
00011000
,  // measure 48
00000200
00000010
00000020
00000330
,  // measure 49
00000001
00001000
00000001
00000101
,  // measure 50
00000020
00001000
00002000
00003030
,  // measure 51
00000001
00000001
00000010
00000110
,  // measure 52
00000020
00000100
00000200
00000330
,  // measure 53
00001000
00000001
00001000
00001100
,  // measure 54
00000020
00000001
00000002
00000033
,  // measure 55
00001000
00000010
00010000
00011000
,  // measure 56
00200000
01000000
02000000
03300000
,  // measure 57
10000000
00010000
10000000
10100000
,  // measure 58
02000000
00010000
00020000
03030000
,  // measure 59
10000000
10000000
01000000
01100000
,  // measure 60
00010000
00010000
01000000
00000000
,  // measure 61
00001000
00001000
00010000
00011000
;
