#TITLE:999;
#SUBTITLE:("666" Camellia's Unofficial / Rejected Remix);
#ARTIST:RoughSketch;
#TITLETRANSLIT:;
#SUBTITLETRANSLIT:;
#ARTISTTRANSLIT:;
#GENRE:BEMANI;
#CREDIT:;
#BANNER:999 (666 Camellia's Unofficial Rejected Remix).png;
#BACKGROUND:999 (666 Camellia's Unofficial Rejected Remix)-bg.png;
#LYRICSPATH:;
#CDTITLE:../cdtitle.png;
#MUSIC:999 (666 Camellia's Unofficial Rejected Remix).ogg;
#OFFSET:-2.476000;
#SAMPLESTART:33.224998;
#SAMPLELENGTH:15.000000;
#SELECTABLE:YES;
#BPMS:0.000000=249.750000
,4.000000=499.500000
,52.000000=124.875000
,58.000000=62.438000
,60.000000=249.750000
,92.000000=124.875000
,96.000000=499.500000
,108.000000=249.750000
,110.000000=999.000000
,222.000000=249.750000
,226.000000=499.500000
,305.000000=249.750000
,313.000000=499.500000
,329.000000=249.750000
,337.000000=124.875000
,341.000000=249.750000
,347.000000=499.500000
,348.000000=124.875000
,414.000000=62.438000
,415.000000=499.500000
,421.000000=249.750000
,423.000000=499.500000
,433.000000=249.750000
,445.000000=124.875000
,447.000000=249.750000
,451.000000=499.500000
,509.000000=249.750000
,511.000000=499.500000
,549.000000=249.750000
,550.000000=499.500000
,556.000000=249.750000
,557.000000=499.500000
,569.000000=249.750000
,571.000000=499.500000
,587.000000=249.750000
,593.000000=124.875000
,594.000000=999.000000
,658.000000=499.500000
,681.000000=249.750000
,681.500000=124.875000
,682.500000=62.438000
;
#STOPS:257.000000=0.120000,
347.000000=0.360000,
416.000000=0.240000,
418.000000=0.240000,
420.000000=0.240000,
424.000000=0.240000,
426.000000=0.240000,
428.000000=0.240000,
482.000000=0.120000,
489.000000=0.120000
;
#BGCHANGES:-99.000=../bg.avi=1.000=0=0=1=====,
99999=-nosongbg-=1.000=0=0=0 // don't automatically add -songbackground-
;
#KEYSOUNDS:;
#ATTACKS:;

//---------------dance-single - ----------------
#NOTES:
     dance-single:
     :
     Beginner:
     8:
     0.244519,0.887708,0.119974,0.207955,0.000000,214.000000,199.000000,15.000000,26.000000,0.000000,0.000000,0.244519,0.887708,0.119974,0.207955,0.000000,214.000000,199.000000,15.000000,26.000000,0.000000,0.000000:
0000
0000
0000
0000
,
1001
0000
0000
0000
,
0000
0000
0000
0000
,
1001
0000
0000
0000
,
0000
0000
0000
0000
,
0100
0000
0000
0100
,
0000
0000
0000
0000
,
0001
0000
0000
0001
,
0000
0000
0000
0000
,
1000
0000
0000
1000
,
0000
0000
0000
0000
,
0010
0000
0000
0000
,
0100
0000
0000
0000
,
0002
0000
0000
0000
,
0003
0000
0000
0000
,
0020
0000
0000
0000
,
0000
0000
0000
0000
,
0000
0000
0000
0000
,
0030
0000
0000
0000
,
0100
0000
0100
0000
,
1000
0000
1000
0000
,
0100
0000
0010
0000
,
0002
0000
0003
0000
,
1001
0000
0000
0000
,
0110
0000
0000
0000
,
0000
0000
0000
0000
,
0000
0000
0000
0000
,
0000
0000
0020
0000
,
0000
0000
0000
0000
,
0000
0000
0000
0000
,
0000
0000
0000
0000
,
0000
0000
0000
0000
,
0000
0000
0000
0000
,
0000
0000
0030
0000
,
0000
0000
0000
0000
,
0000
0000
0200
0000
,
0000
0000
0000
0000
,
0000
0000
0000
0000
,
0000
0000
0000
0000
,
0000
0000
0000
0000
,
0000
0000
0000
0000
,
0000
0000
0300
0000
,
0000
0000
0000
0000
,
0000
0000
0002
0000
,
0000
0000
0000
0000
,
0000
0000
0000
0000
,
0000
0000
0000
0000
,
0000
0000
0000
0000
,
0000
0000
0000
0000
,
0000
0000
0003
0000
,
0000
0000
0000
0000
,
0000
0000
2000
0000
,
0000
0000
0000
0000
,
0000
0000
0000
0000
,
0000
0000
0000
0000
,
0000
0000
3000
0000
,
0000
0000
0100
0000
,
0010
0000
0100
0000
,
0010
0000
0001
0000
,
0100
0000
0001
0000
,
0000
0000
0100
0000
,
0010
0000
0100
0000
,
0010
0000
1000
0000
,
0100
0000
1000
0000
,
0000
0001
0000
0100
,
0000
0001
0000
0000
,
0000
1000
0000
0100
,
0000
1000
0000
0000
,
0000
0001
0000
0010
,
0000
0001
0000
0000
,
0000
0100
0000
0000
,
0200
0000
0000
0300
,
0000
0001
0000
0000
,
0000
0001
0000
0000
,
0000
0100
0000
0010
,
0000
1000
0000
0000
,
0000
0100
0100
0010
,
0010
0100
1000
0001
,
0000
1000
0000
0000
,
0000
1000
0000
0000
,
0000
0100
0000
0010
,
0000
0001
0000
0000
,
0000
0100
0100
0010
,
0010
0100
0001
1000
,
0000
0000
0001
0001
0010
0010
0100
0100
,
1000
1000
0001
0000
0100
0000
0010
0000
,
1000
0002
0000
0003
,
1001
0000
0000
0000
,
1001
0000
0100
0000
,
1001
0000
0010
0000
,
0110
0100
0010
0000
,
0001
0010
1000
0100
,
0110
0001
0001
0002
,
0003
1000
1000
2000
,
3000
0010
0010
0010
,
1000
0100
0001
0100
,
2000
3000
1000
0001
,
1000
0100
0020
0030
,
0002
0003
0001
1000
,
0001
0100
0020
0030
,
2000
0000
3000
0000
,
0200
0000
0300
0000
,
0002
0000
0003
0000
,
0010
1000
0001
0100
,
0000
0100
0000
0110
,
0000
0000
0000
0010
,
0000
0010
0000
1001
,
0000
0000
0000
0000
,
0000
0200
0000
0000
,
0000
0300
0000
0000
,
0000
0020
0000
0000
,
0000
0030
0000
0100
,
0100
0100
0000
0001
,
0000
0010
0000
0001
,
0000
0000
0000
0010
,
0000
0100
0000
0010
,
0000
0000
0000
0100
,
0000
1000
0000
0100
,
0000
0000
0000
1000
,
0000
0001
0000
2000
,
0000
0000
3000
0000
,
1000
0000
0010
0000
,
0000
0110
0000
0000
,
0000
1000
0000
0000
,
0000
0010
0000
0000
,
0000
0100
0000
0000
,
0000
0001
0000
1000
,
0000
0002
0003
1000
,
0000
0000
0000
0010
,
0000
0000
0000
0001
,
0000
0000
0000
0010
,
0000
0000
0000
1000
,
0000
0000
0000
0100
,
0000
0000
0000
0001
,
0000
0000
0000
0100
,
0000
0000
0000
1000
,
0000
0001
0000
1000
,
0000
0000
0001
0000
,
1000
0000
0001
0000
,
0000
0100
0000
0010
,
0000
0100
0000
0010
,
0000
1000
0000
0001
,
0000
0010
0000
0100
,
0000
0000
0000
0110
,
0000
0000
0000
1000
,
0000
0100
0000
1000
,
0000
0000
0000
0010
,
0000
0100
0000
0020
,
0000
0030
0200
0000
,
0000
0000
0000
0000
,
0000
0000
0000
0000
,
0000
0000
0000
0000
,
0000
0000
0000
0000
,
0000
0000
0000
0000
,
0000
0000
0300
0000
,
0000
0000
0000
0000
,
0000
0000
0020
0000
,
0000
0000
0000
0000
,
0000
0000
0000
0000
,
0000
0000
0000
0000
,
0000
0000
0000
0000
,
0000
0000
0000
0000
,
0000
0000
0030
0000
,
0000
0000
0000
0000
,
0000
0000
0110
0000
,
0000
0000
0000
0000
,
0000
0000
1001
0000
,
0000
0000
0000
0000
,
0000
0000
0100
0000
,
0000
0100
0000
0000
,
0002
0000
0000
0003
;

//---------------dance-single - ----------------
#NOTES:
     dance-single:
     :
     Challenge:
     20:
     1.275153,4.028830,1.191743,0.359922,0.859814,1116.000000,967.000000,149.000000,45.000000,128.000000,0.000000,1.275153,4.028830,1.191743,0.359922,0.859814,1116.000000,967.000000,149.000000,45.000000,128.000000,0.000000:
MMMM
MMMM
MMMM
MMMM
MMMM
MMMM
MMMM
MMMM
,
1001
0000
0000
0000
0000
0000
0001
0000
0000
0000
0000
0000
1000
0000
0100
0000
0010
0000
0100
0000
0000
1000
0000
0000
,
0001
0000
0010
0000
0100
0000
0010
0000
0000
0001
0000
0000
1000
0000
0100
0000
0010
0000
0100
0000
0000
1000
0000
0000
,
1001
0000
0000
0000
0000
0000
0101
0000
0000
0000
0000
0000
0001
0000
0100
0000
0010
0000
1000
0000
0000
0001
0000
0000
,
1000
0100
0010
0001
,
1001
1000
0100
1100
,
0001
0100
0010
0100
,
0110
1000
0001
0101
,
0001
0000
0000
0000
0000
0000
0010
0000
0000
0000
0000
0000
0100
0000
0000
1000
0000
0000
0100
0000
1000
0000
0100
0000
,
0010
0001
1000
1002
,
0103
0000
0010
0000
1000
0000
0001
0100
,
0001
0000
1000
0000
0100
0010
0100
0010
,
0001
1000
0001
1000
,
0002
0000
0000
0100
,
2000
0000
0000
0000
0000
0000
0000
3003
,
0020
0000
0000
0000
,
2030
0000
0000
0000
,
3200
0000
0000
0000
,
0010
0000
0000
0010
0300
0000
0110
0000
,
0001
0001
0100
0100
,
1000
1000
0010
0010
,
0001
0000
0000
0000
0001
0000
0000
0000
1000
0000
0000
0000
1000
0000
0100
0010
,
0100
0000
1000
0000
0001
0000
0100
0000
0010
0100
0010
0100
0010
0100
0010
0100
,
0010
0000
0000
0000
MMMM
0000
0000
0000
MMMM
0000
0000
0000
MMMM
0000
0000
0000
MMMM
0000
0000
0000
MMMM
0000
0000
0000
0100
0001
0100
0001
0100
0001
0010
0100
,
1000
0000
0000
0000
0000
0000
1000
0000
0000
0000
0000
0000
0100
0000
0010
0000
0001
0000
1000
0000
0000
0001
0000
0000
,
1000
0000
0100
0000
0010
0000
0001
0000
0000
1000
0000
0000
0010
0000
0100
0000
0001
0000
1000
0000
0000
0010
0000
0000
,
1000
0100
1000
0100
1000
0100
0010
0001
0010
0001
0010
0001
,
1000
MMMM
0001
0100
,
0001
0100
0001
0100
,
0001
0100
0001
0100
,
0001
0100
0001
0100
,
0001
0100
0001
0100
,
0001
0100
0001
0100
,
0001
0100
0001
0000
,
0010
0000
0100
0000
,
0110
0000
1000
0001
,
1000
0001
1000
0001
,
1000
0001
1000
0001
,
1000
0001
1000
0001
,
1000
0001
1000
0001
,
1000
0001
1000
0001
,
1000
0001
0010
0000
,
0100
0000
1000
0000
,
1001
0000
0001
0100
,
0001
0100
0001
0100
,
0001
0100
0001
0100
,
0001
0100
0001
0100
,
0001
0100
0001
0100
,
0001
0100
0001
0100
,
0001
0000
0000
0100
0000
0000
0001
0000
0000
0000
0001
0000
,
0000
0000
0010
0000
0000
0000
0100
0000
0000
0000
0010
0000
,
0000
0000
0001
0000
0000
0000
1000
0000
0000
0010
0000
0000
,
1000
0010
1000
0010
,
1000
0010
1000
0010
,
1000
0010
1000
0010
,
1000
0000
0010
0000
0100
0001
1000
0100
,
MMMM
MMMM
0020
0030
1001
0000
0110
0000
,
1100
1100
1001
0101
,
1001
0000
1000
0100
0010
0000
0011
0000
,
0110
0110
1100
0110
,
1000
0001
0100
0000
1010
0000
0110
0000
,
0101
0101
1001
1100
,
0110
0000
0110
0000
0001
0000
1000
0100
,
0010
0001
0010
0000
0100
1000
0010
0100
,
0010
1000
0010
0000
0110
0000
0001
0010
,
0100
0110
1100
0101
,
0001
1000
0001
0000
0110
0000
1001
0000
,
1100
0000
0010
0001
0010
0001
0000
0110
,
0000
0001
0100
0000
1010
0000
0110
0000
,
1010
0000
0000
0001
0000
0000
0011
0000
0000
0100
0000
0010
,
0000
0000
0001
0000
0000
0000
1000
0000
0000
0000
0000
0000
0000
0000
0000
0011
0000
0000
0000
0000
0000
0000
0000
0000
,
2020
0000
0000
3030
,
0000
0000
0110
0000
0000
0110
0000
0000
,
1100
0000
0101
0000
0000
0101
0000
0000
,
0100
0001
1000
0000
0000
1100
0000
0000
,
1100
0220
0000
0000
,
0330
1001
0101
1010
,
0001
0000
0100
0010
0100
0000
0001
0000
1000
0000
0100
0000
0010
0000
0100
0000
,
1000
0000
1001
0000
0000
1001
0000
0000
,
0101
0000
0011
0000
0000
0011
0000
0000
,
0001
0010
0100
0000
0000
1100
0000
0000
,
1100
2002
0000
0000
,
3003
0110
1100
0011
,
1000
0000
0000
0001
0100
0001
0100
0000
0000
0010
0000
0000
0100
0000
0000
0001
0000
0000
1000
0000
0000
0001
0000
0000
,
0100
0000
0010
1000
1100
1100
0101
0101
,
0011
0011
0010
1000
0010
1000
0100
0010
,
0100
0000
1000
0000
0001
0100
0001
0100
0010
1000
0100
0010
0001
0000
MMMM
0000
,
1001
0000
0000
0000
0000
0000
1000
0000
0000
0100
0000
0000
0100
0000
0000
0100
0000
0000
0100
0000
0000
0100
0000
0000
0100
0000
0000
0100
0000
0000
MMMM
0000
,
0110
0000
0000
0000
0000
0000
0001
0000
0000
0100
0000
0000
0100
0000
0000
0100
0020
0000
0100
0000
0000
0100
0000
0000
0130
0000
0000
0100
0000
0000
MMMM
0000
,
0101
0000
0000
0000
0000
0000
0000
0000
0000
0000
0000
0000
0000
0000
0000
0000
0000
0000
0100
0000
0000
0000
0000
0000
0000
0000
0000
0000
0000
0000
0000
0000
0000
0000
0000
0000
0100
0000
0000
0000
0000
0000
0000
0000
0000
0000
0000
0000
0000
0000
0000
0000
0000
0000
0010
0000
0000
0000
0000
0000
0000
0000
0000
0000
0000
0000
0000
0000
0000
0000
0000
0000
0010
0000
0000
0000
0000
0000
0000
0000
0000
0000
0000
0000
0000
0000
0000
0000
0000
0000
0010
0000
0000
0000
0000
0000
1000
0000
0000
0000
0000
0000
0000
0000
0000
0000
0001
0000
0000
0000
0000
0000
0000
0000
0000
0100
0000
0000
0000
0000
0000
0000
0000
0000
0000
0010
0000
0000
0000
0000
0000
0000
0000
0000
1000
0000
0000
0000
0000
0000
0000
0000
0000
0000
0001
0000
0000
0000
0000
0000
0000
0000
0000
0000
0010
0000
0000
0000
0000
0000
0000
0000
0000
0100
0000
0000
0000
0000
0000
0000
0000
0000
0000
1000
0000
0000
0000
0000
0000
0000
0000
0000
0000
0000
0000
0000
0000
0000
0000
0000
0000
0000
,
0001
0000
0000
0011
0000
0000
0110
0000
0000
0001
0000
0000
0100
0000
0000
0100
0020
0000
0100
0000
0000
0100
0000
0000
0130
0000
0000
0002
0000
0000
0000
0000
,
1003
0000
0100
0000
0010
0000
0100
1000
0100
0000
1000
0000
0001
0000
0100
0000
0001
0000
1000
0000
0010
0000
0100
0001
0100
0000
0001
0000
0010
0000
0100
0000
,
2100
0000
0000
0000
3010
0100
0010
0100
0001
0010
0001
0010
0001
0010
0001
0010
0001
0100
0001
0100
0001
0100
0001
0100
0001
0010
0001
0010
0001
0010
0100
0000
,
0110
0000
0000
0000
MMMM
0000
0000
0000
1000
0100
1000
0100
1000
0100
1000
0100
1000
0010
1000
0010
1000
0010
1000
0010
1000
0100
0010
0001
0010
0100
1000
0000
,
1100
0000
0000
1001
0000
0000
0101
0000
0001
0100
0001
0100
0001
0100
0001
0100
0010
0100
0010
0100
0010
0100
0010
0100
0001
1000
0001
1000
0001
1000
0001
1000
,
0100
0000
1000
0000
0001
0000
1000
0100
1000
0000
0001
0000
0100
0000
0010
0000
1000
0000
0001
0000
0100
0000
0001
0010
0001
0000
0010
0000
0100
0000
1000
0000
,
2001
0100
0001
0001
,
0100
0001
0200
3300
,
1002
0100
1000
1000
,
0100
1000
0023
0230
,
2300
0000
3000
0020
0200
0000
0300
0000
,
2030
0000
0000
0000
3001
0000
0020
0000
0100
0000
0000
0100
0030
0000
0110
0000
,
0002
0000
0103
0020
1000
0000
0230
0000
,
0301
0001
0010
0100
1000
MMMM
1010
0000
,
1001
MMMM
0101
0000
1001
MMMM
1100
0000
,
0110
MMMM
2002
0000
0000
3003
0011
0000
,
1001
MMMM
1100
0000
1001
MMMM
0101
0000
,
0110
MMMM
2002
0000
0000
0000
0000
0000
,
3003
0000
0000
0000
1000
0000
0100
0000
1000
0000
0001
0100
0001
0000
0100
0000
,
0010
0000
1000
0000
0001
0000
0100
0000
1000
0000
0100
0001
0100
0000
0001
0000
,
0010
0000
0100
0000
0001
0000
0000
0011
0000
0000
0110
0000
1000
0100
0010
0001
,
0100
0010
1000
0001
0200
0000
0000
0000
0000
0000
0300
MMMM
0100
0000
MMMM
0000
,
0100
MMMM
0220
0000
0330
MMMM
1001
0000
,
0001
0010
0100
1000
0100
0010
0001
0000
,
0101
1100
0101
1010
,
0001
0010
0001
0010
0100
1000
0010
0000
,
1100
0000
0110
0000
0001
1000
0001
0000
,
0010
0100
1000
0100
0010
0001
0100
0000
,
0011
1010
1001
0010
,
0100
1000
0001
0010
0001
0000
0110
0000
,
1100
0000
0101
0000
0110
0000
0001
0010
,
0001
1100
1001
1100
,
0101
0000
1001
0000
0001
0000
1000
0100
,
1000
0000
0000
0001
0000
0000
0100
0000
0000
0010
0000
0000
0100
0000
0000
0001
0000
0000
1000
0000
0000
0000
0100
0000
,
0000
0000
0010
0000
0000
0000
0001
0000
0000
0010
0000
0000
0001
0000
0000
0010
0000
0000
0001
0000
0000
0000
0000
0000
,
1001
1100
0101
0110
,
0001
0010
0100
1000
0001
0000
0000
0000
1100
0000
0000
0000
0011
0000
0000
0000
,
1001
0000
0000
0000
0000
0000
0002
0000
0000
0000
0000
0000
0003
0000
0000
MMMM
0000
0000
1000
0000
0100
0000
0010
0000
,
0001
0010
0100
1000
0001
0010
0001
0100
,
0010
0000
0000
1000
0000
0000
0001
0000
0000
0100
0000
0000
0001
0000
0000
1000
0000
0000
0100
0000
0010
0000
0001
0000
,
0010
0000
0000
0100
0000
0000
1000
0000
0000
0010
0000
0000
0100
0000
0000
0001
0000
0000
0010
0000
0001
0000
0010
0000
,
0001
0000
0000
1000
0000
0000
0100
0000
1000
0000
0100
0000
1000
0000
0000
0001
0000
0000
0010
0000
0100
0000
1000
0000
,
0001
0100
0010
1000
0010
1000
0100
0010
,
0100
0000
0000
1000
0000
0000
0001
0000
0000
0010
0000
0000
0100
0000
0000
1000
0000
0000
0001
0000
0010
0000
0100
0000
,
1000
0000
0000
0001
0000
0000
0100
0000
0000
0001
0000
0000
1000
0000
0000
0100
0000
0000
0010
0000
0001
0000
0010
0000
,
0001
0000
0000
0100
0000
0000
0010
0000
1000
0000
0010
0000
1000
0000
0000
0001
0000
0000
1000
0000
0100
0000
0010
0000
,
0001
0010
0100
1000
0001
0100
0010
1000
,
0100
0000
0000
0000
0000
0000
0010
0000
0000
0000
0000
0000
0001
0000
0000
0010
0000
0000
0100
0000
0000
1000
0000
0000
0001
0000
0000
0000
0010
0000
0000
0000
0100
0000
0000
0000
1000
0000
0000
0000
0000
0000
0100
0000
0000
0000
0000
0000
,
0010
0001
1000
0010
0100
0001
0010
0100
,
2000
0000
0000
0000
0000
0000
3001
0000
0010
0000
0001
0000
0010
0000
0000
0100
0000
0000
1000
0000
0000
0010
0000
0000
,
0100
0001
0100
0010
1000
0100
0010
0100
,
1000
0000
0000
0001
0000
0000
0010
0000
0100
0000
0010
0000
0100
0000
0000
1000
0000
0000
0001
0000
0000
0010
0000
0000
,
0100
0000
0010
0000
0001
0100
0010
0000
0010
0100
0001
0000
1000
0000
0000
0000
,
0000
1100
0000
0000
0110
0000
0011
0000
,
0000
0011
0000
0000
0001
0100
0010
0000
,
0000
0110
0000
0000
0110
0000
2002
0000
,
0000
0000
0000
0000
3003
0000
1000
0100
,
1000
0001
0100
0000
0001
0000
0010
0000
0100
0000
1000
0000
0001
0000
0000
0000
,
1000
0000
2002
3003
1000
0000
1000
0000
,
1000
1000
1000
1000
,
1000
1000
1000
1000
,
1000
1000
1000
1000
,
1000
1000
1000
1000
,
1000
1000
1000
1000
,
1000
1000
1000
0000
,
0011
0000
0110
0000
,
1100
0000
0001
0001
,
0001
0001
0001
0001
,
0001
0001
0001
0001
,
0001
0001
0001
0001
,
0001
0001
0001
0001
,
0001
0001
0001
0001
,
0001
0001
0001
0000
,
1010
0000
0110
0000
,
0101
0000
1001
0011
,
1000
0000
0100
0000
0010
0000
0001
0000
0000
1000
0000
0000
0001
0000
0010
0000
0100
0000
1000
0000
0000
0001
0000
0000
,
0010
0000
0100
0000
1000
0000
0001
0000
0000
1000
0000
0000
1001
0000
0000
0000
0000
0000
1010
0000
0000
0000
0000
0000
,
0001
0000
0100
0000
0010
0000
1000
0000
0000
0001
0000
0000
1000
0000
0010
0000
0100
0000
0010
0000
0100
0000
0001
0000
,
0100
0001
1000
0001
1000
0100
0010
0000
0000
0000
0000
0000
,
0000
0101
0000
0000
,
2200
0000
0000
3300
;

//---------------dance-single - ----------------
#NOTES:
     dance-single:
     :
     Easy:
     14:
     0.490180,1.160849,0.239948,0.383917,0.000000,429.000000,399.000000,30.000000,48.000000,0.000000,0.000000,0.490180,1.160849,0.239948,0.383917,0.000000,429.000000,399.000000,30.000000,48.000000,0.000000,0.000000:
0000
0000
0000
0000
,
1001
0000
0100
0000
,
0100
0000
0100
0000
,
0110
0000
0001
0000
,
1000
0100
1000
0000
,
0001
0000
0000
1010
,
0000
0000
0100
0000
,
1000
0000
0000
0011
,
0000
0000
0100
0000
,
0001
0000
0000
1010
,
0000
0000
0001
0000
,
0010
0000
0010
0000
,
0100
1000
0001
0000
,
2000
0000
3000
0002
,
0200
0000
0000
0000
0000
0000
0000
0303
,
0002
0000
0000
0000
,
0023
0000
0000
0000
,
0230
0000
0000
0000
,
2300
0000
0000
0000
,
3010
0010
1000
1000
,
0001
0001
0100
0100
,
0010
1000
0100
0010
,
0001
1000
0002
0000
,
1003
0000
0000
0000
,
1001
0000
0000
0000
,
1000
0000
0000
0000
,
0100
0000
0010
0000
,
0001
0000
2000
0000
,
0000
0000
0000
0000
,
0000
0000
0000
0000
,
0000
0000
0000
0000
,
0000
0000
0000
0000
,
0000
0000
0000
0000
,
0000
0000
3001
0000
,
0000
0000
0100
0000
,
0000
0000
0020
0000
,
0000
0000
0000
0000
,
0000
0000
0000
0000
,
0000
0000
0000
0000
,
0000
0000
0000
0000
,
0000
0000
0000
0000
,
0000
0000
0130
0000
,
0000
0000
0001
0000
,
0000
0000
2000
0000
,
0000
0000
0000
0000
,
0000
0000
0000
0000
,
0000
0000
0000
0000
,
0000
0000
0000
0000
,
0000
0000
0000
0000
,
0000
0000
3001
0000
,
0000
0000
0010
0000
,
0000
0000
0200
0000
,
0000
0000
0000
0000
,
0000
0000
0000
0000
,
0000
0000
0000
0000
,
0000
0000
0310
0000
,
0000
0000
0001
0010
,
0001
0010
0100
0010
,
0100
0010
0100
1000
,
0100
1000
0010
0100
,
0001
0000
1000
0100
,
1000
0100
0010
0100
,
0010
0100
0010
0001
,
0010
0000
0001
0000
0100
0000
0000
0010
,
0000
1000
0100
0010
,
0100
1000
0001
0010
,
0001
0010
0001
0100
,
0010
1000
0010
0100
,
0000
0001
1000
0100
,
0000
1000
0001
0010
,
0000
0000
0001
0000
0000
0100
0000
0000
,
2020
0000
0000
0000
,
3030
0000
0001
0000
0000
0100
0000
0000
,
0001
0000
1000
0000
0000
0100
0000
0000
,
1000
0000
0001
0000
0000
0100
0000
0000
,
0010
2000
0000
0000
,
0000
3001
0001
0100
,
0001
0000
0010
0000
0100
0000
0100
1000
,
0001
0000
1000
0000
0000
0010
0000
0000
,
1000
0000
0001
0000
0000
0010
0000
0000
,
0001
0000
1000
0000
0000
0010
0000
0000
,
0100
0002
0000
0000
,
0000
1003
1000
0010
,
1000
0000
0100
0000
0010
0000
0010
0001
,
1000
0000
0001
0001
0100
0100
1000
1000
,
0010
0010
0001
0100
0001
0100
0010
1000
,
0010
1000
0001
0010
0100
1000
0001
0000
,
1001
0000
0000
0000
,
1001
0000
0100
0100
,
1001
0000
0010
0000
0200
0000
0020
0300
,
0130
0100
0010
0000
1001
0000
0100
0000
,
1000
0100
0010
0000
0001
0100
0010
0000
,
0100
0101
1100
0202
,
0303
0101
1100
0200
,
0310
0011
1010
0012
,
1003
0001
0100
0000
0001
1000
0100
0000
,
2002
0003
0100
0100
,
0001
0100
0002
3003
,
2002
3000
0010
0010
,
1000
0010
2003
3002
,
0203
0000
0020
0030
,
0302
0000
0020
0030
,
2003
0000
0020
0030
,
3200
2300
3001
0100
,
0000
0001
0000
1001
,
0000
0000
0000
0001
,
0000
0010
0000
0110
,
0000
0000
0000
0000
,
0000
2000
0000
0000
,
0000
3000
0000
1000
,
0000
0002
0000
0000
,
0000
0003
0000
0010
,
0100
2002
3003
1000
,
0100
0010
0001
0100
,
0010
1000
0000
0010
,
0100
0001
0010
0100
,
1000
0001
0000
1000
,
0100
0010
0001
0100
,
0010
1000
0000
0010
,
0100
0001
0010
0100
,
1000
0001
0010
0010
,
0001
1000
0100
1000
,
0001
0100
1010
0010
,
1000
0100
0010
0100
,
0010
0001
0010
0001
,
1000
0001
0100
0010
,
1000
0100
0010
0001
,
1000
0002
0003
1000
,
0100
0010
0100
1000
,
0010
0100
0010
1000
,
0100
0010
0001
0010
,
0100
1000
0001
1000
,
0010
0100
0010
1000
,
0100
0010
0100
1000
,
0010
0100
0001
0100
,
0010
1000
0001
0100
,
0001
0010
0100
1000
,
0001
1000
0010
1000
,
0100
0010
0001
1000
,
0002
1003
0100
0010
,
0001
0010
0100
1000
,
0001
1000
0010
0100
,
0001
0010
0110
1000
,
0000
0100
0000
0000
1000
0000
0001
0000
,
0000
0010
0000
0000
0001
0000
1000
0000
,
0000
0010
0000
0000
0100
0000
0002
0000
,
0000
0000
0000
0000
0003
0000
1000
0100
,
0001
0100
1000
0001
,
0100
0110
2000
0000
,
0000
0000
0000
0000
,
0000
0000
0000
0000
,
0000
0000
0000
0000
,
0000
0000
0000
0000
,
0000
0000
0000
0000
,
0000
0000
3010
0000
,
0000
0000
0100
0000
,
0000
0000
0002
0000
,
0000
0000
0000
0000
,
0000
0000
0000
0000
,
0000
0000
0000
0000
,
0000
0000
0000
0000
,
0000
0000
0000
0000
,
0000
0000
0013
0000
,
0000
0000
0100
0000
,
0000
0000
1000
0001
,
0100
0000
0010
0000
,
0010
0000
0110
1000
,
0001
0000
0010
0100
,
1000
0001
1000
0000
,
0000
0101
0000
0000
,
2020
0000
0000
3030
;

//---------------dance-single - ----------------
#NOTES:
     dance-single:
     :
     Medium:
     17:
     0.732413,1.570561,0.335927,0.415910,0.119974,641.000000,599.000000,42.000000,52.000000,0.000000,0.000000,0.732413,1.570561,0.335927,0.415910,0.119974,641.000000,599.000000,42.000000,52.000000,0.000000,0.000000:
0000
0000
0000
0000
,
0110
0000
0000
0000
,
0000
0000
0000
0000
,
1001
0000
0000
0000
,
1000
0010
0100
0001
,
1000
0000
0000
1100
,
0000
0000
1000
0100
,
0010
0000
0000
0011
,
0000
0000
0001
0100
,
0010
0000
0000
1010
,
0000
0000
0001
0000
,
0010
0000
0100
0000
,
1000
0001
1000
0001
,
2000
0000
0000
0000
,
0002
0000
0000
0000
0000
0000
0000
3003
,
0020
0000
0000
0000
,
0230
0000
0000
0000
,
2300
0000
0000
0000
,
3002
0000
0000
0000
,
0103
0100
0010
0010
,
1000
1000
0001
0001
,
0100
0000
0000
0000
0010
0000
0000
0000
1000
0000
0000
0000
0001
0000
0010
0100
,
0010
0100
1000
0001
0100
0010
0100
0010
,
0100
0000
0000
0000
,
1001
0000
1000
0000
,
0001
0000
0001
0000
,
0100
0010
0100
0010
,
1000
0000
0001
0000
,
0100
0000
0001
0000
,
0100
0000
0001
0000
,
0100
0000
0001
0000
,
0100
0000
0001
0000
,
0100
0000
0001
0000
,
0100
0000
0001
0000
,
0010
0000
0100
0000
,
0110
0000
1000
0000
,
0100
0000
1000
0000
,
0100
0000
1000
0000
,
0100
0000
1000
0000
,
0100
0000
1000
0000
,
0100
0000
1000
0000
,
0100
0000
1000
0000
,
0001
0000
0100
0000
,
0110
0000
0010
0000
,
1000
0000
0010
0000
,
1000
0000
0010
0000
,
1000
0000
0010
0000
,
1000
0000
0010
0000
,
1000
0000
0010
0000
,
1000
0000
0010
0000
,
0100
0000
0001
0000
,
1000
0000
0100
0000
,
0010
0000
0100
0000
,
0010
0000
0100
0000
,
0010
0000
0100
0000
,
0010
0000
0000
0000
0100
1000
0100
0010
,
0000
0002
1003
0100
,
1000
0010
0100
0010
,
1000
0000
0100
0010
0100
0000
1000
0000
,
0001
0010
0100
0010
,
0001
0100
0001
0000
1000
0000
0010
0000
,
0100
0010
1000
0100
,
0010
0000
0100
0010
0001
0000
1000
0100
,
0010
0001
1000
0000
0100
0000
0100
0000
,
0010
0000
0001
0000
0001
0000
1000
0100
,
1000
0010
0100
0001
,
0100
0010
1000
0000
0100
0000
0010
0000
,
0100
0000
0010
0001
0010
0001
0000
0010
,
0000
0100
0000
0000
1000
0000
0010
0000
,
0010
0000
0001
0010
,
0010
0000
1000
0000
0000
0110
0000
0000
,
2002
0000
0000
0000
,
3003
0000
0001
0000
0000
0101
0000
0000
,
0001
0000
1000
0000
0000
1100
0000
0000
,
1000
0000
0010
0000
0000
0110
0000
0000
,
0001
2000
0000
0000
,
3000
0100
0011
0110
,
0001
1000
0010
0000
1000
0001
0010
0100
,
1000
0000
0001
0000
0000
0011
0000
0000
,
0001
0000
1000
0000
0000
1010
0000
0000
,
1000
0000
0100
0000
0000
0110
0000
0000
,
0001
2000
0000
0000
,
3000
0010
0101
0110
,
0001
1000
0100
0000
1000
0001
0100
0010
,
1000
0000
0001
0101
0001
0011
0001
0101
,
0001
1001
1000
0100
0010
0001
1000
0100
,
0010
0000
0001
0000
1000
0010
0100
0001
0100
0010
1000
0001
1000
0000
0000
0000
,
1001
0000
0000
0000
0000
0000
1000
0000
0000
0100
0000
0000
0010
0000
0000
0001
0000
0000
0010
0000
0000
0100
0000
0000
1000
0000
0000
0001
0000
0000
0000
0000
,
1001
0000
0000
0000
0000
0000
0001
0000
0000
0100
0000
0000
0010
0000
0000
1000
0000
0000
0010
0000
0000
0100
0000
0000
0001
0000
0000
1000
0000
0000
0000
0000
,
0001
0000
0000
0100
0000
0000
0010
0000
0000
0100
0000
0000
0001
0000
0000
0001
2000
0000
0000
0000
0000
0000
0000
0000
3002
0000
0000
0000
0000
0000
0000
0000
,
0103
0000
0000
0100
0000
0000
0100
0000
0002
0000
0000
0000
0000
0000
0000
0000
0023
0000
0000
0000
0000
0000
0000
0000
0032
0000
0000
0000
0000
0000
0000
0000
,
1003
0100
0010
0100
1000
0010
0001
0010
,
1001
0000
2000
0100
3002
0100
2003
3010
,
0110
0000
2000
0010
3002
0010
1003
0010
,
0100
0000
0000
0100
0000
0000
0100
0000
0002
0000
0000
0000
0010
0000
0000
0000
2003
0000
0000
0000
0100
0000
0000
0000
3002
0000
0000
0000
0100
0000
0000
0000
,
1003
0001
0100
0001
0010
0100
1000
0001
,
2000
0000
0100
0000
,
0002
0000
0000
3003
,
0002
0000
0100
0000
,
2000
0000
0000
3003
,
0020
0000
0200
0300
,
2030
0000
3200
0000
,
0320
0000
0200
0300
,
0032
2003
3001
0100
,
0001
1000
0100
1000
,
0010
0000
0220
0000
0000
0330
0010
0000
,
1000
0001
0010
0001
,
0100
0220
0000
0000
,
0330
1000
0001
0100
,
0001
1000
0100
0010
,
0001
0000
0000
0000
0100
0000
0000
0100
0000
0000
0100
0000
0010
0000
1000
0000
,
0100
0010
0200
0000
0000
0000
1300
0000
,
0001
2002
3003
1001
,
0001
0100
0001
0100
0010
1000
0010
0000
,
0100
0001
0010
0100
,
0100
0000
1000
0001
1000
0001
0010
0000
,
0001
0000
1000
0000
0100
1000
0001
0000
,
0100
0000
0100
0010
0100
0010
1000
0000
,
0001
0100
0001
1000
,
0100
0010
0100
0010
0001
0000
1000
0000
,
0100
0010
0001
1000
,
0001
0100
0001
0000
1000
0000
0010
0000
,
0100
0001
0002
0013
,
0010
0000
0000
0000
0000
0000
0001
0000
0000
0010
0000
0000
0001
0000
0000
0010
0000
0000
0001
0000
0000
0000
0100
0000
,
0000
0000
0010
0000
0000
0000
1000
0000
0000
0010
0000
0000
1000
0000
0000
0010
0000
0000
1000
0000
0000
0000
0000
0000
,
0001
0100
0010
1000
,
0100
0010
0001
0000
0001
0000
0010
0000
,
0100
0000
2000
0000
0000
3000
1000
0100
,
1000
0000
0001
0000
0100
0000
0010
1000
,
0010
0000
0100
0000
1000
0000
0100
0010
,
0100
0000
0001
0000
1000
0000
0001
0010
,
0001
0000
0010
1000
0010
0000
0001
0100
,
0001
0000
1000
0000
0010
0000
0100
0010
,
0100
0000
0001
0000
1000
0000
0010
0100
,
0010
0000
1000
0000
0100
0000
0010
0001
,
0010
0000
0100
1000
0001
0000
0100
0001
,
0100
0010
1000
0001
,
0010
0100
1000
0010
,
1000
0000
0100
0000
0010
0001
0010
0000
,
2000
0000
3010
0001
0010
0000
1000
0000
,
0010
0001
1000
0100
,
1000
0001
0010
0100
,
1000
0000
0000
0000
0010
0100
0010
0000
0100
0010
0100
0000
0001
0000
0000
0000
,
0000
0011
0000
0000
0100
0000
1000
0000
,
0000
1001
0000
0000
0001
0000
0100
0000
,
0000
1010
0000
0000
0011
0000
2200
0000
,
0000
0000
0000
0000
3300
0000
1000
0001
,
0100
0001
1000
0010
0100
0001
0010
0000
,
0100
0000
0220
0330
0001
0000
0000
0000
,
0001
0000
0001
0000
,
0001
0000
0001
0000
,
0001
0000
0001
0000
,
0001
0000
0001
0000
,
0001
0000
0001
0000
,
0001
0000
0001
0000
,
0100
0000
0010
0000
,
0110
0000
1000
0000
,
1000
0000
1000
0000
,
1000
0000
1000
0000
,
1000
0000
1000
0000
,
1000
0000
1000
0000
,
1000
0000
1000
0000
,
1000
0000
1000
0000
,
0100
0000
0010
0000
,
0110
0000
1000
0100
,
0010
0001
0000
0001
0100
0000
0000
0100
,
1000
0000
1000
0100
0001
0000
0010
0000
,
0100
0000
0010
0001
,
0100
0010
1000
0000
,
0000
0011
0000
0000
,
2200
0000
0000
3300
;

//---------------dance-single - ----------------
#NOTES:
     dance-single:
     :
     Hard:
     19:
     1.015781,2.663125,0.719845,0.335927,0.367921,889.000000,799.000000,90.000000,42.000000,0.000000,0.000000,1.015781,2.663125,0.719845,0.335927,0.367921,889.000000,799.000000,90.000000,42.000000,0.000000,0.000000:
0000
0000
0000
0000
,
0110
0000
0100
0000
,
0010
0000
0010
0000
,
1001
0000
1000
0000
,
0100
0010
0001
0000
,
1000
0000
0000
0101
,
0000
0000
0001
0001
,
0010
0000
0000
1100
,
0000
0000
1000
1000
,
0010
0000
0000
0110
,
0000
0000
0001
0100
,
0001
0010
0100
0000
,
1000
0001
1000
0001
,
2000
0000
0000
0000
,
0002
0000
0000
0000
0000
0000
0000
0000
0000
0000
0000
0000
0000
0000
0003
3000
,
0020
0000
0000
0000
,
2030
0000
0000
0000
,
3200
0000
0000
0000
,
0320
0000
0000
0000
,
0031
0010
1000
0010
,
0001
0010
0100
1000
,
0010
0000
0000
0000
0100
0000
0000
0000
0010
0000
0000
0000
1000
0000
0001
0100
,
0001
0000
0010
0000
0100
0000
1000
0000
0001
1000
0001
0000
1000
0001
1000
0000
,
0001
0000
0000
0000
,
0100
0000
0100
0000
0001
0010
0000
1000
,
0010
0000
0000
0010
0001
0000
0001
0100
,
0010
1000
0010
0100
,
0002
0003
1000
0100
,
1000
0100
1000
0100
,
1000
0100
1000
0100
,
1000
0100
1000
0100
,
1000
0100
1000
0100
,
1000
0100
1000
0100
,
1000
0100
1000
0000
,
0001
0000
0100
0000
,
0110
0000
0010
1000
,
0010
1000
0010
1000
,
0010
1000
0010
1000
,
0010
1000
0010
1000
,
0010
1000
0010
1000
,
0010
1000
0010
1000
,
0010
1000
0010
0000
,
0100
0000
0001
0000
,
1000
0000
0001
0010
,
0001
0010
0001
0010
,
0001
0010
0001
0010
,
0001
0010
0001
0010
,
0001
0010
0001
0010
,
0001
0010
0001
0010
,
0001
0000
0000
0010
0000
0000
0001
0000
0000
0000
0001
0000
,
0000
0000
1000
0000
0000
0000
0001
0000
0000
0000
0100
0000
,
0000
0000
0010
0000
0000
0000
0100
0000
0000
0001
0000
0000
,
0100
0001
0100
0001
,
0100
0001
0100
0001
,
0100
0001
0100
0001
,
0100
0000
0001
0000
1000
0100
0010
0001
,
0000
0000
0020
0030
1001
0000
0001
0000
,
1000
1000
0010
0010
,
0001
0000
0001
1000
0001
0000
0001
0000
,
0100
0100
1000
1000
,
0010
0100
0010
0000
1000
0000
1000
0000
,
0001
0001
0010
0010
,
1000
0000
0010
0001
0010
0000
0200
1300
,
0100
0010
0000
0100
1000
0001
1000
0001
,
0100
0010
1000
0000
1000
0000
0100
0010
,
0100
1001
0001
0010
,
0010
1000
0010
0000
0010
0000
0001
0000
,
0001
0000
0100
0001
1000
0010
0000
0110
,
0000
0100
0001
0000
1001
0000
0001
0000
,
0010
0000
0000
0110
0000
0000
0100
0000
0000
1000
0000
0100
,
0000
0000
1000
0000
0000
0000
0001
0000
0000
0000
0000
0000
0000
0000
0000
0011
0000
0000
0000
0000
0000
0000
0000
0000
,
0220
0000
0000
0000
,
0330
0000
1100
0000
0000
1001
0000
0000
,
0101
0000
0110
0000
0000
1010
0000
0000
,
0110
0000
0001
0000
0000
0011
0000
0000
,
1100
0220
0000
0000
,
0330
1010
1100
1001
,
0001
0000
0100
0010
0100
0000
0000
0000
0001
0000
0010
0000
0100
0000
1000
0000
,
0001
0000
1010
0000
0000
1001
0000
0000
,
0011
0000
0110
0000
0000
1100
0000
0000
,
0110
0000
0001
0000
0000
0101
0000
0000
,
1010
0220
0000
0000
,
0330
1100
1010
1001
,
0001
0000
0010
0100
0010
0000
0000
0000
0001
0000
0100
0000
0010
0000
1000
0000
,
0001
0000
0100
0110
1100
1010
0101
0011
,
0110
0011
0010
0100
0010
0100
1000
0001
,
1000
0000
0001
0000
0100
0010
0100
0010
0100
0010
0100
0010
0100
0000
0000
0000
,
1001
0000
0000
0000
0000
0000
1000
0000
0000
0010
0000
0000
0010
0000
0000
0010
0000
0000
0100
0000
0000
0100
0000
0000
0100
0000
0000
0010
0000
0000
0000
0000
,
0110
0000
0000
0000
0000
0000
0001
0000
0000
0010
0000
0000
0010
0000
0000
0010
0000
0000
0100
0000
0000
0100
0000
0000
0100
0000
0000
0010
0000
0000
0000
0000
,
1001
0000
0000
1000
0000
0000
1000
0000
0000
0010
0000
0000
0010
0000
0000
0010
2000
0000
0000
0000
0100
0000
0000
0000
3001
0000
0010
0000
0100
0000
0000
0000
,
1000
0000
0000
1010
0000
0000
0110
0000
0000
0001
0000
0000
0100
0000
0000
0010
0000
0000
1000
0000
0000
0010
0000
0000
0100
0000
0000
0002
0000
0000
0000
0000
,
1003
0100
0010
0100
1000
0001
0100
0000
0001
1000
0010
0100
0001
0010
0100
0000
,
2200
0000
0000
0000
3300
0000
0000
0000
0001
0010
0001
0010
0001
0000
0000
0000
0100
0001
0100
0001
0100
0000
0000
0000
0001
0010
0001
0010
0001
0000
0000
0000
,
0110
0000
0000
0000
0000
0000
0000
0000
1000
0100
1000
0100
1000
0000
0000
0000
0010
1000
0010
1000
0010
0000
0000
0000
1000
0100
0010
0001
0010
0000
0000
0000
,
0001
0000
0000
0100
0000
0000
0110
0000
0010
1000
0010
1000
0010
0000
0000
0000
1000
0100
1000
0100
1000
0000
0000
0000
0001
0100
0001
0100
0001
0000
0000
0000
,
1000
0100
0010
0001
0100
0010
1000
0000
0001
0010
0100
1000
0100
0010
0001
0000
,
2001
0000
0100
0000
,
0002
0000
3003
0000
,
1002
0000
0100
0000
,
2000
0000
3003
0000
,
0020
0000
0000
0000
,
0230
0000
0000
0000
,
0302
0000
0000
0000
,
0013
0010
1000
0010
0001
0000
0101
0000
,
0010
1001
0100
0011
,
1000
0000
0020
0000
0000
0030
1100
0000
,
0010
1001
0100
1010
,
0001
0020
0000
0000
,
0000
0000
0130
1000
0100
0000
1000
0000
,
0001
0000
0100
0001
0100
0000
0010
0000
,
1000
0000
0000
0000
0001
0000
0000
0001
0000
0000
0001
0000
0100
0001
0100
0000
,
0010
1000
0002
0000
0000
0000
1003
0000
,
0001
0220
0330
1001
,
0001
0100
0001
0100
0010
1000
0001
0000
,
0010
0100
0010
1001
,
0001
0010
0100
1000
0100
0010
0001
0000
,
1000
0000
0110
0000
0001
1000
0001
0000
,
1000
0100
0010
0001
0010
0100
0010
0000
,
0001
0100
0010
1010
,
0010
1000
0010
1000
0001
0000
0010
0000
,
1010
0000
0010
0000
0011
0000
0010
0100
,
0001
0110
0001
0010
,
0100
0000
1000
0000
0200
0000
1300
0100
,
0010
0000
0000
0001
0000
0000
1000
0000
0000
0100
0000
0000
1000
0000
0000
0100
0000
0000
1000
0000
0000
0000
0001
0000
,
0000
0000
0100
0000
0000
0000
0010
0000
0000
1000
0000
0000
0010
0000
0000
1000
0000
0000
0010
0000
0000
0000
0000
0000
,
0110
0001
0010
0100
,
0010
0001
0010
0000
0100
0000
1000
0000
,
0001
0000
0000
0000
0020
0000
0000
0000
0130
1000
0100
1000
0001
0000
0100
0000
,
0001
0100
0001
0010
0100
1000
0010
0100
,
0010
0100
0001
0100
0010
1000
0001
0100
,
0001
1000
0100
0010
0100
1000
0001
0100
,
0001
0100
0010
1000
0010
1000
0001
0010
,
1000
0010
0001
0010
0100
1000
0001
1000
,
0100
1000
0001
0010
0100
1000
0001
1000
,
0100
0010
0001
1000
0010
0100
0001
0100
,
0002
0000
1003
0100
2000
0000
3001
0010
,
0100
1000
0010
0100
0010
1000
0001
0100
,
0010
0000
1000
0000
0001
0100
0001
1000
0100
0000
0010
0000
0100
0000
1000
0000
,
0001
0010
0100
1000
0100
0010
0100
0010
,
0002
0000
1003
0100
1000
0010
0100
0010
,
1000
0001
0010
0100
1000
0001
1000
0010
,
0100
0001
1000
0010
0001
0010
1000
0010
,
0100
0000
0001
0000
0010
0100
0010
0000
0100
1000
0001
0000
0101
0000
0000
0000
,
0000
0110
0000
0000
1001
0000
0011
0000
,
0000
0011
0000
0000
1100
0000
1001
0000
,
0000
1001
0000
0000
0101
0000
0220
0000
,
0000
0000
0000
0000
0330
0000
0001
0010
,
0100
1000
0100
1000
0001
0000
1000
0000
0100
0000
0010
0000
0001
0000
0000
0000
,
0100
0000
0220
0330
0100
0000
0010
0000
,
0100
0010
0100
0010
,
0100
0010
0100
0010
,
0100
0010
0100
0010
,
0100
0010
0100
0010
,
0100
0010
0100
0010
,
0100
0010
1000
0000
,
0011
0000
0110
0000
,
1100
0000
0100
0010
,
0100
0010
0100
0010
,
0100
0010
0100
0010
,
0100
0010
0100
0010
,
0100
0010
0100
0010
,
0100
0010
0100
0010
,
0100
0010
0001
0000
,
1010
0000
0110
0000
,
0101
0000
1000
1001
,
0001
0010
0000
0010
1000
0010
0000
0010
,
0001
0100
0000
0010
0110
0000
0010
0000
,
1000
0100
0010
0000
0100
1000
0100
1000
,
0001
0100
0010
1000
0001
0000
0000
0000
,
0000
0011
0000
0000
,
2200
0000
0000
3300
;

//---------------dance-double - ----------------
#NOTES:
     dance-double:
     :
     Easy:
     14:
     0.479896,1.160849,0.167964,0.415910,0.000000,420.000000,399.000000,21.000000,52.000000,0.000000,0.000000,0.479896,1.160849,0.167964,0.415910,0.000000,420.000000,399.000000,21.000000,52.000000,0.000000,0.000000:
// measure 0
00000000
00000000
00000000
00000000
,  // measure 1
00011000
00000000
00000100
00000000
,  // measure 2
00000010
00000000
00000100
00000000
,  // measure 3
00011000
00000000
01000000
00000000
,  // measure 4
00100000
01000000
00010000
00000000
,  // measure 5
10000000
00000000
00000000
11000000
,  // measure 6
00000000
00000000
01000000
00000000
,  // measure 7
00010000
00000000
00000000
00011000
,  // measure 8
00000000
00000000
00001000
00000000
,  // measure 9
00000100
00000000
00000000
00000101
,  // measure 10
00000000
00000000
00000001
00000000
,  // measure 11
00000010
00000000
00000100
00000000
,  // measure 12
00010000
00010000
00001000
00000000
,  // measure 13
00020000
00000000
00030000
00020000
,  // measure 14
00002000
00000000
00000000
00000000
00000000
00000000
00000000
00033000
,  // measure 15
00000020
00000000
00000000
00000000
,  // measure 16
00000032
00000000
00000000
00000000
,  // measure 17
00002003
00000000
00000000
00000000
,  // measure 18
00003020
00000000
00000000
00000000
,  // measure 19
00000130
00000100
00001000
00001000
,  // measure 20
00010000
00010000
00100000
00100000
,  // measure 21
01000000
10000000
01000000
00100000
,  // measure 22
00010000
00001000
00020000
00000000
,  // measure 23
00031000
00000000
00000000
00000000
,  // measure 24
00011000
00000000
00000000
00000000
,  // measure 25
00010000
00000000
00000000
00000000
,  // measure 26
00001000
00000000
00100000
00000000
,  // measure 27
00010000
00000000
02000000
00000000
,  // measure 28
00000000
00000000
00000000
00000000
,  // measure 29
00000000
00000000
00000000
00000000
,  // measure 30
00000000
00000000
00000000
00000000
,  // measure 31
00000000
00000000
00000000
00000000
,  // measure 32
00000000
00000000
00000000
00000000
,  // measure 33
00000000
00000000
03001000
00000000
,  // measure 34
00000000
00000000
00010000
00000000
,  // measure 35
00000000
00000000
00000020
00000000
,  // measure 36
00000000
00000000
00000000
00000000
,  // measure 37
00000000
00000000
00000000
00000000
,  // measure 38
00000000
00000000
00000000
00000000
,  // measure 39
00000000
00000000
00000000
00000000
,  // measure 40
00000000
00000000
00000000
00000000
,  // measure 41
00000000
00000000
00001030
00000000
,  // measure 42
00000000
00000000
00000100
00000000
,  // measure 43
00000000
00000000
00020000
00000000
,  // measure 44
00000000
00000000
00000000
00000000
,  // measure 45
00000000
00000000
00000000
00000000
,  // measure 46
00000000
00000000
00000000
00000000
,  // measure 47
00000000
00000000
00000000
00000000
,  // measure 48
00000000
00000000
00000000
00000000
,  // measure 49
00000000
00000000
00031000
00000000
,  // measure 50
00000000
00000000
01000000
00000000
,  // measure 51
00000000
00000000
00020000
00000000
,  // measure 52
00000000
00000000
00000000
00000000
,  // measure 53
00000000
00000000
00000000
00000000
,  // measure 54
00000000
00000000
00000000
00000000
,  // measure 55
00000000
00000000
10030000
00000000
,  // measure 56
00000000
00000000
10000000
01000000
,  // measure 57
10000000
01000000
00100000
00010000
,  // measure 58
00100000
00010000
00001000
00000100
,  // measure 59
00001000
00000100
00000010
00000001
,  // measure 60
00000100
00000000
00000001
00000100
,  // measure 61
00000001
00000100
00000010
00001000
,  // measure 62
00000010
00001000
00010000
01000000
,  // measure 63
00010000
00000000
01000000
00000000
00100000
00000000
00000000
10000000
,  // measure 64
00000000
01000000
00100000
01000000
,  // measure 65
10000000
00010000
00100000
00010000
,  // measure 66
00100000
00001000
00010000
00001000
,  // measure 67
00010000
00000010
00001000
00001000
,  // measure 68
00000000
00000001
00000010
00000001
,  // measure 69
00000000
00001000
00000100
00001000
,  // measure 70
00000000
00000000
00000010
00000000
00000000
00000100
00000000
00000000
,  // measure 71
00002002
00000000
00000000
00000000
,  // measure 72
00003003
00000000
00000001
00000000
00000000
00000001
00000000
00000000
,  // measure 73
00000001
00000000
00000010
00000000
00000000
00000010
00000000
00000000
,  // measure 74
00000010
00000000
00001000
00000000
00000000
00001000
00000000
00000000
,  // measure 75
00001000
00020000
00000000
00000000
,  // measure 76
00000000
00031000
00001000
00100000
,  // measure 77
00100000
00000000
01000000
00000000
00010000
00000000
01000000
10000000
,  // measure 78
00010000
00000000
10000000
00000000
00000000
10000000
00000000
00000000
,  // measure 79
10000000
00000000
00100000
00000000
00000000
00100000
00000000
00000000
,  // measure 80
00100000
00000000
00010000
00000000
00000000
00010000
00000000
00000000
,  // measure 81
00010000
00002000
00000000
00000000
,  // measure 82
00000000
00013000
00010000
00000010
,  // measure 83
00000010
00000000
00000100
00000000
00001000
00000000
00000100
00000001
,  // measure 84
00001000
00000000
00000001
00000001
00000010
00000010
00000100
00000100
,  // measure 85
00001000
00001000
00010000
00100000
00010000
00100000
01000000
10000000
,  // measure 86
01000000
10000000
01000000
00010000
00001000
00000010
00000001
00000000
,  // measure 87
00000110
00000000
00000000
00000000
,  // measure 88
00011000
00000000
01100000
01000000
,  // measure 89
10010000
00000000
00100000
00000000
02000000
00000000
00002000
03000000
,  // measure 90
00013000
00010000
00001000
00000000
00011000
00000000
00000100
00000000
,  // measure 91
00001000
00000001
00000100
00000000
00000010
00001000
00000001
00000000
,  // measure 92
00000101
00000020
00002030
00003020
,  // measure 93
00000030
00020000
00032000
00013000
,  // measure 94
11000000
00200000
00320000
00230000
,  // measure 95
01300000
10000000
00010000
00000000
01000000
00100000
10000000
00000000
,  // measure 96
20020000
30000000
00100000
00100000
,  // measure 97
00001000
00000010
00002000
00033000
,  // measure 98
00002002
00000003
00000100
00000100
,  // measure 99
00010000
01000000
00023000
20030000
,  // measure 100
30200000
00000000
02300000
00000000
,  // measure 101
03002000
00000000
00020000
00033000
,  // measure 102
00000200
00000000
00000320
00000000
,  // measure 103
00000032
00002003
00003001
00000100
,  // measure 104
00000000
00000010
00000000
00000110
,  // measure 105
00000000
00000000
00000000
00001000
,  // measure 106
00000000
00010000
00000000
00011000
,  // measure 107
00000000
00000000
00000000
00000000
,  // measure 108
00000000
00002000
00000000
00000000
,  // measure 109
00000000
00003000
00000000
00001000
,  // measure 110
00000000
00200000
00000000
00000000
,  // measure 111
00000000
00300000
00000000
01000000
,  // measure 112
00100000
20020000
30030000
10000000
,  // measure 113
01000000
00100000
01000000
10000000
,  // measure 114
01000000
00010000
00000000
00001000
,  // measure 115
00000100
00000010
00000100
00001000
,  // measure 116
00000100
00000001
00000000
00000010
,  // measure 117
00001000
00000001
00000100
00001000
,  // measure 118
00000001
00000010
00000000
00001000
,  // measure 119
00010000
00100000
10000000
00010000
,  // measure 120
00100000
01000000
10000000
00100000
,  // measure 121
00010000
10000000
01000000
10000000
,  // measure 122
00100000
01000000
00010000
00001000
,  // measure 123
00100000
00010000
10000000
01000000
,  // measure 124
10000000
00100000
00010000
00100000
,  // measure 125
00010000
00001000
00010000
00001000
,  // measure 126
00010000
00000100
00001000
00000100
,  // measure 127
00000010
00000002
00000003
00001000
,  // measure 128
00000100
00000001
00000100
00001000
,  // measure 129
00000001
00000010
00001000
00010000
,  // measure 130
01000000
10000000
00100000
00010000
,  // measure 131
00100000
01000000
00100000
10000000
,  // measure 132
00010000
00100000
10000000
00010000
,  // measure 133
01000000
10000000
01000000
00010000
,  // measure 134
00001000
00000100
00000001
00000010
,  // measure 135
00001000
00000010
00000100
00000010
,  // measure 136
00000001
00000100
00000010
00010000
,  // measure 137
00001000
00010000
01000000
10000000
,  // measure 138
00010000
10000000
00100000
00010000
,  // measure 139
00002000
00013000
00001000
00100000
,  // measure 140
00001000
00010000
00000010
00000100
,  // measure 141
00000001
00001000
00000100
00000010
,  // measure 142
00001000
00010000
00011000
00001000
,  // measure 143
00000000
00001000
00000000
00000000
00001000
00000000
00010000
00000000
,  // measure 144
00000000
00010000
00000000
00000000
00010000
00000000
00100000
00000000
,  // measure 145
00000000
00100000
00000000
00000000
00100000
00000000
20000000
00000000
,  // measure 146
00000000
00000000
30000000
00010000
,  // measure 147
00010000
00000000
00100000
01000000
10000000
00000000
01000000
00000000
,  // measure 148
00010000
00001000
00020000
00000000
,  // measure 149
00000000
00000000
00000000
00000000
,  // measure 150
00000000
00000000
00000000
00000000
,  // measure 151
00000000
00000000
00000000
00000000
,  // measure 152
00000000
00000000
00000000
00000000
,  // measure 153
00000000
00000000
00000000
00000000
,  // measure 154
00000000
00000000
00030100
00000000
,  // measure 155
00000000
00000000
00001000
00000000
,  // measure 156
00000000
00000000
00000020
00000000
,  // measure 157
00000000
00000000
00000000
00000000
,  // measure 158
00000000
00000000
00000000
00000000
,  // measure 159
00000000
00000000
00000000
00000000
,  // measure 160
00000000
00000000
00000000
00000000
,  // measure 161
00000000
00000000
00000000
00000000
,  // measure 162
00000000
00000000
00000130
00000000
,  // measure 163
00000000
00000000
00000001
00000000
,  // measure 164
00000000
00000000
00001000
00001000
,  // measure 165
00000100
00000000
00010000
00000000
,  // measure 166
00010000
00000000
00001000
00010000
,  // measure 167
00100000
00000000
10000000
00100000
,  // measure 168
01000000
00001000
00010000
00000000
,  // measure 169
00000000
00000010
00000000
00000000
,  // measure 170
00000202
00000000
00000000
00000303
;

//---------------dance-double - ----------------
#NOTES:
     dance-double:
     :
     Medium:
     17:
     0.730128,1.570561,0.319931,0.439905,0.119974,639.000000,599.000000,40.000000,55.000000,0.000000,0.000000,0.730128,1.570561,0.319931,0.439905,0.119974,639.000000,599.000000,40.000000,55.000000,0.000000,0.000000:
00000000
00000000
00000000
00000000
,
00011000
00000000
00000000
00000000
,
00000000
00000000
00000000
00000000
,
00011000
00000000
00000000
00000000
,
00001000
00100000
00010000
01000000
,
00100000
00000000
00000000
11000000
,
00000000
00000000
00010000
01000000
,
00001000
00000000
00000000
00011000
,
00000000
00000000
00010000
00000100
,
00001000
00000000
00000000
00000011
,
00000000
00000000
00000001
00000000
,
00000100
00000000
00000010
00000000
,
00001000
00000100
00001000
00000100
,
00020000
00000000
00000000
00000000
,
00002000
00000000
00000000
00000000
00000000
00000000
00000000
00033000
,
00200000
00000000
00000000
00000000
,
00320000
00000000
00000000
00000000
,
20030000
00000000
00000000
00000000
,
30200000
00000000
00000000
00000000
,
01300000
01000000
00010000
00010000
,
00001000
00001000
00000010
00000010
,
00000100
00000000
00000000
00000000
00000001
00000000
00000000
00000000
00001000
00000000
00000000
00000000
00000100
00000000
00010000
00001000
,
00010000
00001000
01000000
00100000
10000000
00010000
10000000
00010000
,
10000000
00000000
00000000
00000000
,
10010000
00000000
10000000
00000000
,
00100000
00000000
00100000
00000000
,
01000000
00010000
00100000
00001000
,
00010000
00000000
00000100
00000000
,
00001000
00000000
00000100
00000000
,
00001000
00000000
00000100
00000000
,
00001000
00000000
00000100
00000000
,
00001000
00000000
00000100
00000000
,
00001000
00000000
00000100
00000000
,
00001000
00000000
00000100
00000000
,
00010000
00000000
00001000
00000000
,
00011000
00000000
01000000
00000000
,
00010000
00000000
01000000
00000000
,
00010000
00000000
01000000
00000000
,
00010000
00000000
01000000
00000000
,
00010000
00000000
01000000
00000000
,
00010000
00000000
01000000
00000000
,
00010000
00000000
01000000
00000000
,
00001000
00000000
00010000
00000000
,
00011000
00000000
00000010
00000000
,
00001000
00000000
00000010
00000000
,
00001000
00000000
00000010
00000000
,
00001000
00000000
00000010
00000000
,
00001000
00000000
00000010
00000000
,
00001000
00000000
00000010
00000000
,
00001000
00000000
00000010
00000000
,
00000100
00000000
00001000
00000000
,
00010000
00000000
01000000
00000000
,
00100000
00000000
01000000
00000000
,
00100000
00000000
01000000
00000000
,
00100000
00000000
01000000
00000000
,
00100000
00000000
00000000
00000000
01000000
10000000
01000000
00100000
,
00000000
00020000
01030000
00100000
,
10000000
00100000
01000000
00010000
,
10000000
00000000
01000000
00100000
01000000
00000000
00010000
00000000
,
00001000
00000100
00000001
00000010
,
00000100
00000010
00000100
00000000
00000010
00000000
00001000
00000000
,
00010000
00000100
00000010
00000001
,
00000100
00000000
00000010
00001000
00000010
00000000
00000100
00001000
,
00010000
00001000
00010000
00000000
00001000
00000000
01000000
00000000
,
00100000
00000000
10000000
00000000
00010000
00000000
00100000
01000000
,
00100000
00010000
10000000
00100000
,
01000000
00010000
10000000
00000000
00100000
00000000
01000000
00000000
,
00001000
00000000
00010000
00001000
00010000
00001000
00000000
00100000
,
00000000
00010000
00000000
00000000
10000000
00000000
01000000
00000000
,
01000000
00000000
00010000
00001000
,
00001000
00000000
00000100
00000000
00000000
00001001
00000000
00000000
,
00000220
00000000
00000000
00000000
,
00000330
00000000
00000001
00000000
00000000
00000011
00000000
00000000
,
00000100
00000000
00001000
00000000
00000000
00011000
00000000
00000000
,
00010000
00000000
00100000
00000000
00000000
11000000
00000000
00000000
,
10000000
00020000
00000000
00000000
,
00000000
01030000
10100000
00110000
,
01000000
01000000
00010000
00000000
00001000
00010000
00001000
01000000
,
00100000
00000000
10000000
00000000
00000000
11000000
00000000
00000000
,
00100000
00000000
00010000
00000000
00000000
00011000
00000000
00000000
,
00001000
00000000
00000100
00000000
00000000
00000011
00000000
00000000
,
00000001
00002000
00000000
00000000
,
00000000
00003010
00000101
00001100
,
00000010
00000010
00001000
00000000
00010000
00001000
00010000
00000010
,
00000100
00000000
00000001
00001001
00001000
00011000
00010000
10010000
,
00001000
00011000
00100000
00010000
01000000
00001000
00100000
00010000
,
01000000
00000000
00001000
00000000
00010000
00001000
00010000
00001000
00010000
00001000
00010000
00001000
00010000
00000000
00000000
00000000
,
00011000
00000000
00000000
00000000
00000000
00000000
00000100
00000000
00000000
00000010
00000000
00000000
00000100
00000000
00000000
00000010
00000000
00000000
00000100
00000000
00000000
00000010
00000000
00000000
00000100
00000000
00000000
00000010
00000000
00000000
00000000
00000000
,
00001001
00000000
00000000
00000000
00000000
00000000
00001000
00000000
00000000
00000010
00000000
00000000
00000001
00000000
00000000
00000010
00000000
00000000
00001000
00000000
00000000
00001000
00000000
00000000
00001000
00000000
00000000
00000100
00000000
00000000
00000000
00000000
,
00010000
00000000
00000000
00010000
00000000
00000000
00010000
00000000
00000000
00001000
00000000
00000000
01000000
00000000
00000000
00010000
20000000
00000000
00000000
00000000
00000000
00000000
00000000
00000000
00200000
00000000
00000000
00000000
30300000
00000000
00000000
00000000
,
01000000
00000000
00000000
01000000
00000000
00000000
01000000
00000000
00020000
00000000
00000000
00000000
00000000
00000000
00000000
00000000
00230000
00000000
00000000
00000000
00000000
00000000
00000000
00000000
00302000
00000000
00000000
00000000
00000000
00000000
00000000
00000000
,
00013000
01000000
10000000
01000000
00010000
00001000
00000100
00000001
,
00001001
00000000
00002000
00000000
00003002
00000000
00002003
00003000
,
00011000
00020000
20030000
30020000
,
00130000
00000000
00000000
00100000
00000000
00000000
00100000
00000000
00002000
00000000
00000000
00000000
00000000
00000000
00000000
00000000
00023000
00000000
00000000
00000000
00000000
00000000
00000000
00000000
00032000
00000000
00000000
00000000
00000000
00000000
00000000
00000000
,
01003000
00010000
00100000
00001000
00100000
00010000
01000000
00001000
,
00020000
00000000
00000100
00001000
,
00000010
00000010
00002000
00033000
,
00002000
00000000
00100000
00010000
,
01000000
01000000
00023000
00030200
,
00020300
00000000
00030000
00000020
00002000
00000000
00003030
00000000
,
00000002
00000000
00000020
00000033
,
00000200
00000000
00000300
00020000
00002000
00000000
00033000
00000000
,
00200000
00320000
10030000
01000000
,
10000000
00010000
01000000
00001000
,
00010000
00000000
00002200
00000000
00000000
00003300
00000010
00000000
,
00000001
00001000
00000010
00010000
,
00001000
00220000
00000000
00000000
,
00330000
00100000
01000000
00010000
,
00001000
01000000
00100000
00010000
,
00001000
00000000
00000000
00000000
00000100
00000000
00000000
00000100
00000000
00000000
00000100
00000000
00000010
00000000
00010000
00000000
,
00001000
00000010
00000002
00000000
00000000
00000000
00000013
00000000
,
00000100
00000220
00000330
00001001
,
00001000
00000010
00001000
00000001
00001000
00000100
00001000
00000000
,
00000001
00000010
00000100
00010000
,
00001000
00000000
01000000
00010000
01000000
00100000
01000000
00000000
,
10000000
00000000
01000000
00000000
00010000
10000000
00010000
00000000
,
10000000
00000000
01000000
00100000
01000000
00100000
00010000
00000000
,
10000000
01000000
00010000
00001000
,
00000100
00000001
00000100
00000001
00001000
00000000
00000100
00000000
,
00000010
00000000
00000001
00000000
00000010
00000000
00010000
00001000
,
00010000
00000010
00010000
00001000
,
00000010
00001000
00020000
00130000
,
01000000
00000000
00000000
00000000
00000000
00000000
00010000
00000000
00000000
01000000
00000000
00000000
00010000
00000000
00000000
01000000
00000000
00000000
00010000
00000000
00000000
00000000
00100000
00000000
,
00000000
00000000
00001000
00000000
00000000
00000000
00010000
00000000
00000000
00001000
00000000
00000000
00010000
00000000
00000000
00001000
00000000
00000000
00010000
00000000
00000000
00000000
00000000
00000000
,
00001000
00000010
00000001
00001000
,
00000001
00000010
00000100
00000000
00001000
00000000
00000010
00000000
,
00000100
00000000
00000002
00000000
00000000
00000003
00000001
00000010
,
00000001
00000000
00000010
00000000
00000100
00000000
00010000
00001000
,
00010000
00000000
00100000
00000000
10000000
00000000
00010000
01000000
,
00010000
00000000
00100000
00000000
01000000
00000000
10000000
01000000
,
10000000
00000000
00010000
00100000
00010000
00000000
01000000
00010000
,
01000000
00000000
00100000
00000000
00010000
00000000
00001000
00000100
,
00001000
00000000
00010000
00000000
00001000
00000000
00000010
00000001
,
00000010
00000000
00000100
00000000
00001000
00000000
00000001
00000010
,
00000001
00000000
00001000
00000010
00000100
00000000
00001000
00010000
,
00001000
00010000
01000000
10000000
,
01000000
00100000
00001000
00000010
,
00000001
00000000
00000100
00000000
00001000
00010000
00001000
00000000
,
00020000
00000000
01030000
00100000
01000000
00000000
00010000
00000000
,
00001000
00100000
00001000
01000000
,
00001000
00010000
01000000
10000000
,
00100000
00000000
00000000
00000000
00010000
00001000
00010000
00000000
00001000
00010000
00001000
00000000
00010000
00000000
00000000
00000000
,
00000000
01010000
00000000
00000000
01000000
00000000
10000000
00000000
,
00000000
10100000
00000000
00000000
00100000
00000000
00010000
00000000
,
00000000
00011000
00000000
00000000
00001000
00000000
00000020
00000000
,
00000000
00000000
00000000
00000000
00000030
00000000
00000100
00001000
,
00000010
00010000
00001000
00000100
00000010
00001000
00000001
00000000
,
00000010
00000000
00000220
00000330
00001000
00000000
00000000
00000000
,
00001000
00000000
00001000
00000000
,
00001000
00000000
00001000
00000000
,
00001000
00000000
00001000
00000000
,
00001000
00000000
00001000
00000000
,
00001000
00000000
00001000
00000000
,
00001000
00000000
00001000
00000000
,
01000000
00000000
00100000
00000000
,
01100000
00000000
00010000
00000000
,
00010000
00000000
00010000
00000000
,
00010000
00000000
00010000
00000000
,
00010000
00000000
00010000
00000000
,
00010000
00000000
00010000
00000000
,
00010000
00000000
00010000
00000000
,
00010000
00000000
00010000
00000000
,
00000100
00000000
00000010
00000000
,
00000001
00000000
00001000
00001001
,
00000010
00000100
00000000
00000100
00000001
00000000
00000000
00000001
,
00000100
00000000
00001000
00010000
00001000
00000000
00010000
00000000
,
00100000
00000000
10000000
01000000
,
00010000
00001000
00000010
00000000
,
00000000
00010100
00000000
00000000
,
02002000
00000000
00000000
03003000
;

//---------------dance-double - ----------------
#NOTES:
     dance-double:
     :
     Hard:
     19:
     1.002069,2.663125,0.623865,0.351924,0.367921,877.000000,799.000000,78.000000,44.000000,0.000000,0.000000,1.002069,2.663125,0.623865,0.351924,0.367921,877.000000,799.000000,78.000000,44.000000,0.000000,0.000000:
00000000
00000000
00000000
00000000
,
00011000
00000000
00010000
00000000
,
01000000
00000000
00010000
00000000
,
00011000
00000000
00001000
00000000
,
00000100
00001000
00000100
00000000
,
00000001
00000000
00000000
00000101
,
00000000
00000000
00000100
00001000
,
00010000
00000000
00000000
01010000
,
00000000
00000000
01000000
10000000
,
00100000
00000000
00000000
01100000
,
00000000
00000000
01000000
00010000
,
10000000
01000000
00100000
00000000
,
00001000
00010000
00001000
00010000
,
00002000
00000000
00000000
00000000
,
00020000
00000000
00000000
00000000
00000000
00000000
00000000
00033000
,
00000020
00000000
00000000
00000000
,
00000230
00000000
00000000
00000000
,
00000302
00000000
00000000
00000000
,
00002003
00000000
00000000
00000000
,
00003001
00000010
00001000
00000010
,
00000100
00000010
00001000
00010000
,
00100000
00000000
00000000
00000000
01000000
00000000
00000000
00000000
00100000
00000000
00000000
00000000
00010000
00000000
00100000
10000000
,
00100000
00000000
10000000
00000000
01000000
00000000
00100000
00000000
00010000
00100000
00010000
00000000
10000000
01000000
10000000
00000000
,
00010000
00000000
00000000
00000000
,
00010000
00000000
01000000
00000000
00001000
00010000
00000000
00010000
,
00001000
00000000
00000000
00001000
00010000
00000000
00010000
00001000
,
00010000
00000100
00000010
00000001
,
00002000
00003000
00000010
00000100
,
00000010
00000100
00000010
00000100
,
00000010
00000100
00000010
00000100
,
00000010
00000100
00000010
00000100
,
00000010
00000100
00000010
00000100
,
00000010
00000100
00000010
00000100
,
00000010
00000100
00000010
00000000
,
00010000
00000000
00001000
00000000
,
00011000
00000000
00100000
01000000
,
00100000
01000000
00100000
01000000
,
00100000
01000000
00100000
01000000
,
00100000
01000000
00100000
01000000
,
00100000
01000000
00100000
01000000
,
00100000
01000000
00100000
01000000
,
00100000
01000000
00100000
00000000
,
00010000
00000000
10000000
00000000
,
00010000
00000000
01000000
00100000
,
01000000
00100000
01000000
00100000
,
01000000
00100000
01000000
00100000
,
01000000
00100000
01000000
00100000
,
01000000
00100000
01000000
00100000
,
01000000
00100000
01000000
00100000
,
01000000
00000000
00000000
00100000
00000000
00000000
01000000
00000000
00000000
00000000
00001000
00000000
,
00000000
00000000
00010000
00000000
00000000
00000000
00000100
00000000
00000000
00000000
00000010
00000000
,
00000000
00000000
00000100
00000000
00000000
00000000
00001000
00000000
00000000
00000001
00000000
00000000
,
00001000
00000001
00001000
00000001
,
00001000
00000001
00001000
00000001
,
00001000
00000001
00001000
00000001
,
00001000
00000000
00000001
00000000
00001000
00000001
00000100
00000010
,
00000000
00000000
00020000
00030000
00011000
00000000
00001000
00000000
,
00000010
00000010
00000001
00000001
,
00000100
00000000
00000100
00000010
00000100
00000000
00000100
00000000
,
00001000
00001000
00010000
00010000
,
01000000
00100000
01000000
00000000
10000000
00000000
10000000
00000000
,
00100000
00100000
00010000
00010000
,
00001000
00000000
00000100
00000001
00001000
00000000
00000020
00000130
,
00000001
00000010
00000000
00000100
00010000
00001000
00010000
00001000
,
00100000
01000000
10000000
00000000
10000000
00000000
01000000
00100000
,
01000000
10010000
00010000
01000000
,
00100000
10000000
00100000
00000000
10000000
00000000
01000000
00000000
,
01000000
00000000
00010000
00001000
00010000
00001000
00000000
00110000
,
00000000
00001000
00010000
00000000
00011000
00000000
00010000
00000000
,
01000000
00000000
00000000
00010000
00000000
00000000
00001000
00000000
00000000
00000100
00000000
00000001
,
00000000
00000000
00000100
00000000
00000000
00000000
00000010
00000000
00000000
00000000
00000000
00000000
00000000
00000000
00000000
00001100
00000000
00000000
00000000
00000000
00000000
00000000
00000000
00000000
,
00000202
00000000
00000000
00000000
,
00000303
00000000
00001001
00000000
00000000
00001001
00000000
00000000
,
00001100
00000000
00000110
00000000
00000000
00000110
00000000
00000000
,
00001010
00000000
00011000
00000000
00000000
00011000
00000000
00000000
,
01010000
22000000
00000000
00000000
,
33000000
00010000
01100000
01010000
,
10000000
00000000
01000000
00100000
01000000
00000000
00000000
00000000
10000000
00000000
00010000
00000000
01000000
00000000
00100000
00000000
,
10000000
00000000
10010000
00000000
00000000
10010000
00000000
00000000
,
00110000
00000000
01100000
00000000
00000000
01100000
00000000
00000000
,
01010000
00000000
00011000
00000000
00000000
00011000
00000000
00000000
,
00001010
00000022
00000000
00000000
,
00000033
00001000
00000110
00001010
,
00000001
00000000
00000010
00000100
00000010
00000000
00000000
00000000
00000001
00000000
00001000
00000000
00000010
00000000
00000100
00000000
,
00000001
00000000
00001000
00001100
00000100
00000101
00000001
00000011
,
00000010
00001010
00010000
00001000
00100000
00010000
01000000
00100000
,
10000000
00000000
01000000
00000000
00100000
01000000
00100000
01000000
00100000
01000000
00100000
01000000
00100000
00000000
00000000
00000000
,
10010000
00000000
00000000
00000000
00000000
00000000
10000000
00000000
00000000
00100000
00000000
00000000
00100000
00000000
00000000
00100000
00000000
00000000
01000000
00000000
00000000
01000000
00000000
00000000
01000000
00000000
00000000
00010000
00000000
00000000
00000000
00000000
,
00011000
00000000
00000000
00000000
00000000
00000000
00001000
00000000
00000000
00000010
00000000
00000000
00000010
00000000
00000000
00000010
00000000
00000000
00000100
00000000
00000000
00000100
00000000
00000000
00000100
00000000
00000000
00000001
00000000
00000000
00000000
00000000
,
00001001
00000000
00000000
00000000
00000000
00000000
00000000
00000000
00000000
00000000
00000000
00000000
00000000
00000000
00000000
00000000
00000000
00000000
00001000
00000000
00000000
00000000
00000000
00000000
00000000
00000000
00000000
00000000
00000000
00000000
00000000
00000000
00000000
00000000
00000000
00000000
00001000
00000000
00000000
00000000
00000000
00000000
00000000
00000000
00000000
00000000
00000000
00000000
00000000
00000000
00000000
00000000
00000000
00000000
00000100
00000000
00000000
00000000
00000000
00000000
00000000
00000000
00000000
00000000
00000000
00000000
00000000
00000000
00000000
00000000
00000000
00000000
00000100
00000000
00000000
00000000
00000000
00000000
00000000
00000000
00000000
00000000
00000000
00000000
00000000
00000000
00000000
00000000
00000000
00000000
00000100
00000000
00000000
00000000
00000000
00000000
00020000
00000000
00000000
00000000
00000000
00000000
00000000
00000000
00000000
00000000
00000000
00000000
00000000
00000000
00000000
00000000
00000000
00000000
00000000
00000000
00000000
00000000
00000000
00000000
00000000
00000000
00000000
00000000
00000000
00000000
00000000
00000000
00000000
00000000
00000000
00000000
00000000
00000000
00000000
00000000
00000000
00000000
00000000
00000000
00000000
00000000
00000000
00000000
00030100
00000000
00000000
00000000
00000000
00000000
00000000
00000000
00001000
00000000
00000000
00000000
00000000
00000000
00000000
00000000
00000010
00000000
00000000
00000000
00000000
00000000
00000000
00000000
00010000
00000000
00000000
00000000
00000000
00000000
00000000
00000000
00000000
00000000
00000000
00000000
00000000
00000000
00000000
00000000
00000000
00000000
00000000
00000000
00000000
00000000
00000000
00000000
,
00001000
00000000
00000000
00101000
00000000
00000000
00011000
00000000
00000000
00001000
00000000
00000000
01000000
00000000
00000000
00010000
00000000
00000000
10000000
00000000
00000000
00100000
00000000
00000000
01000000
00000000
00000000
00020000
00000000
00000000
00000000
00000000
,
00130000
01000000
10000000
01000000
00100000
00010000
10000000
00000000
00010000
01000000
00100000
10000000
00100000
01000000
00010000
00000000
,
00022000
00000000
00000000
00000000
00033000
00000000
00000000
00000000
00000010
00001000
00000010
00001000
00000010
00000000
00000000
00000000
00010000
00001000
00010000
00001000
00010000
00000000
00000000
00000000
00000100
00001000
00000100
00001000
00000100
00000000
00000000
00000000
,
00000110
00000000
00000000
00000000
00000000
00000000
00000000
00000000
00000000
00000000
00000000
00000000
00000000
00000000
00000000
00000000
00000000
00000000
00000000
00000000
00000000
00000000
00000000
00000000
00000000
00000000
00000000
00000000
00000000
00000000
00000000
00000000
00000000
00000000
00000000
00000000
00000000
00000000
00000000
00000000
00000000
00000000
00000000
00000000
00000000
00000000
00000000
00000000
00000001
00000000
00000000
00000000
00000000
00000000
00001000
00000000
00000000
00000000
00000000
00000000
00000001
00000000
00000000
00000000
00000000
00000000
00001000
00000000
00000000
00000000
00000000
00000000
00000001
00000000
00000000
00000000
00000000
00000000
00000000
00000000
00000000
00000000
00000000
00000000
00000000
00000000
00000000
00000000
00000000
00000000
00000000
00000000
00000000
00000000
00000000
00000000
00000100
00000000
00000000
00000000
00000000
00000000
00000010
00000000
00000000
00000000
00000000
00000000
00000100
00000000
00000000
00000000
00000000
00000000
00000010
00000000
00000000
00000000
00000000
00000000
00000100
00000000
00000000
00000000
00000000
00000000
00000000
00000000
00000000
00000000
00000000
00000000
00000000
00000000
00000000
00000000
00000000
00000000
00000000
00000000
00000000
00000000
00000000
00000000
00000001
00000000
00000000
00000000
00000000
00000000
00000000
00000000
00000010
00000000
00000000
00000000
00000000
00000000
00000000
00000000
00000001
00000000
00000000
00000000
00000000
00000000
00000000
00000000
00000010
00000000
00000000
00000000
00000000
00000000
00000000
00000000
00000000
00000000
00000000
00000000
00001000
00000000
00000000
00000000
00000000
00000000
00000000
00000000
00000000
00000000
00000000
00000000
,
00010000
00000000
00000000
00100000
00000000
00000000
00110000
00000000
01000000
00010000
01000000
00010000
01000000
00000000
00000000
00000000
00001000
00010000
00001000
00010000
00001000
00000000
00000000
00000000
00100000
00010000
00100000
00010000
00100000
00000000
00000000
00000000
,
01000000
10000000
00100000
10000000
01000000
00100000
00010000
00000000
01000000
00100000
00010000
00100000
01000000
00001000
00010000
00000000
,
00021000
00000000
00000200
00030000
,
00000020
00000000
00000000
00000330
,
00021000
00000000
00000020
00030000
,
00000200
00000000
00000000
00000330
,
00000002
00000000
00000000
00000000
,
00000023
00000000
00000000
00000000
,
00002030
00000000
00000000
00000000
,
00013000
00010000
01000000
10000000
00010000
00000000
01100000
00000000
,
10000000
01100000
00010000
00011000
,
00000010
00000000
00000200
00000000
00000000
00000300
00000110
00000000
,
00000001
00000110
00001000
00011000
,
00100000
02000000
00000000
00000000
,
00000000
00000000
13000000
01000000
10000000
00000000
01000000
00000000
,
00010000
00000000
00001000
00010000
00001000
00000000
00010000
00000000
,
00100000
00000000
00000000
00000000
10000000
00000000
00000000
10000000
00000000
00000000
10000000
00000000
00010000
00000000
00100000
00000000
,
01000000
10000000
00020000
00000000
00000000
00000000
00130000
00010000
,
01000000
02200000
03300000
10010000
,
00010000
01000000
00100000
01000000
00010000
01000000
00001000
00000000
,
00010000
00001000
00100000
01000000
,
10000000
00010000
10000000
01000000
10000000
00100000
00010000
00000000
,
00001000
00000000
00000100
00000000
00000010
00001000
00000010
00000000
,
00000100
00000001
00000010
00000100
00000010
00000001
00001000
00000000
,
00000010
00000100
00000001
00000100
,
00000010
00010000
00000010
00010000
00001000
00000000
00100000
00000000
,
00110000
00000000
00001000
00000000
00011000
00000000
00100000
10000000
,
00010000
10010000
00010000
00100000
,
01000000
00000000
10000000
00000000
02000000
00000000
03010000
00001000
,
00000010
00000000
00000000
00000100
00000000
00000000
00001000
00000000
00000000
00000001
00000000
00000000
00001000
00000000
00000000
00000001
00000000
00000000
00000100
00000000
00000000
00000000
00000010
00000000
,
00000000
00000000
00010000
00000000
00000000
00000000
00001000
00000000
00000000
00010000
00000000
00000000
00001000
00000000
00000000
00010000
00000000
00000000
00001000
00000000
00000000
00000000
00000000
00000000
,
00110000
01000000
10000000
00010000
,
01000000
00010000
01000000
00000000
00100000
00000000
10000000
00000000
,
00010000
00000000
00000000
00000000
00200000
00000000
00000000
00000000
01300000
10000000
01000000
10000000
00010000
00000000
00100000
00000000
,
00010000
00100000
00001000
01000000
00010000
01000000
00100000
10000000
,
00100000
10000000
00100000
01000000
00010000
10000000
01000000
00100000
,
01000000
10000000
00010000
00100000
00010000
01000000
00001000
00010000
,
00001000
00010000
00000010
00001000
00000010
00001000
00000001
00000010
,
00000100
00001000
00000100
00010000
00001000
00100000
00001000
00010000
,
00000010
00010000
00000010
00001000
00000001
00001000
00000010
00000100
,
00000001
00001000
00000100
00000010
00000001
00000100
00000010
00001000
,
00000020
00000000
00010030
00001000
00020000
00000000
00031000
00100000
,
01000000
10000000
00010000
01000000
00100000
10000000
00010000
00100000
,
01000000
00000000
10000000
00000000
00010000
00100000
01000000
10000000
00010000
00000000
01000000
00000000
00100000
00000000
10000000
00000000
,
00100000
01000000
00010000
00100000
01000000
10000000
01000000
10000000
,
00020000
00000000
00130000
01000000
00010000
00001000
00010000
00001000
,
00100000
00010000
01000000
00001000
00010000
00000010
00001000
00000001
,
00000010
00000100
00000010
00001000
00010000
00100000
10000000
01000000
,
10000000
00000000
00010000
00000000
00100000
01000000
00100000
00000000
00010000
10000000
00010000
00000000
10010000
00000000
00000000
00000000
,
00000000
10010000
00000000
00000000
00110000
00000000
01100000
00000000
,
00000000
01100000
00000000
00000000
01010000
00000000
00011000
00000000
,
00000000
00011000
00000000
00000000
00001010
00000000
00000022
00000000
,
00000000
00000000
00000000
00000000
00000033
00000000
00000001
00000100
,
00000010
00001000
00000010
00001000
00000001
00000000
00000010
00000000
00000100
00000000
00010000
00000000
00001000
00000000
00000000
00000000
,
00010000
00000000
00022000
00033000
01000000
00000000
00100000
00000000
,
01000000
00100000
01000000
00100000
,
01000000
00100000
01000000
00100000
,
01000000
00100000
01000000
00100000
,
01000000
00100000
01000000
00100000
,
01000000
00100000
01000000
00100000
,
01000000
00100000
01000000
00000000
,
00001000
00000000
00010000
00000000
,
00011000
00000000
00000100
00000010
,
00000100
00000010
00000100
00000010
,
00000100
00000010
00000100
00000010
,
00000100
00000010
00000100
00000010
,
00000100
00000010
00000100
00000010
,
00000100
00000010
00000100
00000010
,
00000100
00000010
00000100
00000000
,
00010000
00000000
00001000
00000000
,
01000000
00000000
00010000
10010000
,
10000000
01000000
00000000
00100000
00010000
01000000
00000000
00100000
,
00010000
00001000
00000000
00000100
00000110
00000000
00000001
00000000
,
00001000
00000100
00000010
00000000
00000100
00001000
00000100
00001000
,
00000001
00000100
00001000
00010000
00100000
00000000
00000000
00000000
,
00000000
01001000
00000000
00000000
,
00020200
00000000
00000000
00030300
;

//---------------dance-double - ----------------
#NOTES:
     dance-double:
     :
     Challenge:
     20:
     1.216880,3.619118,1.015781,0.343926,0.679853,1065.000000,938.000000,127.000000,43.000000,324.000000,0.000000,1.216880,3.619118,1.015781,0.343926,0.679853,1065.000000,938.000000,127.000000,43.000000,324.000000,0.000000:
MMMMMMMM
MMMMMMMM
MMMMMMMM
MMMMMMMM
,
01100000
00000000
00010000
00000000
10000000
00100000
01000000
00000000
,
00010000
10000000
01000000
00000000
00100000
01000000
00010000
00000000
,
00011000
00000000
00001000
00000000
00010000
00001000
00000100
00000001
,
00001000
00000100
00000010
00000001
,
00001001
00001000
00000100
00001100
,
00000001
00000100
00000010
00000100
,
00000110
00001000
00000001
00000011
,
00000100
00000000
00001000
00000000
00000010
00000100
00000010
00000100
,
00000010
00001000
00000100
00001100
,
00010000
00000000
00001000
00000000
01000000
00000000
00010000
10000000
,
00100000
00000000
10000000
00000000
01000000
00100000
01000000
00100000
,
00010000
10000000
00010000
10000000
,
0002MMMM
00000000
0000MMMM
00000000
,
2000MMMM
00000000
00000000
00000000
0000MMMM
00000000
00000000
30030000
,
0020MMMM
00000000
00000000
00000000
,
20300000
00000000
00000000
00000000
,
32000000
00000000
00000000
00000000
,
00010000
00000000
00000000
00010000
03000000
00000000
00011000
00000000
,
00001000
00001000
00000100
00000100
,
00000001
00000001
00000010
00000010
,
00001000
00000000
00000000
00000000
00001000
00000000
00000000
00000000
00010000
00000000
00000000
00000000
00010000
00000000
00001000
00100000
,
00010000
00000000
01000000
00000000
00100000
00000000
10000000
00000000
01000000
00100000
01000000
00100000
01000000
00100000
01000000
00100000
,
0100MMMM
00000000
00000000
00000000
00000000
00000000
00000000
00000000
MMMMMMMM
00000000
00000000
00000000
00000000
00000000
00000000
00000000
MMMMMMMM
00000000
00000000
00000000
00000000
00000000
00000000
00000000
0001MMMM
10000000
00010000
10000000
00010000
10000000
00010000
10000000
,
0001MMMM
00000000
01000000
00000000
00010000
10000000
00000000
10000000
,
01000000
00100000
00000000
00100000
00010000
01000000
00000000
00001000
,
00010000
00001000
00010000
00001000
00010000
00001000
00010000
00001000
,
00010000
MMMMMMMM
00000100
00000010
,
00000100
00000010
00000100
00000010
,
00000100
00000010
00000100
00000010
,
00000100
00000010
00000100
00000010
,
00000100
00000010
00000100
00000010
,
00000100
00000010
00000100
00000010
,
00000100
00000010
00000001
00000000
,
00001000
00000000
00000010
00000000
,
00000110
00000000
00001000
00010000
,
00001000
00010000
00001000
00010000
,
00001000
00010000
00001000
00010000
,
00001000
00010000
00001000
00010000
,
00001000
00010000
00001000
00010000
,
00001000
00010000
00001000
00010000
,
00001000
00010000
00001000
00000000
,
00100000
00000000
00010000
00000000
,
10010000
00000000
01000000
00100000
,
01000000
00100000
01000000
00100000
,
01000000
00100000
01000000
00100000
,
01000000
00100000
01000000
00100000
,
01000000
00100000
01000000
00100000
,
01000000
00100000
01000000
00100000
,
01000000
00000000
00000000
00100000
00000000
00000000
10000000
00000000
00000000
00000000
00010000
00000000
,
00000000
00000000
00100000
00000000
00000000
00000000
01000000
00000000
00000000
00000000
10000000
00000000
,
00000000
00000000
01000000
00000000
00000000
00000000
00010000
00000000
00000000
00001000
00000000
00000000
,
00010000
00001000
00010000
00001000
,
00010000
00001000
00010000
00001000
,
00010000
00001000
00010000
00001000
,
00010000
00000000
00001000
00000000
00010000
00000100
00001000
00000001
,
MMMMMMMM
00000000
00000200
00000300
00001001
00000000
00000011
00000000
,
00001100
00001100
00011000
00010010
,
00011000
00000000
00001000
00010000
01000000
00000000
11000000
00000000
,
01100000
01100000
00110000
10010000
,
10000000
00100000
01000000
00000000
01010000
00000000
00011000
00000000
,
00110000
00110000
00011000
00010100
,
00000110
00000000
00000110
00000000
00001000
00000000
00000001
00000010
,
00000001
00000010
00000100
00000000
00000010
00000001
00000100
00000010
,
00001000
00000001
MMMM1000
00000000
00000110
00000000
00001000
00000100
,
00000010
00000110
00001100
00010100
,
00010000
00001000
00010000
00000000
00011000
00000000
01001000
00000000
,
00011000
00000000
00100000
01000000
00100000
01000000
00000000
11000000
,
00000000
10000000
00100000
00000000
01010000
00000000
00011000
00000000
,
01010000
00000000
00000000
00011000
00000000
00000000
00001100
00000000
00000000
00001000
00000000
00000001
,
00000000
00000000
00000010
00000000
00000000
00000000
00000100
00000000
00000000
00000000
00000000
00000000
00000000
00000000
00000000
00000011
00000000
00000000
00000000
00000000
00000000
00000000
00000000
00000000
,
00002020
00000000
00000000
00003030
,
00000000
00000000
00000110
00000000
00000000
00000110
00000000
00000000
,
00001001
00000000
00001100
00000000
00000000
00001100
00000000
00000000
,
00000010
00001000
00010000
00000000
00000000
00011000
00000000
00000000
,
00011000
00220000
00000000
00000000
,
00330000
0110MMMM
10010000
01010000
,
10000000
00000000
01000000
00100000
01000000
00000000
10000000
00000000
00010000
00000000
00100000
00000000
01000000
00000000
10000000
00000000
,
00100000
00000000
0110MMMM
00000000
00000000
01100000
00000000
00000000
,
10010000
00000000
00110000
00000000
00000000
00110000
00000000
00000000
,
01000000
00010000
00001000
00000000
00000000
00011000
00000000
00000000
,
00011000
00002200
00000000
00000000
,
00003300
MMMM0110
00001001
00001010
,
00000001
00000000
00000010
00000100
00000010
00000000
00000001
00000000
00001000
00000000
00000100
00000000
00000010
00000000
00000001
00000000
,
00000100
00000000
MMMM0110
00000110
00011000
00011000
00110000
00110000
,
10100000
10100000
1000MMMM
01000000
10000000
01000000
00100000
00010000
,
00100000
00000000
00010000
00000000
00001000
00000100
00001000
00000100
00000010
00000001
00000100
00000010
00001000
00000000
MMMMMMMM
00000000
,
00001001
00000000
00000000
00000000
00000000
00000000
00000001
00000000
00000000
00000010
00000000
00000000
00000010
00000000
00000000
00000010
00000000
00000000
00001000
00000000
00000000
00001000
00000000
00000000
00001000
00000000
00000000
00001000
00000000
00000000
MMMMMMMM
00000000
,
00011000
00000000
00000000
00000000
00000000
00000000
00010000
00000000
00000000
01000000
00000000
00000000
01000000
00000000
00000000
01000000
20000000
00000000
00010000
00000000
00000000
00010000
00000000
00000000
30010000
00000000
00000000
01000000
00000000
00000000
MMMMMMMM
00000000
,
10010000
00000000
00000000
00000000
00000000
00000000
00000000
00000000
00000000
00000000
00000000
00000000
00000000
00000000
00000000
00000000
00000000
00000000
00010000
00000000
00000000
00000000
00000000
00000000
00000000
00000000
00000000
00000000
00000000
00000000
00000000
00000000
00000000
00000000
00000000
00000000
00100000
00000000
00000000
00000000
00000000
00000000
00000000
00000000
00000000
00000000
00000000
00000000
00000000
00000000
00000000
00000000
00000000
00000000
01000000
00000000
00000000
00000000
00000000
00000000
00000000
00000000
00000000
00000000
00000000
00000000
00000000
00000000
00000000
00000000
00000000
00000000
00100000
00000000
00000000
00000000
00000000
00000000
00000000
00000000
00000000
00000000
00000000
00000000
00000000
00000000
00000000
00000000
00000000
00000000
00010000
00000000
00000000
00000000
00000000
00000000
10000000
00000000
00000000
00000000
00000000
00000000
00000000
00000000
00000000
00000000
00100000
00000000
00000000
00000000
00000000
00000000
00000000
00000000
00000000
10000000
00000000
00000000
00000000
00000000
00000000
00000000
00000000
00000000
00000000
00100000
00000000
00000000
00000000
00000000
00000000
00000000
00000000
00000000
10000000
00000000
00000000
00000000
00000000
00000000
00000000
00000000
00000000
00000000
01000000
00000000
00000000
00000000
00000000
00000000
00000000
00000000
00000000
00000000
00010000
00000000
00000000
00000000
00000000
00000000
00000000
00000000
00000000
00001000
00000000
00000000
00000000
00000000
00000000
00000000
00000000
00000000
00000000
00000010
00000000
00000000
00000000
00000000
00000000
00000000
00000000
00000000
00000000
00000000
00000000
00000000
00000000
00000000
00000000
00000000
00000000
00000000
,
00001000
00000000
00000000
00001100
00000000
00000000
00011000
00000000
00000000
00001000
00000000
00000000
00010000
00000000
00000000
00010000
00000020
00000000
00001000
00000000
00000000
00001000
00000000
00000000
00001030
00000000
00000000
00000200
00000000
00000000
00000000
00000000
,
00010300
00000000
00001000
00000000
00010000
00000000
00000010
00001000
00000010
00000000
00000100
00000000
00000001
00000000
00001000
00000000
00000100
00000000
00000010
00000000
00000001
00000000
00000010
00000100
00000010
00000000
00000100
00000000
00001000
00000000
00000001
00000000
,
00001001
00000000
00000000
00000000
00000010
00001000
00000010
00001000
00000100
00001000
00000100
00001000
00000100
00001000
00000100
00000000
00010000
00001000
00010000
00001000
00010000
00001000
00010000
00000000
00000010
00001000
00000010
00001000
00000010
00001000
00000010
00000000
,
00000110
00000000
00000000
00000000
MMMMMMMM
00000000
00000000
00000000
01000000
00010000
01000000
00010000
01000000
00010000
01000000
00000000
00001000
00010000
00001000
00010000
00001000
00010000
00001000
00000000
00100000
00010000
00100000
01000000
10000000
01000000
10000000
00000000
,
00010000
00000000
00000000
01010000
00000000
00000000
00011000
00000000
00010000
00000100
00010000
00000100
00010000
00000100
00010000
00000000
00000010
00001000
00000010
00001000
00000010
00001000
00000010
00000000
00000100
00000010
00000100
00000010
00000100
00000010
00000100
00000000
,
00000001
00000000
00001000
00000000
00000100
00000000
00000010
00000001
00000010
00000000
00000100
00000000
00001000
00000000
00000100
00000000
00010000
00000000
00001000
00000000
00100000
00000000
00010000
10000000
00100000
00000000
00010000
00000000
00100000
00000000
01000000
00000000
,
01020000
00000000
00100000
00000000
00031000
00010000
00100000
00000000
,
00010000
01000000
00001000
00000000
00020000
00000000
00030000
00000000
,
00002010
00000000
00000100
00000000
00013000
00001000
00000100
00000000
,
00001000
00000010
00010000
00000000
00000200
00000000
00020300
00000000
,
00032000
00000000
00003000
00020000
00200000
00000000
00330000
00000000
,
20000000
00000000
00000000
00000000
31000000
00000000
00010000
00000000
00001000
00000000
00000000
00001000
00000000
00000000
00011000
00000000
,
00020000
00000000
00030000
00002000
00000020
00000000
00003030
00000000
,
00000001
00000001
00000100
00000010
00001000
MMMMMMMM
00010000
0000MMMM
,
01000000
MMMMMMMM
00001000
MMMM0000
00000100
MMMMMMMM
00010000
0000MMMM
,
00100000
MMMMMMMM
00022000
00000000
00033000
MMMMMMMM
00001000
MMMM0000
,
00000010
MMMMMMMM
00010000
0000MMMM
00100000
MMMMMMMM
00001000
MMMM0000
,
00000100
MMMMMMMM
00022000
00000000
00000000
00000000
00000000
00000000
,
00033000
00000000
00000000
00000000
0100MMMM
00000000
00010000
00000000
10000000
00000000
01000000
00100000
01000000
00000000
00100000
00000000
,
00010000
00000000
01000000
00000000
00100000
00000000
10000000
00000000
00010000
00000000
00100000
00001000
00010000
00000000
00000100
00000000
,
00000010
00000000
00000001
00000000
00001001
00000000
00000000
00001010
00000000
00000000
00011000
00000000
00010000
00000100
00010000
00001000
,
01000000
00010000
10000000
01000000
2000MMMM
00000000
00000000
00000000
0000MMMM
00000000
00000000
00000000
3001MMMM
00000000
MMMM0000
00000000
,
0100MMMM
00000000
MMMM0000
00000000
0220MMMM
00000000
03300000
00000000
0100MMMM
00010000
10000000
00000000
1001MMMM
00000000
00000000
00000000
,
10000000
01000000
10000000
01000000
00100000
00010000
10000000
00000000
,
00110000
01100000
11000000
10000000
,
00100000
01000000
00100000
00010000
00001000
00000100
00000001
00000000
,
00001010
00000000
00000011
00000000
00000010
00000100
00000010
00000000
,
00000001
00001000
00000100
00001000
00000100
00000010
00000001
00000000
,
00000101
00001100
00011000
00100000
,
00010000
00100000
10000000
00100000
00010000
00000000
11000000
00000000
,
01100000
00000000
01010000
00000000
0110MMMM
00000000
00010000
00100000
,
00010000
00011000
00110000
10010000
,
01010000
00000000
00011000
00000000
MMMM0020
00000000
00000130
00000001
,
00001000
00000000
00000000
00000100
00000000
00000000
00001000
00000000
00000000
00000001
00000000
00000000
00000010
00000000
00000000
00000100
00000000
00000000
00010000
00000000
00000000
00000000
00001000
00000000
,
00000000
00000000
00100000
00000000
00000000
00000000
00001000
00000000
00000000
00010000
00000000
00000000
00001000
00000000
00000000
00010000
00000000
00000000
00001000
00000000
00000000
00000000
00000000
00000000
,
00011000
00000010
00010000
00001000
,
00100000
00010000
00100000
00010000
00100000
00000000
00000000
00000000
01000000
00000000
00000000
00000000
10000000
00000000
00000000
00000000
,
10010000
00000000
00000000
00000000
00000000
00000000
00000000
00000000
00000000
00000000
00000000
00000000
0020MMMM
00000000
00000000
00000000
00000000
00000000
00000000
00000000
00000000
00000000
00000000
00000000
01300000
00000000
00000000
00010000
00000000
00000000
10000000
00000000
00000000
01000000
00000000
00000000
0010MMMM
00000000
00000000
00000000
01000000
00000000
00000000
00000000
00100000
00000000
00000000
00000000
,
01000000
10000000
00010000
00100000
00010000
10000000
01000000
10000000
,
00100000
00000000
00000000
01000000
00000000
00000000
00010000
00000000
00000000
01000000
00000000
00000000
00001000
00000000
00000000
00010000
00000000
00000000
00001000
00000000
00100000
00000000
00001000
00000000
,
00100000
00000000
00000000
00010000
00000000
00000000
00100000
00000000
00000000
00001000
00000000
00000000
00010000
00000000
00000000
00001000
00000000
00000000
00010000
00000000
00000100
00000000
00010000
00000000
,
00000100
00000000
00000000
00010000
00000000
00000000
00001000
00000000
00010000
00000000
00001000
00000000
00010000
00000000
00000000
00001000
00000000
00000000
00010000
00000000
00000010
00000000
00010000
00000000
,
00000010
00001000
00000010
00000100
00000001
00001000
00000001
00000010
,
00000100
00000000
00000000
00001000
00000000
00000000
00000001
00000000
00000000
00000010
00000000
00000000
00000001
00000000
00000000
00000100
00000000
00000000
00000010
00000000
00001000
00000000
00000010
00000000
,
00001000
00000000
00000000
00000001
00000000
00000000
00000010
00000000
00000000
00000100
00000000
00000000
00001000
00000000
00000000
00000001
00000000
00000000
00001000
00000000
00000100
00000000
00001000
00000000
,
00000100
00000000
00000000
00000010
00000000
00000000
00000001
00000000
00000100
00000000
00000001
00000000
00000100
00000000
00000000
00000010
00000000
00000000
00010000
00000000
00001000
00000000
00010000
00000000
,
00001000
00100000
00010000
10000000
01000000
00010000
01000000
10000000
,
00010000
00000000
00000000
00000000
00000000
00000000
00100000
00000000
00000000
00000000
00000000
00000000
0100MMMM
00000000
00000000
10000000
00000000
00000000
01000000
00000000
00000000
10000000
00000000
00000000
0001MMMM
00000000
00000000
00000000
00100000
00000000
00000000
00000000
00010000
00000000
00000000
00000000
00100000
00000000
00000000
00000000
00000000
00000000
01000000
00000000
00000000
00000000
00000000
00000000
,
00010000
00001000
00000100
00000010
00000100
00000001
00000100
00000001
,
MMMM2000
00000000
00000000
00000000
00000000
00000000
MMMM3001
00000000
00000010
00000000
00000001
00000000
00000010
00000000
00000000
00001000
00000000
00000000
00000010
00000000
00000000
00000001
00000000
00000000
,
00001000
00000100
00010000
00001000
00000010
00001000
00010000
00000100
,
00010000
00000000
00000000
00001000
00000000
00000000
00100000
00000000
00010000
00000000
00100000
00000000
00010000
00000000
00000000
00100000
00000000
00000000
01000000
00000000
00000000
10000000
00000000
00000000
,
00010000
00000000
00100000
00000000
00001000
00010000
00100000
00000000
00100000
00010000
00001000
00000000
00011000
00000000
00000000
00000000
,
00000000
00011000
00000000
00000000
00110000
00000000
01100000
00000000
,
00000000
01100000
00000000
00000000
00010000
00001000
00000010
00000000
,
00000000
00000110
00000000
00000000
00000110
00000000
00002002
00000000
,
00000000
00000000
00000000
00000000
00003003
00000000
MMMM1000
00000001
,
00000100
00000010
00000100
00000010
00001000
00000000
00010000
00000000
01000000
00000000
00100000
00000000
10000000
00000000
00000000
00000000
,
01000000
00000000
0220MMMM
03300000
0001MMMM
00000000
00010000
00000000
,
00010000
00010000
00010000
00010000
,
00010000
00010000
00010000
00010000
,
00010000
00010000
00010000
00010000
,
00010000
00010000
00010000
00010000
,
00010000
00010000
00010000
00010000
,
00010000
00010000
00010000
00000000
,
00000100
00000000
00001000
00000000
,
00011000
00000000
00001000
00001000
,
00001000
00001000
00001000
00001000
,
00001000
00001000
00001000
00001000
,
00001000
00001000
00001000
00001000
,
00001000
00001000
00001000
00001000
,
00001000
00001000
00001000
00001000
,
00001000
00001000
00001000
00000000
,
00100000
00000000
00010000
00000000
,
01000000
00000000
00001000
00011000
,
00100000
00001000
00010000
00000000
00000100
00010000
00001000
00000000
,
01000000
00001000
00010000
00000000
00011000
00000000
00000100
00000000
,
00010000
00001000
00100000
00000000
00010000
01000000
00001000
00010000
,
00000100
00001000
00000100
00000010
00000001
00000000
00000000
00000000
,
00000000
00010100
00000000
00000000
,
02002000
00000000
00000000
03003000
;
