#TITLE:8 Grapes;
#SUBTITLE:(feat. David Choi);
#ARTIST:Ryan Higa;
#TITLETRANSLIT:;
#SUBTITLETRANSLIT:;
#ARTISTTRANSLIT:;
#GENRE:Variety;
#CREDIT:;
#BANNER:8 Grapes (feat. David Choi).png;
#BACKGROUND:8 Grapes (feat. David Choi)-bg.png;
#LYRICSPATH:;
#CDTITLE:../cdtitle.png;
#MUSIC:8 Grapes (feat. David Choi).ogg;
#OFFSET:1.880000;
#SAMPLESTART:15.263000;
#SAMPLELENGTH:15.000000;
#LASTBEATHINT:1.848000;
#SELECTABLE:YES;
#BPMS:0.000000=125.999992
;
#STOPS:
;
#BGCHANGES:4.000=8 Grapes (feat. David Choi).avi=1.000=0=0=0=StretchNoLoop====,
259.000=8 Grapes (feat. David Choi).avi=1.000=0=0=1====#000000=,
99999=-nosongbg-=1.000=0=0=0 // don't automatically add -songbackground-
;
#KEYSOUNDS:;
#ATTACKS:;

//---------------dance-single - ----------------
#NOTES:
     dance-single:
     :
     Beginner:
     2:
     0.074209,0.153404,0.000000,0.040583,0.000000,64.000000,64.000000,0.000000,5.000000,0.000000,0.000000,0.074209,0.153404,0.000000,0.040583,0.000000,64.000000,64.000000,0.000000,5.000000,0.000000,0.000000:
// measure 0
0000
0000
0000
0000
,  // measure 1
0000
0000
0000
0000
,  // measure 2
0000
0000
0000
0000
,  // measure 3
0000
0000
0000
0000
,  // measure 4
0000
0000
0000
0000
,  // measure 5
0000
0000
0000
0000
,  // measure 6
0000
0000
0000
0000
,  // measure 7
0000
0000
0000
0000
,  // measure 8
0000
0000
0000
0000
,  // measure 9
0100
0000
0000
0000
,  // measure 10
0010
0000
0000
0000
,  // measure 11
0100
0000
0000
0000
,  // measure 12
0100
0000
0000
0000
,  // measure 13
1000
0000
0000
0000
,  // measure 14
0001
0000
0000
0000
,  // measure 15
1000
0000
0000
0000
,  // measure 16
1000
0000
0000
0000
,  // measure 17
0010
0000
0010
0000
,  // measure 18
0010
0010
0010
0000
,  // measure 19
0100
0000
0100
0000
,  // measure 20
0100
0100
0100
0000
,  // measure 21
0100
0000
0000
0000
,  // measure 22
0001
0000
0000
0000
,  // measure 23
1000
0000
0000
0000
,  // measure 24
0001
0000
0000
0000
,  // measure 25
0020
0000
0000
0000
,  // measure 26
0030
0000
0000
0000
,  // measure 27
0200
0000
0000
0000
,  // measure 28
0300
0000
0000
0000
,  // measure 29
1000
0000
1000
0000
,  // measure 30
1000
0000
0000
0000
,  // measure 31
0001
0000
0001
0000
,  // measure 32
0001
0000
0000
0000
,  // measure 33
1000
0000
0000
0000
,  // measure 34
0010
0000
0000
0000
,  // measure 35
1000
0000
0000
0000
,  // measure 36
0100
0000
0000
0000
,  // measure 37
0000
0001
0001
0000
,  // measure 38
0000
0010
0010
0000
,  // measure 39
0000
0001
0001
0000
,  // measure 40
0000
0100
0100
0000
,  // measure 41
0020
0000
0000
0000
,  // measure 42
0030
0000
0000
0000
,  // measure 43
0001
0000
0010
0000
,  // measure 44
0001
0000
0000
0000
,  // measure 45
1000
0000
0100
0000
,  // measure 46
1000
0000
0000
0000
,  // measure 47
0001
0000
0000
0000
,  // measure 48
0001
0000
0000
0000
,  // measure 49
1000
0000
0000
0000
,  // measure 50
0010
0000
0000
0000
,  // measure 51
0200
0000
0000
0000
,  // measure 52
0300
0000
0000
0000
,  // measure 53
0020
0000
0000
0000
,  // measure 54
0030
0000
0000
0000
,  // measure 55
0100
0000
0000
0000
,  // measure 56
0010
0000
0000
0000
,  // measure 57
0100
0000
0000
0000
,  // measure 58
0100
0000
0000
0000
,  // measure 59
0001
0000
0000
0000
,  // measure 60
1000
0000
0000
0000
,  // measure 61
0001
0000
0000
0000
,  // measure 62
0001
0000
0000
0000
,  // measure 63
1000
0000
0000
0000
;

//---------------dance-single - ----------------
#NOTES:
     dance-single:
     :
     Easy:
     4:
     0.176247,0.230106,0.137983,0.040583,0.000000,152.000000,135.000000,17.000000,5.000000,0.000000,0.000000,0.176247,0.230106,0.137983,0.040583,0.000000,152.000000,135.000000,17.000000,5.000000,0.000000,0.000000:
// measure 0
0000
0000
0000
0000
,  // measure 1
0000
0000
0000
0000
,  // measure 2
0000
0000
0000
0000
,  // measure 3
0000
0000
0000
0000
,  // measure 4
0000
0000
0000
0000
,  // measure 5
0000
0000
0000
0000
,  // measure 6
0000
0000
0000
0000
,  // measure 7
0000
0000
0000
0000
,  // measure 8
0000
0000
0000
0000
,  // measure 9
1001
0000
0100
0000
,  // measure 10
1000
1000
1000
0000
,  // measure 11
0110
0000
0100
0000
,  // measure 12
0001
0001
0001
0000
,  // measure 13
1001
0000
0010
0000
,  // measure 14
1000
1000
1000
0000
,  // measure 15
0110
0000
0010
0000
,  // measure 16
0001
0000
0000
0000
,  // measure 17
1001
0000
0100
0100
,  // measure 18
0001
0100
0100
0000
,  // measure 19
1001
0000
0010
0010
,  // measure 20
1000
0010
0010
0000
,  // measure 21
0110
0000
1000
0001
,  // measure 22
1000
0000
0010
0100
,  // measure 23
0010
0000
1000
0001
,  // measure 24
0100
0100
0001
0000
,  // measure 25
2000
0000
0100
0000
,  // measure 26
0000
0000
3100
0000
,  // measure 27
0002
0000
0100
0000
,  // measure 28
0000
0000
0103
0000
,  // measure 29
1000
0100
1000
0100
,  // measure 30
0010
0100
0010
0000
,  // measure 31
0001
0100
0001
0100
,  // measure 32
0010
0100
0010
0000
,  // measure 33
0100
0000
1010
0000
,  // measure 34
0100
0000
0110
0000
,  // measure 35
0010
0000
0101
0000
,  // measure 36
0010
0000
0110
0000
,  // measure 37
0000
1000
1000
0001
,  // measure 38
0000
0001
0001
0010
,  // measure 39
0000
0100
0100
1000
,  // measure 40
0000
0001
0001
1000
,  // measure 41
0020
0000
0100
0000
,  // measure 42
0100
0000
0100
0030
,  // measure 43
0110
0000
0100
0000
,  // measure 44
0010
0010
0010
0000
,  // measure 45
1000
0000
0100
0000
,  // measure 46
1000
1000
1000
0000
,  // measure 47
0011
1000
0001
0000
,  // measure 48
0000
0100
0001
0000
,  // measure 49
0000
0010
0001
0100
,  // measure 50
0001
1000
0100
0000
,  // measure 51
2000
0000
0100
0000
,  // measure 52
0000
0000
3100
0000
,  // measure 53
0002
0000
0100
0000
,  // measure 54
0013
0000
0000
0000
,  // measure 55
1001
0000
0100
0000
,  // measure 56
0001
0001
0001
0000
,  // measure 57
0110
0000
0100
0000
,  // measure 58
1000
1000
1000
0000
,  // measure 59
1001
0000
0010
0000
,  // measure 60
0001
0001
0001
0000
,  // measure 61
0110
0000
0010
0000
,  // measure 62
1000
1000
0001
1000
,  // measure 63
0100
0000
0000
0000
;

//---------------dance-single - ----------------
#NOTES:
     dance-single:
     :
     Medium:
     7:
     0.292198,0.357943,0.267848,0.064933,0.000000,252.000000,219.000000,33.000000,8.000000,0.000000,0.000000,0.292198,0.357943,0.267848,0.064933,0.000000,252.000000,219.000000,33.000000,8.000000,0.000000,0.000000:
// measure 0
0000
0000
0000
0000
,  // measure 1
0000
0000
0000
0000
,  // measure 2
0000
0000
0000
0000
,  // measure 3
0000
0000
0000
0000
,  // measure 4
0000
0000
0000
0000
,  // measure 5
0000
0000
0000
0000
,  // measure 6
0000
0000
0000
0000
,  // measure 7
0000
0000
0000
0000
,  // measure 8
0000
0000
0000
0000
,  // measure 9
0110
0000
0000
0001
0100
0000
1001
0000
,  // measure 10
0001
0010
0001
0000
1000
0000
0001
0000
,  // measure 11
0110
0000
0000
1000
0100
0000
1001
0000
,  // measure 12
0010
0100
0010
0000
0001
0000
0001
0000
,  // measure 13
1100
0000
0000
1000
0010
0000
0110
0000
,  // measure 14
0001
0100
0001
0000
1000
0000
0001
0000
,  // measure 15
0110
0000
0000
1000
0001
0000
1000
0000
,  // measure 16
1010
0000
0000
0100
,  // measure 17
1001
0000
0010
0000
0100
0010
0100
0000
,  // measure 18
0100
0001
0100
0000
0100
1000
0100
0000
,  // measure 19
0110
0000
0100
0000
0010
0100
0010
0000
,  // measure 20
0010
0001
0010
0000
0010
1000
0010
0000
,  // measure 21
0110
0000
0001
0000
0001
1000
0100
0000
,  // measure 22
0000
0000
1000
0000
1000
0010
0100
0000
,  // measure 23
0000
0000
0010
0000
1000
0010
1000
0000
,  // measure 24
0001
0010
0001
0000
0110
0000
0010
0001
,  // measure 25
2000
0000
0100
0000
,  // measure 26
3000
0000
0000
0000
0100
0000
0001
0100
,  // measure 27
2000
0000
0010
0000
,  // measure 28
3000
0000
0010
0011
,  // measure 29
0001
0100
0001
0000
1000
0100
1000
0000
,  // measure 30
0001
0100
0010
0000
2000
0000
3100
0000
,  // measure 31
1000
0100
1000
0000
0001
0100
0001
0000
,  // measure 32
1000
0100
0010
0000
0002
0000
0103
0000
,  // measure 33
0001
0000
1100
0000
,  // measure 34
0010
0100
1100
0000
,  // measure 35
0100
0000
0011
0000
,  // measure 36
1000
0000
0101
0000
,  // measure 37
0000
0000
0001
1000
0100
0000
0011
0000
,  // measure 38
0000
0000
1000
0001
0100
0000
1010
0000
,  // measure 39
0000
0000
0100
0001
1000
0000
0011
0000
,  // measure 40
0000
0000
1000
0100
1000
0000
0001
0000
,  // measure 41
0120
0000
0100
0000
,  // measure 42
0100
0000
0100
0030
,  // measure 43
1001
0000
0001
0000
1000
0100
0010
0000
,  // measure 44
0001
0100
0001
0100
0010
0000
0000
0000
,  // measure 45
0110
0000
0100
0000
0001
0010
0100
0000
,  // measure 46
1000
0100
1000
0100
0010
0000
0010
0000
,  // measure 47
0110
0000
0001
0000
0001
0100
0001
0000
,  // measure 48
0000
0000
1000
0000
1000
0100
1000
0000
,  // measure 49
0000
0000
0010
0000
0010
0100
0010
0000
,  // measure 50
0100
0100
0100
0000
0010
0000
0100
0001
,  // measure 51
2000
0000
0100
0000
,  // measure 52
3000
0000
0000
0000
0100
0000
0001
0100
,  // measure 53
2000
0000
0010
3000
,  // measure 54
0011
0000
0000
0000
,  // measure 55
0110
0000
0000
0001
0100
0000
1001
0000
,  // measure 56
0001
0010
0001
0000
1000
0000
0001
0000
,  // measure 57
0110
0000
0000
1000
0100
0000
1001
0000
,  // measure 58
0010
0100
0010
0000
0001
0000
0001
0000
,  // measure 59
1100
0000
0000
1000
0010
0000
0110
0000
,  // measure 60
0001
0100
0001
0000
1000
0000
0001
0000
,  // measure 61
0110
0000
0000
1000
0100
0000
1001
0000
,  // measure 62
0010
0000
0010
0000
0100
0001
2000
0000
,  // measure 63
3001
0000
0000
0000
;

//---------------dance-single - ----------------
#NOTES:
     dance-single:
     :
     Hard:
     13:
     0.469604,0.639184,0.292198,0.113633,0.503230,405.000000,369.000000,36.000000,14.000000,0.000000,0.000000,0.469604,0.639184,0.292198,0.113633,0.503230,405.000000,369.000000,36.000000,14.000000,0.000000,0.000000:
// measure 0
0000
0000
0000
0000
,  // measure 1
0000
0000
0000
0000
,  // measure 2
0000
0000
0000
0000
,  // measure 3
0000
0000
0000
0000
,  // measure 4
0000
0000
0000
0000
,  // measure 5
0000
0000
0000
0000
,  // measure 6
0000
0000
0000
0000
,  // measure 7
0000
0000
0000
0000
,  // measure 8
0000
0000
0000
0000
,  // measure 9
0110
0000
0001
0100
0010
0100
0001
0000
,  // measure 10
1000
0000
0000
0000
0100
0000
0000
0000
0010
0000
0000
0000
0001
0000
0000
0000
0010
0000
0000
0000
0100
0000
0000
0000
1000
0000
0000
0000
0000
0000
0000
0000
0000
1000
0000
0000
0001
0000
0000
0100
0000
0000
0001
0000
0000
0000
0000
0000
,  // measure 11
0101
0000
0100
0010
0100
0001
1100
0000
,  // measure 12
0100
0000
0000
0010
0000
0000
0100
0000
0000
1000
0000
0000
0101
0000
0000
0000
0000
0000
0100
0000
0010
0000
0100
0000
,  // measure 13
0110
0000
1000
0010
0100
0010
1000
0000
,  // measure 14
0001
0010
0100
1000
0100
0010
0001
0000
0000
0001
1000
0010
,  // measure 15
1010
0000
0010
0100
0010
1000
0011
0100
,  // measure 16
0110
0000
0000
0000
0000
0000
0000
0000
0000
0010
0100
0010
,  // measure 17
0110
0000
0000
0001
0010
0001
1000
0100
1000
0001
0100
0010
,  // measure 18
1000
0010
1000
0001
0010
0001
0010
0100
1000
0001
0000
0000
,  // measure 19
1001
0000
1000
0100
0010
0001
0100
0001
0100
1000
0100
0001
,  // measure 20
0010
0000
0000
0000
0001
0000
0000
0000
1000
0000
0000
0000
0010
0000
0000
0000
0100
0000
0000
0000
0001
0000
0000
0000
0100
0000
0000
0010
0000
0000
1000
0000
0000
0000
0000
0000
0010
0000
0000
0000
0000
0000
0010
0000
0000
0000
0000
0000
,  // measure 21
1100
0000
0000
0001
0100
0010
1000
0100
0010
0001
0000
0000
,  // measure 22
1010
0000
0000
1000
0010
0100
0001
0010
0100
1000
0000
0000
,  // measure 23
0011
0000
0000
0001
0010
0100
0010
0001
1000
0001
0100
0010
,  // measure 24
1000
0100
0010
0100
1000
0001
2000
0000
0000
3010
0100
0001
,  // measure 25
2000
0000
0010
0000
,  // measure 26
0000
0000
0000
0000
3100
1000
0010
0100
,  // measure 27
0002
0000
0100
0000
,  // measure 28
0000
0000
0000
0000
0000
0000
0013
0000
0000
0100
0010
0001
,  // measure 29
1000
0001
1000
0100
0010
0100
0010
0001
,  // measure 30
0100
1000
0100
0001
0020
0000
0230
0000
,  // measure 31
1300
0001
1000
0010
0100
0010
0100
0001
,  // measure 32
0010
1000
0010
0001
0200
0000
0320
0000
,  // measure 33
1030
0000
0000
0011
0000
0000
0000
0000
0001
0000
0000
1100
0000
0000
0000
0000
,  // measure 34
0010
0000
0000
1001
0000
0000
0100
1000
0100
0000
0000
0110
0000
0000
0000
0000
,  // measure 35
0001
0000
0000
1100
0000
0000
0000
0000
1000
0000
0000
0011
0000
0000
0000
0000
,  // measure 36
0100
0000
0000
1001
0000
0000
0000
0000
0010
0000
0000
0101
0000
0000
0000
0000
,  // measure 37
1100
0000
0000
0000
0000
0000
0000
0000
0000
0001
0000
0000
1000
0000
0000
0000
0100
0000
0000
0000
1000
0000
0000
0000
0020
0000
0000
0000
0000
0000
0000
0000
0000
0000
0000
0000
0130
0000
0000
0000
0000
0000
0000
0000
0000
0000
0000
0000
,  // measure 38
0011
0000
0000
1000
0001
0010
0002
0000
0103
0010
0000
0000
,  // measure 39
0110
0000
0000
0001
1000
0100
0020
0000
0031
0010
0000
0000
,  // measure 40
1001
0000
0000
0010
0100
0001
2000
0000
3010
1000
0000
0000
,  // measure 41
1200
0000
0001
0000
,  // measure 42
1000
0000
0000
0000
0000
0000
0001
0000
0000
0310
0100
0010
,  // measure 43
0110
0000
1000
1000
0100
0010
0001
0000
,  // measure 44
1000
1000
0010
1000
0100
0000
1000
0001
,  // measure 45
1001
0000
0001
0001
0010
0001
0100
0001
,  // measure 46
1000
0000
0000
1000
0000
0000
0100
0000
0000
0100
0000
0000
0001
0000
0000
0000
0000
0000
0100
0000
1000
0000
0001
0000
,  // measure 47
1001
0000
0000
0010
1000
0010
0100
0001
1000
0100
0000
0000
,  // measure 48
0000
0000
0000
0010
0001
0010
0100
1000
0001
0100
0000
0000
,  // measure 49
0000
0000
0000
0010
1000
0100
0001
0100
1000
0001
0010
1000
,  // measure 50
0001
0000
0000
0000
0100
0000
0000
0000
1000
0000
0000
0000
0100
0000
0000
0000
0010
0000
0000
0000
0001
0000
0000
0000
1000
0000
0000
0100
0000
0000
1000
0000
0000
0000
0000
0000
0010
0000
0000
0000
0000
0000
0100
0000
0000
0001
0000
0000
,  // measure 51
2000
0000
0100
0000
,  // measure 52
3000
0000
0000
0000
0010
0100
0001
1000
,  // measure 53
0002
0000
0010
0003
,  // measure 54
1100
0000
0000
0000
0000
0000
0000
0000
0000
0010
0100
0010
,  // measure 55
0110
0000
0001
0100
0010
0100
0001
0000
,  // measure 56
1000
0000
0000
0000
0100
0000
0000
0000
0010
0000
0000
0000
0001
0000
0000
0000
0010
0000
0000
0000
0100
0000
0000
0000
1000
0000
0000
0000
0000
0000
0000
0000
0000
1000
0000
0000
0001
0000
0000
0100
0000
0000
0001
0000
0000
0000
0000
0000
,  // measure 57
0101
0000
0100
0010
0100
0001
1100
0000
,  // measure 58
0100
0000
0000
0010
0000
0000
0100
0000
0000
1000
0000
0000
0101
0000
0000
0000
0000
0000
0100
0000
0010
0000
0100
0000
,  // measure 59
0110
0000
1000
0010
0100
0010
1000
0000
,  // measure 60
0001
0010
0100
1000
0100
0010
0001
0000
0000
0001
1000
0010
,  // measure 61
1010
0000
0010
0100
0010
1000
0001
0010
,  // measure 62
0100
0000
0100
0000
0010
0000
0010
0000
1000
0000
0010
0000
0001
0000
1000
0001
,  // measure 63
0100
0000
0000
0000
;

//---------------dance-double - ----------------
#NOTES:
     dance-double:
     :
     Easy:
     4:
     0.166970,0.230106,0.129866,0.048700,0.000000,144.000000,128.000000,16.000000,6.000000,0.000000,0.000000,0.166970,0.230106,0.129866,0.048700,0.000000,144.000000,128.000000,16.000000,6.000000,0.000000,0.000000:
00000000
00000000
00000000
00000000
,
00000000
00000000
00000000
00000000
,
00000000
00000000
00000000
00000000
,
00000000
00000000
00000000
00000000
,
00000000
00000000
00000000
00000000
,
00000000
00000000
00000000
00000000
,
00000000
00000000
00000000
00000000
,
00000000
00000000
00000000
00000000
,
00000000
00000000
00000000
00000000
,
00011000
00000000
00010000
00000000
,
00001000
00001000
00001000
00000000
,
01000000
00000000
00100000
00000000
,
00010000
00010000
00010000
00000000
,
00011000
00000000
00001000
00000000
,
00010000
00010000
00010000
00000000
,
00001000
00000000
00000010
00000000
,
00000001
00000000
00000000
00000000
,
00001001
00000000
00000010
00000010
,
00000001
00000010
00001000
00000000
,
00011000
00000000
00001000
00001000
,
00100000
01000000
00100000
00000000
,
01100000
00000000
10000000
00000000
,
01010000
00000000
00100000
00000000
,
00011000
00000000
01000000
00000000
,
00001000
00001000
00010000
00000000
,
00000200
00000000
00000010
00000000
,
00000000
00000000
00000310
00000000
,
00002000
00000000
00010000
00000000
,
00000000
00000000
00013000
00000000
,
00000100
00010000
00000100
00010000
,
00001000
00010000
00001000
00000000
,
01000000
00010000
01000000
00010000
,
00100000
00001000
00100000
00000000
,
00001000
00000000
00011000
00000000
,
00000010
00000000
00001001
00000000
,
00000100
00000000
00001100
00000000
,
00010000
00000000
01010000
00000000
,
00000000
00100000
00100000
10000000
,
00000000
01000000
01000000
00100000
,
00000000
00001000
00001000
00010000
,
00000000
00000100
00000100
00010000
,
00021000
00000000
00000000
00000000
,
00000000
00000000
00000000
00030000
,
00011000
00000000
00000010
00000000
,
00001000
00001000
00001000
00000000
,
00000001
00000000
00000010
00000000
,
00000100
00000100
00000100
00000000
,
00000110
00000100
00001000
00000000
,
00000000
00001000
00010000
00000000
,
00000000
00010000
00100000
00010000
,
10000000
01000000
10000000
00000000
,
00200000
00000000
01000000
00000000
,
00000000
00000000
01300000
00000000
,
00002000
00000000
00023000
00000000
,
00031000
00000000
00000000
00000000
,
00011000
00000000
00001000
00000000
,
00010000
00010000
00010000
00000000
,
00000100
00000000
00000010
00000000
,
00001000
00001000
00001000
00000000
,
00011000
00000000
00010000
00000000
,
00001000
00001000
00001000
00000000
,
00010000
00000000
00100000
00000000
,
10000000
01000000
10000000
00000000
,
00010000
00000000
00000000
00000000
;

//---------------dance-double - ----------------
#NOTES:
     dance-double:
     :
     Medium:
     7:
     0.291039,0.357943,0.259732,0.064933,0.000000,251.000000,219.000000,32.000000,8.000000,0.000000,0.000000,0.291039,0.357943,0.259732,0.064933,0.000000,251.000000,219.000000,32.000000,8.000000,0.000000,0.000000:
00000000
00000000
00000000
00000000
,
00000000
00000000
00000000
00000000
,
00000000
00000000
00000000
00000000
,
00000000
00000000
00000000
00000000
,
00000000
00000000
00000000
00000000
,
00000000
00000000
00000000
00000000
,
00000000
00000000
00000000
00000000
,
00000000
00000000
00000000
00000000
,
00000000
00000000
00000000
00000000
,
00000110
00000000
00000000
00001000
00000001
00000000
00000011
00000000
,
00000100
00001000
00000100
00000000
00010000
00000000
00001000
00000000
,
01010000
00000000
00000000
10000000
01000000
00000000
01100000
00000000
,
10000000
01000000
10000000
00000000
00010000
00000000
01000000
00000000
,
01100000
00000000
00000000
00010000
10000000
00000000
11000000
00000000
,
00100000
00010000
00100000
00000000
00001000
00000000
00010000
00000000
,
00001010
00000000
00000000
00000001
00000010
00000000
00000100
00000000
,
00001001
00000000
00000000
00000100
,
00011000
00000000
00001000
00000000
00001000
00000010
00001000
00000000
,
00000010
00000001
00000010
00000000
00000001
00000100
00000001
00000000
,
00000110
00000000
00001000
00000000
00001000
00010000
00001000
00000000
,
00010000
01000000
00010000
00000000
01000000
10000000
01000000
00000000
,
10010000
00000000
00100000
00000000
10000000
01000000
00010000
00000000
,
00000000
00000000
00001000
00000000
00010000
00001000
00000100
00000000
,
00000000
00000000
00000001
00000000
00000010
00000100
00000010
00000000
,
00001000
00010000
00001000
00000000
00110000
00000000
10000000
00010000
,
02000000
00000000
00100000
00000000
,
03000000
00000000
00000000
00000000
00001000
00000000
00010000
00000100
,
00000020
00000000
00000100
00000000
,
00000030
00000000
00000001
00001001
,
00000001
00000100
00000010
00000000
00001000
00000100
00010000
00000000
,
00001000
01000000
00010000
00000000
00200000
00000000
01300000
00000000
,
10000000
01000000
00100000
00000000
00010000
01000000
00001000
00000000
,
00010000
00000100
00001000
00000000
00000020
00000000
00000130
00000000
,
00000001
00000000
00001100
00000000
,
00010000
00001000
00011000
00000000
,
00100000
00000000
10010000
00000000
,
01000000
00000000
00110000
00000000
,
00000000
00000000
00001000
00010000
00100000
00000000
01100000
00000000
,
00000000
00000000
10000000
01000000
00010000
00000000
00011000
00000000
,
00000000
00000000
00010000
00001000
00000100
00000000
00000110
00000000
,
00000000
00000000
00000001
00000010
00001000
00000000
00010000
00000000
,
00021000
00000000
00000100
00000000
,
00001000
00000000
00000100
00030000
,
00011000
00000000
00001000
00000000
00100000
00010000
01000000
00000000
,
00100000
10000000
00100000
10000000
00100000
00000000
00000000
00000000
,
01100000
00000000
00100000
00000000
01000000
00010000
00100000
00000000
,
00001000
00010000
00001000
00010000
00001000
00000000
00010000
00000000
,
00011000
00000000
00001000
00010000
00000010
00000000
00001000
00000000
,
00000000
00000000
00000001
00001000
00000100
00000000
00010000
00000000
,
00000000
00000000
00001000
00100000
00010000
00000000
10000000
00000000
,
00010000
01000000
00100000
10000000
01000000
00000000
10000000
00000000
,
00020000
00000000
00100000
00000000
,
00030000
00000000
00000000
00000000
00001000
00000000
00010000
00000010
,
00000200
00000000
00000010
00000300
,
00001001
00000000
00000000
00000000
,
00000110
00000000
00000000
00001000
00000001
00000000
00000011
00000000
,
00000100
00001000
00000100
00000000
00010000
00000000
00001000
00000000
,
01010000
00000000
00000000
10000000
01000000
00000000
01100000
00000000
,
10000000
01000000
10000000
00000000
00010000
00000000
01000000
00000000
,
01100000
00000000
00000000
00010000
10000000
00000000
11000000
00000000
,
00100000
00010000
00100000
00000000
00001000
00000000
00010000
00000000
,
00001010
00000000
00000000
00000001
00000010
00000000
00000100
00000000
,
00000010
00000000
00000010
00000000
00000001
00000100
00002000
00000000
,
00013000
00000000
00000000
00000000
;

//---------------dance-double - ----------------
#NOTES:
     dance-double:
     :
     Hard:
     13:
     0.459169,0.639184,0.243499,0.113633,0.491055,396.000000,366.000000,30.000000,14.000000,0.000000,0.000000,0.459169,0.639184,0.243499,0.113633,0.491055,396.000000,366.000000,30.000000,14.000000,0.000000,0.000000:
00000000
00000000
00000000
00000000
,
00000000
00000000
00000000
00000000
,
00000000
00000000
00000000
00000000
,
00000000
00000000
00000000
00000000
,
00000000
00000000
00000000
00000000
,
00000000
00000000
00000000
00000000
,
00000000
00000000
00000000
00000000
,
00000000
00000000
00000000
00000000
,
00000000
00000000
00000000
00000000
,
00110000
00000000
00001000
00010000
01000000
00010000
00001000
00000000
,
00001000
00000000
00000000
00000000
00010000
00000000
00000000
00000000
00100000
00000000
00000000
00000000
01000000
00000000
00000000
00000000
00100000
00000000
00000000
00000000
00010000
00000000
00000000
00000000
00001000
00000000
00000000
00000000
00000000
00000000
00000000
00000000
00000000
00010000
00000000
00000000
00000100
00000000
00000000
00000000
00000000
00000000
00001000
00000000
00000000
00000000
00000000
00000000
,
00001100
00000000
00001000
00000010
00000001
00000010
00001000
00000000
,
00000001
00000000
00000000
00000100
00000000
00000000
00001000
00000000
00000000
00000100
00000000
00000000
00000001
00000000
00000000
00000000
00000000
00000000
00000010
00000000
00000100
00000000
00001000
00000000
,
00001100
00000000
00010000
00001000
00000100
00001000
00010000
00000000
,
00001000
00100000
00010000
01000000
00100000
10000000
01000000
00000000
00000000
10000000
00010000
01000000
,
01100000
00000000
00100000
10000000
01000000
00010000
01000000
10000000
,
10010000
00000000
00000000
00000000
00000000
00000000
00000000
00000000
00000000
00100000
00001000
00010000
,
00011000
00000000
00000000
00000100
00010000
00001000
00100000
00001000
00010000
00000100
00001000
00000001
,
00000100
00000001
00001000
00000010
00000100
00000010
00001000
00000100
00010000
00001000
00000000
00000000
,
00011000
00000000
00010000
01000000
10000000
01000000
00100000
00010000
00100000
00001000
00010000
00000010
,
00001000
00000000
00000000
00000000
00000001
00000000
00000000
00000000
00001000
00000000
00000000
00000000
00000010
00000000
00000000
00000000
00001000
00000000
00000000
00000000
00000100
00000000
00000000
00000000
00000010
00000000
00000000
00000100
00000000
00000000
00000010
00000000
00000000
00000000
00000000
00000000
00000001
00000000
00000000
00000000
00000000
00000000
00000001
00000000
00000000
00000000
00000000
00000000
,
00001001
00000000
00000000
00000001
00000100
00000010
00001000
00000100
00010000
00001000
00000000
00000000
,
01010000
00000000
00000000
10000000
01000000
00100000
00010000
01000000
00001000
00010000
00000000
00000000
,
00001100
00000000
00000000
00000001
00001000
00000100
00001000
00000010
00000100
00000001
00000100
00000010
,
00001000
00000100
00010000
00001000
00100000
00001000
00020000
00000000
00000000
01030000
10000000
00010000
,
02000000
00000000
00100000
00000000
,
00000000
00000000
00000000
00000000
03010000
00100000
00001000
00010000
,
00000020
00000000
00000100
00000000
,
00000000
00000000
00000000
00000000
00000000
00000000
00001030
00000000
00000000
00000100
00000010
00000001
,
00001000
00000010
00001000
00000100
00000010
00001000
00010000
00001000
,
00010000
00100000
10000000
01000000
00200000
00000000
00320000
00000000
,
10030000
00100000
10000000
01000000
00100000
00001000
00010000
00001000
,
00010000
00000010
00001000
00000100
00000020
00000000
00000032
00000000
,
00001003
00000000
00000000
00010100
00000000
00000000
00000000
00000000
00001000
00000000
00000000
00001010
00000000
00000000
00000000
00000000
,
00010000
00000000
00000000
00101000
00000000
00000000
00010000
01000000
00100000
00000000
00000000
10000000
00000000
00000000
00000000
00000000
,
00010000
00000000
00000000
00101000
00000000
00000000
00000000
00000000
00010000
00000000
00000000
01010000
00000000
00000000
00000000
00000000
,
00001000
00000000
00000000
00010100
00000000
00000000
00000000
00000000
00001000
00000000
00000000
00000110
00000000
00000000
00000000
00000000
,
00001001
00000000
00000000
00000000
00000000
00000000
00000000
00000000
00000000
00000001
00000000
00000000
00000010
00000000
00000000
00000000
00000001
00000000
00000000
00000000
00000100
00000000
00000000
00000000
00002000
00000000
00000000
00000000
00000000
00000000
00000000
00000000
00000000
00000000
00000000
00000000
00013000
00000000
00000000
00000000
00000000
00000000
00000000
00000000
00000000
00000000
00000000
00000000
,
01100000
00000000
00000000
10000000
01000000
10000000
00200000
00000000
00310000
00001000
00000000
00000000
,
00000110
00000000
00000000
00001000
00000001
00000010
00000200
00000000
00010300
00001000
00000000
00000000
,
00011000
00000000
00000000
00100000
00010000
01000000
00200000
00000000
10300000
00010000
00000000
00000000
,
00102000
00000000
00010000
00000000
,
00100000
00000000
00000000
00000000
00000000
00000000
00010000
00000000
00000000
01003000
00001000
00010000
,
00011000
00000000
00100000
00100000
00010000
10000000
00100000
00000000
,
01000000
01000000
00001000
00010000
00001000
00000000
00010000
00000100
,
00001100
00000000
00000010
00000010
00000001
00001000
00000010
00000100
,
00001000
00000000
00000000
00001000
00000000
00000000
00010000
00000000
00000000
00010000
00000000
00000000
00001000
00000000
00000000
00000000
00000000
00000000
00010000
00000000
00001000
00000000
00100000
00000000
,
00110000
00000000
00000000
01000000
10000000
00010000
01000000
00100000
10000000
00010000
00000000
00000000
,
00000000
00000000
00000000
00100000
00001000
00010000
00000010
00000100
00000001
00001000
00000000
00000000
,
00000000
00000000
00000000
00000001
00000010
00000100
00000010
00000100
00010000
00001000
00010000
00100000
,
10000000
00000000
00000000
00000000
00010000
00000000
00000000
00000000
00100000
00000000
00000000
00000000
01000000
00000000
00000000
00000000
10000000
00000000
00000000
00000000
01000000
00000000
00000000
00000000
00100000
00000000
00000000
00010000
00000000
00000000
00100000
00000000
00000000
00000000
00000000
00000000
00001000
00000000
00000000
00000000
00000000
00000000
00010000
00000000
00000000
00000000
00000000
00000000
,
00002000
00000000
01000000
00000000
,
00003000
00000000
00000000
00000000
00010000
01000000
10000000
00100000
,
00020000
00000000
00000100
00030000
,
00001010
00000000
00000000
00000000
00000000
00000000
00000000
00000000
00000000
00010000
00001000
00100000
,
00110000
00000000
00001000
00010000
01000000
00010000
00001000
00000000
,
00001000
00000000
00000000
00000000
00010000
00000000
00000000
00000000
00100000
00000000
00000000
00000000
01000000
00000000
00000000
00000000
00100000
00000000
00000000
00000000
00010000
00000000
00000000
00000000
00001000
00000000
00000000
00000000
00000000
00000000
00000000
00000000
00000000
00010000
00000000
00000000
00000100
00000000
00000000
00000000
00000000
00000000
00001000
00000000
00000000
00000000
00000000
00000000
,
00001100
00000000
00001000
00000010
00000001
00000010
00001000
00000000
,
00000001
00000000
00000000
00000100
00000000
00000000
00001000
00000000
00000000
00000100
00000000
00000000
00000001
00000000
00000000
00000000
00000000
00000000
00000010
00000000
00000100
00000000
00001000
00000000
,
00001100
00000000
00010000
00001000
00000100
00001000
00010000
00000000
,
00001000
00100000
00010000
01000000
00100000
10000000
01000000
00000000
00000000
10000000
00010000
01000000
,
01100000
00000000
00100000
10000000
01000000
00010000
01000000
10000000
,
00010000
00000000
00010000
00000000
10000000
00000000
10000000
00000000
00100000
00000000
01000000
00000000
00001000
00000000
00010000
00001000
,
00010000
00000000
00000000
00000000
;
