#TITLE:8 -eight-;
#SUBTITLE:;
#ARTIST:Tom-H@ck feat.Nadia;
#TITLETRANSLIT:;
#SUBTITLETRANSLIT:;
#ARTISTTRANSLIT:;
#GENRE:BEMANI;
#CREDIT:;
#BANNER:8 -eight-.png;
#BACKGROUND:8 -eight--bg.png;
#LYRICSPATH:;
#CDTITLE:../cdtitle.png;
#MUSIC:8 -eight-.ogg;
#OFFSET:0.165000;
#SAMPLESTART:44.191002;
#SAMPLELENGTH:15.000000;
#SELECTABLE:YES;
#BPMS:0.000000=230.000000
;
#STOPS:
;
#BGCHANGES:-99.000=../bg.avi=1.000=0=0=1=====,
99999=-nosongbg-=1.000=0=0=0 // don't automatically add -songbackground-
;
#KEYSOUNDS:;
#ATTACKS:;

//---------------dance-double - ----------------
#NOTES:
     dance-double:
     :
     Easy:
     8:
     0.346813,0.410204,0.009446,0.160586,0.028339,257.000000,256.000000,1.000000,17.000000,0.000000,0.000000,0.346813,0.410204,0.009446,0.160586,0.028339,257.000000,256.000000,1.000000,17.000000,0.000000,0.000000:
00000000
00000000
00000000
00000000
,
00000000
00000000
00000000
00000000
,
00000000
00000000
00000000
00000000
,
00000000
00000000
00000000
00000000
,
00000000
00000000
00000000
00000000
,
00000000
00000000
00000000
00000000
,
00000000
00000000
00000000
00000000
,
00000000
00000000
00000000
00000000
,
00000000
00000000
00000000
00000000
,
01000000
00100000
01000000
00100000
,
00010000
00001000
00020000
00030000
,
00000100
00000010
00000100
00000010
,
00001000
00010000
00002000
00003000
,
01000000
00010000
10000000
00100000
,
00010000
00001000
00020000
00030000
,
00001000
00001000
00000010
00000010
,
00000001
00000001
00001000
00000010
,
00000100
00001000
00010000
00000000
,
01000000
00010000
00001000
00000000
,
00000100
00000010
00001000
00000000
,
00000001
00000010
00001000
00000010
,
00000001
00000000
00000001
00000000
,
00000100
00001000
00010000
00001000
,
00010000
00000000
01000000
00000000
,
10000000
00000000
00100000
10000000
,
01000000
00010000
00001000
00000000
,
00000100
00001000
00010000
00000000
,
01000000
00100000
00010000
00000000
,
10000000
00100000
00010000
00100000
,
10000000
00000000
10000000
00000000
,
01000000
00010000
00001000
00010000
,
00001000
00000000
00000100
00000000
,
00000001
00000000
00000010
00000001
,
00000100
00000000
00000100
00000000
,
00000010
00000000
00000010
00000000
,
00010000
00000000
00010000
00000000
,
00001000
00000000
00001000
00000000
,
00100000
00000000
00100000
00000000
,
01000000
00000000
01000000
00000000
,
10000000
10000000
10000000
00000000
,
00010000
00010000
00010000
00000000
,
00002000
00000000
00000000
00000000
,
00003000
00000000
00000000
00000000
,
00001000
00000001
00000010
00001000
,
00000010
00000001
00000100
00000000
,
00001000
00000100
00000001
00000100
,
00001000
00000000
00000000
00000000
00000000
00020000
00000000
00000000
00000000
00030000
00000000
00000000
,
00100000
00100000
01000000
01000000
,
00010000
10000000
01000000
00000000
,
00010000
01000000
10000000
00100000
,
00010000
00001000
00001000
00000000
,
00000100
00000100
00000001
00000010
,
00001000
00010000
00000100
00000000
,
00000010
00000100
00001000
00000001
,
00000100
00000000
00000000
00000000
00000000
00000020
00000000
00000000
00000000
00000030
00000000
00000000
,
00000100
00000000
00000100
00000000
,
01000000
00000000
01000000
00000000
,
00001000
00000000
00001000
00000000
,
00010000
00000000
00010000
00000000
,
00010000
10000000
00100000
00010000
,
00100000
10000000
01000000
00000000
,
00010000
01000000
10000000
01000000
,
00010000
00000000
00000000
00000000
00000000
00002000
00000000
00000000
00000000
00003000
00000000
00000000
,
00000010
00000010
00000100
00000100
,
00001000
00000001
00000100
00000000
,
00001000
00000100
00000001
00000010
,
00001000
00010000
00010000
00000000
,
01000000
01000000
10000000
00100000
,
00010000
00001000
01000000
00000000
,
00100000
01000000
00010000
10000000
,
01000000
00000000
00000000
00000000
00000000
00200000
00000000
00000000
00000000
00300000
00000000
00000000
,
01000000
00000000
01000000
00000000
,
00000100
00000000
00000100
00000000
,
00010000
00000000
00010000
00000000
,
00001000
00000000
00000000
00000000
00000000
00000000
00001000
00000000
00000000
00000000
00000000
00200000
,
00000000
00000000
00000000
00000000
,
00300000
00000000
00000000
00000000
,
00000000
00000000
00000000
00000000
,
00000000
00000000
00001000
00010000
,
00001000
00000100
00001000
00000100
,
00000001
00000010
00002000
00003000
,
00010000
01000000
00010000
01000000
,
10000000
00100000
00020000
00030000
,
00000010
00001000
00000010
00001000
,
00000001
00000010
00000200
00000300
,
00010000
00001000
00100000
00010000
,
10000000
01000000
00010000
01000000
,
10000000
10000000
00010000
00010000
,
00001000
00001000
00010000
00010000
,
10000000
10000000
00010000
00010000
,
00001000
00001000
00000002
00000000
,
00000013
00000100
00000010
00000100
,
00000010
00000001
00000200
00000300
,
00001000
00010000
00001000
00010000
,
00100000
10000000
01000000
00100000
,
00020000
00000000
00000000
00000000
00000000
00000000
00000000
00000000
00000000
00030000
00000000
02200000
,
00000000
00000000
03300000
00000000
;

//---------------dance-double - ----------------
#NOTES:
     dance-double:
     :
     Medium:
     11:
     0.425082,0.592517,0.151140,0.340065,0.302280,315.000000,299.000000,16.000000,36.000000,0.000000,0.000000,0.425082,0.592517,0.151140,0.340065,0.302280,315.000000,299.000000,16.000000,36.000000,0.000000,0.000000:
00000000
00000000
00000000
00000000
,
00000000
00000000
00000000
00000000
,
00000000
00000000
00000000
00000000
,
00000000
00000000
00000000
00000000
,
00000000
00000000
00000000
00000000
,
00000000
00000000
00000000
00000000
,
00000000
00000000
00000000
00000000
,
00000000
00000000
00000000
00000000
,
00000000
00000000
00000000
00000000
,
00001000
00000000
00001000
00000100
00000000
00000000
00000010
00000000
00000010
00000001
00000000
00000000
,
00000100
00000000
00000100
00000010
00000000
00000000
00000020
00000000
00000000
00000030
00000000
00000000
,
00000001
00000000
00000001
00001000
00000000
00000000
00000100
00000000
00000100
00010000
00000000
00000000
,
00001000
00000000
00001000
00100000
00000000
00000000
00020000
00000000
00000000
00030000
00000000
00000000
,
10000000
00000000
10000000
01000000
00000000
00000000
00100000
00000000
00100000
00010000
00000000
00000000
,
01000000
00000000
01000000
00100000
00000000
00000000
00200000
00000000
00000000
00300000
00000000
00000000
,
10000000
00000000
10000000
01000000
00000000
00000000
00100000
00000000
00100000
00001000
00000000
00000000
,
00010000
00000000
00010000
00000010
00000000
00000000
00000100
00000000
00000100
00000001
00000000
00002000
,
00000000
00000000
00000000
00003100
00000000
00000000
00000010
00000000
00000000
00000000
00000000
00000002
,
00000000
00000000
00000000
00000103
00000000
00000000
00000010
00000000
00000000
00000000
00000000
00002000
,
00000000
00003100
00010000
00001000
,
01000000
00010000
10000000
01000000
,
00010000
00001000
00000100
00000001
,
00000010
00001000
00010000
00100000
,
10000000
01000000
10000000
00100000
,
00010000
00000000
00000000
00001000
00000000
00000000
00100000
00000000
00000000
00000000
00000000
00020000
,
00000000
00000000
00000000
01030000
00000000
00000000
00100000
00000000
00000000
00000000
00000000
20000000
,
00000000
00000000
00000000
31000000
00000000
00000000
00100000
00000000
00000000
00000000
00000000
00020000
,
00000000
01030000
00001000
00010000
,
00000100
00001000
00000001
00000100
,
00001000
00010000
01000000
10000000
,
00100000
00010000
00001000
00000010
,
00000001
00000100
00000001
00000010
,
00001000
00010000
00000010
00000000
,
00010000
00000000
00100000
00000000
,
10000000
01000000
00010000
00000000
,
00001000
00000000
00000010
00000000
,
00000001
00000100
00001000
00000000
,
00010000
00000000
00100000
00000000
,
01000000
00010000
10000000
00000000
,
01000000
00010000
00001000
00000000
,
00000010
00000000
00000000
00001000
00000000
00000000
00010000
00000000
00000000
00000000
00000000
00022000
,
00000000
00000000
00000000
00000000
,
00033000
00000000
00000000
00000000
00000000
00000000
00000100
00000000
00000000
00000000
00000000
00001001
,
00000000
00001000
00000010
00000100
,
00000001
00000000
00000000
00000000
00000000
00001000
00000000
00000000
00000001
00000000
00000000
00000110
,
00000000
00000010
00001000
00010000
,
01000000
00000000
00000000
00000000
00000000
00200000
00000000
00000000
00000000
00000000
00000000
00000000
,
00310000
00000000
00010000
01000000
00000000
00000000
10000000
00000000
00000000
01000000
00000000
00000000
,
00100000
00000000
00000000
00000000
00000000
10000000
00000000
00000000
00000000
00000000
00000000
00000000
,
01000000
00100000
00010000
00001000
,
00000100
00000000
00000000
00000010
00000000
00001000
00000000
00000000
00000000
00000000
00000000
00110000
,
00000000
00010000
01000000
00100000
,
10000000
00000000
00000000
00000000
00000000
00010000
00000000
00000000
10000000
00000000
00000000
01100000
,
00000000
01000000
00010000
00001000
,
00000100
00000000
00000000
00000000
00000000
00000020
00000000
00000000
00000000
00000000
00000000
00000000
,
00001030
00000000
00000000
00010000
00000000
00000000
00000000
00000000
10000000
00000000
00000000
00000000
,
00010000
00000000
00000000
00000000
00000000
00001000
00000000
00000000
00000000
00000001
00000000
00000000
,
00000020
00000030
00002000
00003000
,
00020000
00000000
00000000
00030000
00000000
00000000
01000000
00000000
00000000
00000000
00000000
10010000
,
00000000
00010000
00100000
01000000
,
10000000
00000000
00000000
00000000
00000000
00010000
00000000
00000000
10000000
00000000
00000000
01100000
,
00000000
00100000
00010000
00001000
,
00000100
00000000
00000000
00000000
00000000
00000020
00000000
00000000
00000000
00000000
00000000
00000000
,
00001030
00000000
00001000
00000100
00000000
00000000
00000001
00000000
00000000
00000100
00000000
00000000
,
00000010
00000000
00000000
00000000
00000000
00000001
00000000
00000000
00000000
00000000
00000000
00000000
,
00000100
00000010
00001000
00010000
,
01000000
00000000
00000000
00100000
00000000
00010000
00000000
00000000
00000000
00000000
00000000
00001010
,
00000000
00001000
00000100
00000010
,
00000001
00000000
00000000
00000000
00000000
00001000
00000000
00000000
00000001
00000000
00000000
00000110
,
00000000
00000100
00001000
00010000
,
01000000
00000000
00000000
00000000
00000000
00200000
00000000
00000000
00000000
00000000
00000000
00000000
,
00310000
00000000
00000000
00001000
00000000
00000000
00000000
00000000
00000001
00000000
00000000
00000000
,
00001000
00000000
00000000
00000000
00000000
00010000
00000000
00000000
00000000
10000000
00000000
00000000
,
00200000
00300000
00020000
00030000
,
00002000
00000000
00000000
00003000
00000000
00000000
00000100
00000000
00000000
00000000
00000000
00002002
,
00000000
00000000
00000000
00000000
,
00003003
00000000
00000000
00000000
,
00000000
00000000
00000000
00000000
,
00000000
00000000
00000020
00000000
00000000
00000000
00001030
00000000
00000000
00010000
00000000
00000000
,
00011000
00100000
01000000
00100000
,
00010000
00000000
00010000
10000000
00000000
00000000
20020000
00000000
00000000
30030000
00000000
00000000
,
01000000
00100000
10000000
00100000
,
00010000
00000000
00010000
00001000
00000000
00000000
00022000
00000000
00000000
00033000
00000000
00000000
,
00011000
00000010
00000100
00000010
,
00001000
00000000
00001000
00000001
00000000
00000000
00002002
00000000
00000000
00003003
00000000
00000000
,
00000001
00000000
00000001
00001000
00000000
00000000
00000010
00000000
00000010
00010000
00000000
00000000
,
00001000
00000000
00001000
00100000
00000000
00000000
00010000
00000000
00010000
10000000
00000000
00000000
,
01000000
00100000
01000000
00100000
,
00010000
00001000
00010000
00001000
,
00000100
00000010
00000100
00000010
,
00000001
00000010
00002000
00000000
,
00013000
00100000
10000000
00010000
,
00200000
01000000
02000000
03300000
,
10000000
00000000
01000000
00100000
00000000
00000000
01000000
00000000
00100000
00010000
00000000
00000000
,
00001000
00000000
00000100
00000010
00000000
00000000
00000100
00000000
00000010
00000001
00000000
00000000
,
00002000
00000000
00000000
00000000
00000000
00000000
00000000
00000000
00000000
00003000
00000000
00000220
,
00000000
00000000
00000330
00000000
;

//---------------dance-double - ----------------
#NOTES:
     dance-double:
     :
     Hard:
     16:
     0.717916,0.911564,0.632899,0.510098,0.949349,532.000000,465.000000,67.000000,54.000000,0.000000,0.000000,0.717916,0.911564,0.632899,0.510098,0.949349,532.000000,465.000000,67.000000,54.000000,0.000000,0.000000:
00000000
00000000
00000000
00000000
,
00000000
00000000
00000000
00000000
,
00000000
00000000
00000000
00000000
,
00000000
00000000
00000000
00000000
,
00000000
00000000
00000000
00000000
,
00000000
00000000
00000000
00000000
,
00000000
00000000
00000000
00000000
,
00000000
00000000
00000000
00000000
,
00000000
00000000
00000000
00000000
,
00100000
00000000
00100000
00010000
00000000
00010000
01000000
00000000
01000000
10000000
00000000
10000000
,
00100000
00000000
00100000
00010000
00000000
00000000
00011000
00000000
00000000
00010010
00000000
00000000
,
00000010
00000000
00000010
00001000
00000000
00001000
00000100
00000000
00000100
00000001
00000000
00000001
,
00000010
00000000
00000010
00001000
00000000
00000000
00011000
00000000
00000000
00101000
00000000
00000000
,
00001000
00000000
00001000
00010000
00000000
00010000
00100000
00000000
00100000
01000000
00000000
01000000
,
00010000
00000000
00010000
10000000
00000000
00000000
00110000
00000000
00000000
01100000
00000000
00000000
,
10000000
00000000
01000000
10000000
00000000
01000000
10000000
00000000
00010000
00100000
00000000
00001000
,
00010000
00000000
00001000
00010000
00000000
00000010
00001000
00000000
00000010
00001000
00000000
00000201
,
00000000
00000000
00000301
00000100
00000000
00000000
00001001
00000000
00000000
00000000
00000000
00020010
,
00000000
00000000
00031000
00010000
00000000
00000000
00011000
00000000
00000000
00000000
00000000
00010200
,
00000000
00000000
00001300
00000100
00000000
00000000
00000010
00000000
00000000
00000010
00000000
00000000
,
00000001
00001010
00000001
00001100
,
00000001
00000000
00001000
00000010
00000000
00000001
00000010
00000000
00001000
00000100
00000000
00000001
,
00000100
00000000
00001000
00000010
00000000
00010000
00001000
00000000
00000100
00001000
00000000
00010000
,
00001000
00000000
00100000
00010000
00000000
10000000
00100000
00000000
00010000
00100000
00000000
10000000
,
01000000
00000000
00010000
01000000
00000000
10000000
00100000
00000000
01000000
00010000
00000000
12000000
,
00000000
00000000
13000000
01000000
00000000
00000000
10010000
00000000
00000000
00000000
00000000
00102000
,
00000000
00000000
00013000
00001000
00000000
00000000
00011000
00000000
00000000
00000000
00000000
02001000
,
00000000
00000000
03010000
01000000
00000000
00000000
00100000
00000000
00000000
00100000
00000000
00000000
,
10000000
00110000
10000000
01010000
,
10000000
00000000
00010000
00100000
00000000
10000000
00100000
00000000
00010000
01000000
00000000
10000000
,
01000000
00000000
00010000
00100000
00000000
00001000
00010000
00000000
01000000
00010000
00000000
00001000
,
00010000
00000000
00000010
00001000
00000000
00000001
00000010
00000000
00001000
00000010
00000000
00000001
,
00000100
00000000
00001000
00000100
00000000
00000001
00002000
00000000
00000000
00003002
00000000
00000000
,
00000103
00000000
00000001
00000000
00000000
00000100
00000010
00000000
00000000
00001000
00000000
00000010
,
00000000
00000000
00010000
00001000
00000000
00001000
00200000
00000000
00000000
00300000
00000000
00000000
,
01000000
00000000
10000000
00000000
00000000
00010000
10000000
00000000
00000000
00100000
00000000
10000000
,
00000000
00000000
00010000
00100000
00000000
00001000
00020000
00000000
00000000
00030000
00000000
00000000
,
01000000
00000000
10000000
00000000
00000000
01000000
00100000
00000000
00000000
00010000
00000000
00100000
,
00000000
00000000
00001000
00010000
00000000
00010000
00000010
00000000
00001000
00000000
00000000
00000001
,
00000101
00000000
00000000
00001001
00000000
00000000
00001100
00000000
00000000
00001000
00000000
00000001
,
00000000
00000000
00000001
00000100
00000000
00000000
00000010
00000000
00000000
00001000
00000000
00020000
,
00000000
00000000
02000000
03000000
,
20030000
00000000
00000000
00000000
00000000
00000000
30010000
00000000
10000000
01000000
00000000
02100000
,
00000000
00000000
03100000
00010000
00000000
00000000
10100000
00000000
00000000
01010000
00000000
00000000
,
10000000
00000000
01000000
00100000
00000000
00010000
00000000
00000000
00101000
00000000
00000000
00012000
,
00000000
00000000
00013000
00001000
00000000
00000000
00000100
00000000
00000000
00000001
00000000
00000000
,
00002002
00000000
00000000
00003003
00000000
00000220
00000000
00000000
00000000
00000330
00000000
00000000
,
00000001
00000000
00000001
00000010
00000000
00000010
00001000
00000000
00001000
00010000
00000000
00010000
,
00100000
00000000
00100000
01000000
00000000
00020000
00000000
00000000
00000000
00030000
00000000
00000000
,
10000000
00000000
01000000
00010000
00000000
00001000
00000010
00000000
00000001
00000100
00000000
00001000
,
00010000
00000000
00100000
10000000
00000000
00020000
00000000
00000000
00000000
00030000
00000000
02200000
,
00000000
00000000
03300000
10000000
00000000
00000000
00010000
00000000
00010000
01000000
00000000
00000000
,
00100000
00000000
10000000
01000000
00000000
00100000
00000000
00000000
00101000
00000000
00000000
00010020
,
00000000
00000000
00000130
00000010
00000000
00000010
00001000
00000000
00001000
00000100
00000000
00000000
,
00000022
00000000
00000000
00000033
00000000
00002002
00000000
00000000
00000000
00003003
00000000
00000000
,
00000010
00000000
00000000
00001100
00000000
00000000
00000000
00000000
01010000
00000000
00000000
00000000
,
00100000
00000000
00010000
00000000
00000000
00001010
00000000
00000000
00000010
00000100
00000000
00000000
,
00000002
00000013
00002000
00003010
,
00000002
00000000
00000000
00000103
00000000
00000000
00001000
00000000
00000001
00000100
00000000
00000210
,
00000000
00000000
00000310
00001000
00000000
00000000
00000011
00000000
00000000
00001100
00000000
00000000
,
00000001
00000000
00000100
00000010
00000000
00001000
00000000
00000000
00010010
00000000
00000000
00021000
,
00000000
00000000
00031000
00010000
00000000
00000000
01000000
00000000
00000000
10000000
00000000
00000000
,
20020000
00000000
00000000
30030000
00000000
02200000
00000000
00000000
00000000
03300000
00000000
00000000
,
10000000
00000000
10000000
00100000
00000000
00100000
00010000
00000000
00010000
00001000
00000000
00001000
,
00000010
00000000
00000010
00000100
00000000
00002000
00000000
00000000
00000000
00003000
00000000
00000000
,
00000001
00000000
00000100
00001000
00000000
00010000
00100000
00000000
10000000
01000000
00000000
00010000
,
00001000
00000000
00000010
00000001
00000000
00002000
00000000
00000000
00000000
00003000
00000000
00000220
,
00000000
00000000
00000330
00000001
00000000
00000000
00001000
00000000
00001000
00000100
00000000
00000000
,
00000010
00000000
00000001
00000100
00000000
00000010
00000000
00000000
00010010
00000000
00000000
00201000
,
00000000
00000000
01300000
00100000
00000000
00100000
00010000
00000000
00010000
01000000
00000000
00000000
,
20200000
00000000
00000000
30300000
00000000
20020000
00000000
00000000
00000000
30030000
00000000
00000000
,
00100000
00000000
00000000
01010000
00000000
00000000
00000000
00000000
00001100
00000000
00000000
00000000
,
00000010
00000000
00001000
00000000
00000000
00110000
00000000
00000000
00100000
01000000
00000000
00000000
,
20000000
30100000
00020000
00130000
,
20000000
00000000
00000000
31000000
00000000
00000000
00010000
00000000
10000000
01000000
00000000
00200000
,
00000000
00000000
00000000
00000000
,
00301000
00000000
00000000
00000000
,
00000000
00000000
00000000
00000000
,
00000000
00000000
00010000
00001000
00000000
00000000
00010100
00000000
00000000
00011000
00000000
00000000
,
00001010
00000000
00000000
00000010
00000000
00000000
00000100
00000000
00000100
00000001
00000000
00000000
,
00000010
00000000
00000010
00001000
00000000
00000000
00010100
00000000
00000000
00101000
00000000
00000000
,
00010000
00000000
00000000
01000000
00000000
00000000
00100000
00000000
00100000
10000000
00000000
00000000
,
01000000
00000000
01000000
00010000
00000000
00000000
00101000
00000000
00000000
00010100
00000000
00000000
,
00001000
00000000
00001000
00000010
00000000
00000010
00000100
00000000
00000100
00000001
00000000
00000001
,
00001000
00000000
00001000
00000100
00000000
00000000
00000110
00000000
00000000
00001001
00000000
00000000
,
00000010
00000000
00010000
00001000
00000000
00010000
00000100
00000000
00010000
00001000
00000000
00001000
,
01000000
00000000
00001000
00010000
00000000
00001000
00100000
00000000
00000000
01100000
00000000
00000000
,
00010000
00000000
00010000
01000000
00000000
01000000
10000000
00000000
10000000
00100000
00000000
00100000
,
00010000
00000000
00010000
00001000
00000000
00001000
00000100
00000000
00000100
00000001
00000000
00000001
,
00000010
00000000
00000010
00001000
00000000
00001000
00010000
00000000
00010000
01000000
00000000
01000000
,
10000000
00000000
10000000
00100000
00000000
00000000
00120000
00000000
00000000
00000000
00000000
00000000
,
10030000
00000000
10000000
01000000
00000000
01000000
00010000
00000000
00010000
00100000
00000000
00100000
,
00001000
00000000
00001000
00010000
00000000
00000000
00011000
00000000
00000000
01001000
00000000
00000000
,
00010000
00100000
00010000
10000000
00000000
10000000
00100000
00000000
00100000
01000000
00000000
01000000
,
00001000
00000000
00001000
00010000
00000000
00010000
00001000
00010000
00000100
00001000
00000010
00000100
,
00000002
00000000
00000000
00000000
00000000
00000000
00000000
00000000
00000000
00000003
00000000
00020200
,
00000000
00000000
00030300
00000000
;

//---------------dance-single - ----------------
#NOTES:
     dance-single:
     :
     Beginner:
     4:
     0.206468,0.272052,0.179479,0.000000,0.000000,153.000000,134.000000,19.000000,0.000000,0.000000,0.000000,0.206468,0.272052,0.179479,0.000000,0.000000,153.000000,134.000000,19.000000,0.000000,0.000000,0.000000:
0000
0000
0000
0000
,
0000
0000
0000
0000
,
0000
0000
0000
0000
,
0000
0000
0000
0000
,
0000
0000
0000
0000
,
0000
0000
0000
0000
,
0000
0000
0000
0000
,
0000
0000
0000
0000
,
0000
0000
0000
0000
,
1000
0000
1000
0000
,
1000
0000
0000
0000
,
0001
0000
0001
0000
,
0001
0000
0000
0000
,
1000
0000
1000
0000
,
1000
0000
0000
0000
,
0010
0000
0010
0000
,
0010
0000
0010
0000
,
0110
0000
0000
0000
,
1001
0000
0000
0000
,
0110
0000
0000
0000
,
0100
0000
0100
0000
,
0110
0000
0000
0000
,
1000
0000
1000
0000
,
1000
0000
0000
0000
,
0000
0000
0000
0000
,
0110
0000
0000
0000
,
1001
0000
0000
0000
,
0110
0000
0000
0000
,
0010
0000
0010
0000
,
0110
0000
0000
0000
,
0001
0000
0001
0000
,
0001
0000
0000
0000
,
0000
0000
0000
0000
,
0010
0000
0000
0000
,
1000
0000
0000
0000
,
0010
0000
0000
0000
,
0001
0000
0000
0000
,
0100
0000
0000
0000
,
1000
0000
0000
0000
,
0100
0000
0100
0000
,
0010
0000
0010
0000
,
0110
0000
0000
0000
,
0000
0000
0000
0000
,
1001
0000
1000
0000
,
0001
0000
0001
0000
,
0100
0000
0010
0000
,
0110
0000
0000
0000
,
1000
0000
0001
0000
,
1000
0000
0001
0000
,
0100
0000
1000
0000
,
0010
0000
0001
0000
,
1001
0000
1000
0000
,
0001
0000
0001
0000
,
0010
0000
0100
0000
,
0110
0000
0000
0000
,
0001
0000
1000
0000
,
0001
0000
1000
0000
,
0100
0000
0001
0000
,
0010
0000
1000
0000
,
1001
0000
0001
0000
,
1000
0000
1000
0000
,
0100
0000
0010
0000
,
0110
0000
0000
0000
,
0001
0000
1000
0000
,
0001
0000
1000
0000
,
0100
0000
0001
0000
,
0010
0000
1000
0000
,
1001
0000
0001
0000
,
1000
0000
1000
0000
,
0010
0000
0100
0000
,
0110
0000
0000
0000
,
1000
0000
0001
0000
,
1000
0000
0001
0000
,
0100
0000
1000
0000
,
0010
0000
0001
0000
,
1001
0000
0000
0000
,
0000
0000
0000
0000
,
0000
0000
0000
0000
,
0000
0000
0000
0000
,
0001
0000
0001
0000
,
0001
0000
0000
0000
,
1000
0000
1000
0000
,
1000
0000
0000
0000
,
0100
0000
0100
0000
,
0100
0000
0000
0000
,
0010
0000
0010
0000
,
0010
0000
0010
0000
,
0001
0000
1000
0000
,
0001
0000
1000
0000
,
0001
0000
1000
0000
,
0001
0000
1000
0000
,
0001
0000
0100
0000
,
1000
0000
0100
0000
,
0010
0000
0100
0000
,
0010
0000
0100
0000
,
0010
0000
0000
0000
,
1001
0000
0000
0000
;

//---------------dance-single - ----------------
#NOTES:
     dance-single:
     :
     Hard:
     16:
     0.720615,0.911564,0.632899,0.510098,0.949349,534.000000,467.000000,67.000000,54.000000,0.000000,0.000000,0.720615,0.911564,0.632899,0.510098,0.949349,534.000000,467.000000,67.000000,54.000000,0.000000,0.000000:
// measure 0
0000
0000
0000
0000
,  // measure 1
0000
0000
0000
0000
,  // measure 2
0000
0000
0000
0000
,  // measure 3
0000
0000
0000
0000
,  // measure 4
0000
0000
0000
0000
,  // measure 5
0000
0000
0000
0000
,  // measure 6
0000
0000
0000
0000
,  // measure 7
0000
0000
0000
0000
,  // measure 8
0000
0000
0000
0000
,  // measure 9
0010
0000
0010
0001
0000
0001
0100
0000
0100
1000
0000
1000
,  // measure 10
0010
0000
0010
0001
0000
0000
1001
0000
0000
0101
0000
0000
,  // measure 11
0010
0000
0010
1000
0000
1000
0100
0000
0100
0001
0000
0001
,  // measure 12
0010
0000
0010
1000
0000
0000
1001
0000
0000
1100
0000
0000
,  // measure 13
1000
0000
1000
0100
0000
0100
0010
0000
0010
0001
0000
0001
,  // measure 14
1000
0000
1000
0010
0000
0000
0110
0000
0000
1001
0000
0000
,  // measure 15
1000
0000
0100
1000
0000
0100
1000
0000
0001
0100
0000
0010
,  // measure 16
1000
0000
0010
1000
0000
0001
0010
0000
0001
0010
0000
0120
,  // measure 17
0000
0000
0130
1000
0000
0000
1100
0000
0000
0000
0000
1002
,  // measure 18
0000
0000
0103
0001
0000
0000
0101
0000
0000
0000
0000
1020
,  // measure 19
0000
0000
1030
0001
0000
0000
0010
0000
0000
0010
0000
0000
,  // measure 20
0100
1010
0100
0011
,  // measure 21
0100
0000
1000
0100
0000
0001
0100
0000
1000
0010
0000
0001
,  // measure 22
0010
0000
1000
0100
0000
0001
0100
0000
1000
0001
0000
0001
,  // measure 23
0100
0000
0010
1000
0000
0001
1000
0000
0100
0010
0000
0001
,  // measure 24
0100
0000
0100
0010
0000
0001
0010
0000
1000
0010
0000
0120
,  // measure 25
0000
0000
0130
0001
0000
0000
0101
0000
0000
0000
0000
2001
,  // measure 26
0000
0000
3100
1000
0000
0000
1100
0000
0000
0000
0000
0021
,  // measure 27
0000
0000
0031
1000
0000
0000
0010
0000
0000
0010
0000
0000
,  // measure 28
0100
0011
0100
1010
,  // measure 29
0100
0000
0001
0100
0000
1000
0100
0000
0001
0010
0000
1000
,  // measure 30
0010
0000
0001
0100
0000
1000
0100
0000
0001
1000
0000
1000
,  // measure 31
0100
0000
0010
0001
0000
1000
0001
0000
0100
0010
0000
1000
,  // measure 32
0100
0000
0100
0010
0000
1000
0020
0000
0000
0032
0000
0000
,  // measure 33
1003
0000
0100
0000
0000
0010
0001
0000
0000
1000
0000
0010
,  // measure 34
0000
0000
0100
0001
0000
0001
2000
0000
0000
0000
0000
0000
,  // measure 35
3001
0000
0010
0000
0000
0010
1000
0000
0000
0001
0000
0100
,  // measure 36
0000
0000
0100
1000
0000
0001
0200
0000
0000
0000
0000
0000
,  // measure 37
0301
0000
0100
0000
0000
0010
1000
0000
0000
0001
0000
0010
,  // measure 38
0000
0000
0100
1000
0000
1000
0001
0000
0100
0000
0000
0010
,  // measure 39
1010
0000
0000
0011
0000
0000
1010
0000
0000
0100
0000
0001
,  // measure 40
0000
0000
0001
0010
0000
0000
0100
0000
0000
0100
0000
2000
,  // measure 41
0000
0000
0002
0003
,  // measure 42
3200
0000
0000
0000
0000
0000
1300
0000
0001
0100
0000
0210
,  // measure 43
0000
0000
0310
1000
0000
0000
1100
0000
0000
0011
0000
0000
,  // measure 44
0001
0000
1000
0010
0000
0100
0000
0000
0101
0000
0000
1200
,  // measure 45
0000
0000
1300
0001
0000
0000
1000
0000
0000
0010
0000
0000
,  // measure 46
0220
0000
0000
0000
0330
2002
0000
0000
0000
3003
0000
0000
,  // measure 47
0010
0000
0010
0001
0000
0001
0100
0000
0100
0010
0000
0010
,  // measure 48
1000
0000
1000
0100
0000
0020
0000
0000
0000
0031
0000
0000
,  // measure 49
1000
0000
0100
0001
0000
1000
0010
0000
0001
0100
0000
1000
,  // measure 50
0001
0000
0010
1000
0000
0002
0000
0000
0000
0003
0000
0220
,  // measure 51
0000
0000
0330
0100
0000
0000
1000
0000
1000
0001
0000
0000
,  // measure 52
0100
0000
1000
0100
0000
0010
0000
0000
1001
0000
0000
0021
,  // measure 53
0000
0000
0130
1000
0000
1000
0001
0000
0001
0100
0000
0000
,  // measure 54
2020
0000
0000
3030
0000
0022
0000
0000
0000
0033
0000
0000
,  // measure 55
0100
0000
0000
1100
0000
0000
0000
0000
1010
0000
0000
0000
,  // measure 56
0010
0000
0001
0000
0000
0101
0000
0000
0100
0010
0000
0000
,  // measure 57
2000
0100
3002
0010
,  // measure 58
2003
0000
0000
0010
0000
0000
3001
0000
1000
0100
0000
0210
,  // measure 59
0000
0000
0310
0001
0000
0000
0101
0000
0000
1010
0000
0000
,  // measure 60
1000
0000
0001
0010
0000
0100
0000
0000
1100
0000
0000
0201
,  // measure 61
0000
0000
0301
1000
0000
0000
0001
0000
0000
0010
0000
0000
,  // measure 62
0220
0000
0000
0000
0330
2002
0000
0000
0000
3003
0000
0000
,  // measure 63
0010
0000
0010
1000
0000
1000
0100
0000
0100
0010
0000
0010
,  // measure 64
0001
0000
0001
0100
0000
0020
0000
0000
0000
1030
0000
0000
,  // measure 65
0001
0000
0100
1000
0000
0001
0010
0000
1000
0100
0000
0001
,  // measure 66
1000
0000
0010
0001
0000
2000
0000
0000
0000
3000
0000
0220
,  // measure 67
0000
0000
0330
0100
0000
0000
0001
0000
0001
1000
0000
0000
,  // measure 68
0100
0000
0001
0100
0000
0010
0000
0000
1001
0000
0000
1020
,  // measure 69
0000
0000
0130
0001
0000
0001
1000
0000
1000
0100
0000
0000
,  // measure 70
0022
0000
0000
0033
0000
2020
0000
0000
0000
3030
0000
0000
,  // measure 71
0100
0000
0000
0101
0000
0000
0000
0000
0011
0000
0000
0000
,  // measure 72
0010
0000
1000
0000
0000
1100
0000
0000
0100
0010
0000
0000
,  // measure 73
0002
0100
2003
0010
,  // measure 74
3002
0000
0000
0010
0000
0000
1003
0000
0001
0100
0000
0020
,  // measure 75
0000
0000
0000
0000
,  // measure 76
1030
0000
0000
0000
,  // measure 77
0000
0000
0000
0000
,  // measure 78
0000
0000
1000
0100
0000
0000
0110
0000
0000
1001
0000
0000
,  // measure 79
0110
0000
0000
1000
0000
0000
0010
0000
0010
0001
0000
0000
,  // measure 80
0100
0000
0100
1000
0000
0000
1010
0000
0000
1001
0000
0000
,  // measure 81
0100
0000
0000
0001
0000
0000
0010
0000
0010
1000
0000
0000
,  // measure 82
0100
0000
0100
0001
0000
0000
0011
0000
0000
1001
0000
0000
,  // measure 83
0100
0000
0010
1000
0000
0001
0010
0000
0100
1000
0000
0001
,  // measure 84
0100
0000
0010
1000
0000
0000
1001
0000
0000
0110
0000
0000
,  // measure 85
1000
0000
0010
0001
0000
0010
0100
0000
0010
1000
0000
0100
,  // measure 86
0010
0000
0001
0010
0000
1000
0010
0000
0000
0110
0000
0000
,  // measure 87
1000
0000
1000
0100
0000
0100
0001
0000
0001
0010
0000
0010
,  // measure 88
1000
0000
1000
0100
0000
0100
0001
0000
0001
0010
0000
0010
,  // measure 89
1000
0000
1000
0100
0000
0100
0001
0000
0001
0010
0000
0010
,  // measure 90
1000
0000
1000
0100
0000
0000
0012
0000
0000
0000
0000
0000
,  // measure 91
0103
0000
0100
0010
0000
0010
1000
0000
1000
0001
0000
0001
,  // measure 92
0010
0000
0010
0100
0000
0000
1001
0000
0000
0110
0000
0000
,  // measure 93
0010
1000
0001
0010
0000
0010
1000
0000
1000
0010
0000
0010
,  // measure 94
0001
0000
0001
0100
0000
0100
0010
1000
0001
0010
0100
1000
,  // measure 95
0002
0000
0000
0000
0000
0000
0000
0000
0000
0003
0000
0220
,  // measure 96
0000
0000
0330
0000
;

//---------------dance-single - ----------------
#NOTES:
     dance-single:
     :
     Easy:
     8:
     0.356259,0.455782,0.085016,0.198371,0.028339,264.000000,255.000000,9.000000,21.000000,0.000000,0.000000,0.356259,0.455782,0.085016,0.198371,0.028339,264.000000,255.000000,9.000000,21.000000,0.000000,0.000000:
0000
0000
0000
0000
,
0000
0000
0000
0000
,
0000
0000
0000
0000
,
0000
0000
0000
0000
,
0000
0000
0000
0000
,
0000
0000
0000
0000
,
0000
0000
0000
0000
,
0000
0000
0000
0000
,
0000
0000
0000
0000
,
1000
0100
1000
0100
,
0001
0100
2000
3000
,
0001
0100
0001
0100
,
1000
0100
0002
0003
,
1000
0010
1000
0010
,
0001
0010
2000
3000
,
0001
0001
0010
0010
,
1000
1000
0010
0010
,
1001
0000
0100
0000
,
1001
0000
0010
0000
,
1001
0000
0100
0000
,
0010
0100
0010
0100
,
0110
0000
0001
0000
,
1000
1000
0001
0001
,
1000
0000
0001
0000
,
0100
0010
0100
0000
,
1001
0000
0100
0000
,
1001
0000
0010
0000
,
1001
0000
0100
0000
,
0010
0100
0010
0100
,
0110
0000
1000
0000
,
0001
0001
1000
1000
,
0001
0000
1000
0000
,
0100
0010
0100
0010
,
0001
0000
0100
0000
,
1000
0100
0001
0000
,
1000
0000
0100
0000
,
0001
0100
1000
0000
,
0001
0000
0100
0000
,
1000
0100
0001
0000
,
0010
0010
0010
0000
,
0100
0100
0100
0000
,
0020
0000
0000
0000
,
0030
0000
0000
0000
,
1000
0010
0001
0010
,
1000
0001
1000
0000
,
0001
0100
1000
0100
,
0001
0000
0000
0000
0000
2000
0000
0000
0000
3000
0000
0000
,
0001
0010
0001
0010
,
0100
1000
0020
0030
,
1000
0100
0001
0010
,
1000
0001
0002
0003
,
1000
0010
0001
0010
,
1000
0001
1000
0000
,
0001
0100
1000
0100
,
0001
0000
0000
0000
0000
0020
0000
0000
0000
0030
0000
0000
,
0100
0000
0100
0000
,
0010
0000
0010
0000
,
0001
0000
0100
0000
,
1000
0000
0010
0000
,
0001
0010
1000
0010
,
0001
1000
0001
0000
,
1000
0100
0001
0100
,
1000
0000
0000
0000
0000
0002
0000
0000
0000
0003
0000
0000
,
1000
0010
1000
0010
,
0100
0001
0020
0030
,
0001
0100
1000
0010
,
0001
1000
2000
3000
,
0001
0010
1000
0010
,
0001
1000
0001
0000
,
1000
0100
0001
0100
,
1000
0000
0000
0000
0000
0020
0000
0000
0000
0030
0000
0000
,
0100
0000
0001
0000
,
0010
0000
1000
0000
,
0100
0000
0001
0000
,
0010
0000
0000
0000
0000
0000
0100
0000
0000
0000
0000
2000
,
0000
0000
0000
0000
,
3001
0000
0000
0000
,
0000
0000
0000
0000
,
0000
0000
0100
0100
,
0001
0010
0001
0010
,
1000
0010
0002
0003
,
1000
0010
1000
0010
,
0001
0010
2000
3000
,
0001
0100
0001
0100
,
1000
0100
0002
0003
,
1000
1000
0100
0100
,
0001
0001
0100
0100
,
0010
0001
0100
0001
,
0010
0100
1000
0010
,
1000
0100
0010
0001
,
0100
0001
0020
0000
,
1030
0010
0001
1000
,
0010
0100
0002
0003
,
0001
0010
1000
0010
,
0001
0100
1000
0100
,
0020
0000
0000
0000
0000
0000
0000
0000
0000
0030
0000
2002
,
0000
0000
3003
0000
;

//---------------dance-single - ----------------
#NOTES:
     dance-single:
     :
     Medium:
     11:
     0.434528,0.592517,0.160586,0.443974,0.297557,322.000000,305.000000,17.000000,47.000000,0.000000,0.000000,0.434528,0.592517,0.160586,0.443974,0.297557,322.000000,305.000000,17.000000,47.000000,0.000000,0.000000:
0000
0000
0000
0000
,
0000
0000
0000
0000
,
0000
0000
0000
0000
,
0000
0000
0000
0000
,
0000
0000
0000
0000
,
0000
0000
0000
0000
,
0000
0000
0000
0000
,
0000
0000
0000
0000
,
0000
0000
0000
0000
,
1000
0000
1000
0100
0000
0000
0001
0000
0001
0100
0000
0000
,
1000
0000
1000
0010
0000
0000
0202
0000
0000
0303
0000
0000
,
0001
0000
0001
0010
0000
0000
1000
0000
1000
0010
0000
0000
,
0001
0000
0001
0100
0000
0000
2020
0000
0000
3030
0000
0000
,
0001
0000
0001
0010
0000
0000
0100
0000
0100
1000
0000
0000
,
0010
0000
0010
0100
0000
0000
0220
0000
0000
0330
0000
0000
,
0100
0000
0100
0001
0000
0000
1000
0000
1000
0100
0000
0000
,
0010
0000
0010
0001
0000
0000
1000
0000
1000
0010
0000
0200
,
0000
0000
0000
0301
0000
0000
0001
0000
0000
0000
0000
0020
,
0000
0000
0000
0130
0000
0000
0100
0000
0000
0000
0000
2000
,
0000
3001
0100
0100
,
0010
1000
0100
1000
,
0010
0001
0010
1000
,
0001
0010
1000
0010
,
0001
1000
0100
0001
,
1000
0000
0000
0010
0000
0000
0010
0000
0000
0000
0000
0200
,
0000
0000
0000
1300
0000
0000
1000
0000
0000
0000
0000
0020
,
0000
0000
0000
0130
0000
0000
0100
0000
0000
0000
0000
0002
,
0000
1003
0100
0100
,
0010
0001
0100
0001
,
0010
1000
0010
0001
,
1000
0010
0001
0010
,
1000
0001
0100
1000
,
0001
0010
1000
0001
,
0200
0000
0320
0000
,
1030
0100
0001
0000
,
0200
0000
0320
0000
,
0031
0100
1000
0000
,
0200
0000
0320
0000
,
0130
0010
0100
0000
,
0001
1000
0001
0000
,
1000
0000
0000
0001
0000
0000
1000
0000
0000
0000
0000
2002
,
0000
0000
0000
0000
,
3003
0000
0000
0000
0000
0000
0100
0000
0000
0000
0000
0110
,
0000
1000
0100
0001
,
0010
0000
0000
0100
0000
1000
0000
0000
0001
0000
0000
0110
,
0000
0100
0010
0100
,
1000
0000
0000
0000
0000
0002
0000
0000
0000
0003
0000
0000
,
0100
0000
0100
0001
0000
0000
1000
0000
0000
0001
0000
0000
,
0010
0000
0000
0001
0000
0200
0000
0000
0000
0300
0000
0000
,
1000
0000
1000
0100
0000
0000
0001
0000
0000
0010
0000
0000
,
1000
0000
0000
0001
0000
0100
0000
0000
0000
0000
0000
0110
,
0000
0100
0001
0100
,
1000
0000
0000
0100
0000
0010
0000
0000
0100
0000
0000
1001
,
0000
1000
0010
0001
,
1000
0000
0000
0000
0000
0002
0000
0000
0000
0003
0000
0000
,
0010
0000
0000
1000
0000
0000
0000
0000
0100
0000
0000
0000
,
0001
0000
0000
0000
0000
0100
0000
0000
0000
1000
0000
0000
,
0020
0030
0200
0300
,
0002
0000
0000
0003
0000
0000
1000
0000
0000
0000
0000
0110
,
0000
0001
0100
1000
,
0010
0000
0000
0100
0000
0001
0000
0000
1000
0000
0000
0110
,
0000
0100
0010
0100
,
0001
0000
0000
0000
0000
2000
0000
0000
0000
3000
0000
0000
,
0100
0000
0100
1000
0000
0000
0001
0000
0000
1000
0000
0000
,
0010
0000
0000
1000
0000
0200
0000
0000
0000
0300
0000
0000
,
0001
0000
0001
0100
0000
0000
1000
0000
0000
0010
0000
0000
,
0001
0000
0000
1000
0000
0100
0000
0000
0000
0000
0000
0110
,
0000
0100
1000
0100
,
0001
0000
0000
0100
0000
0010
0000
0000
0100
0000
0000
1001
,
0000
0001
0010
1000
,
0001
0000
0000
0000
0000
2000
0000
0000
0000
3000
0000
0000
,
0010
0000
0000
0001
0000
0000
0000
0000
0100
0000
0000
0000
,
1000
0000
0000
0000
0000
0100
0000
0000
0000
0001
0000
0000
,
0020
0030
0200
0300
,
2000
0000
0000
3000
0000
0000
0001
0000
0000
0000
0000
2002
,
0000
0000
0000
0000
,
3003
0000
0000
0000
,
0000
0000
0000
0000
,
0000
0000
0020
0000
0000
0000
0130
0000
0000
0100
0000
0000
,
1000
0010
0001
0010
,
1000
0100
0022
0033
,
0001
0010
1000
0010
,
0001
0100
2020
3030
,
0100
0001
0010
0001
,
0100
0010
0220
0330
,
1000
0000
1000
0010
0000
0000
0001
0000
0001
0010
0000
0000
,
1000
0000
1000
0100
0000
0000
0001
0000
0001
0100
0000
0000
,
1000
0001
1000
0001
,
1000
0010
1000
0010
,
0100
0001
0100
0001
,
1000
0100
0020
0000
,
0031
0100
1000
0100
,
0002
1000
2000
3003
,
1000
0000
1000
0010
0000
0000
0100
0000
0100
0001
0000
0000
,
1000
0000
1000
0100
0000
0000
0010
0000
0010
0001
0000
0000
,
0200
0000
0000
0000
0000
0000
0000
0000
0000
0300
0000
0220
,
0000
0000
0330
0000
;
