#TITLE:666;
#SUBTITLE:;
#ARTIST:RoughSketch;
#TITLETRANSLIT:;
#SUBTITLETRANSLIT:;
#ARTISTTRANSLIT:;
#GENRE:BEMANI;
#CREDIT:;
#BANNER:666.png;
#BACKGROUND:666-bg.png;
#LYRICSPATH:;
#CDTITLE:../cdtitle.png;
#MUSIC:666.ogg;
#OFFSET:0.789000;
#SAMPLESTART:26.598000;
#SAMPLELENGTH:15.000000;
#SELECTABLE:YES;
#DISPLAYBPM:83.250000:666.000000;
#BPMS:0.000000=166.500000
,36.000000=333.000000
,148.000000=166.500000
,149.000000=333.000000
,195.000000=166.500000
,203.000000=83.250000
,204.000000=166.500000
,208.000000=333.000000
,216.000000=166.500000
,230.000000=83.250000
,231.000000=166.500000
,245.000000=83.250000
,246.000000=166.500000
,288.000000=83.250000
,290.000000=333.000000
,322.000000=166.500000
,336.000000=333.000000
,396.000000=166.500000
,398.000000=333.000000
,436.000000=166.500000
,437.000000=333.000000
,443.000000=166.500000
,444.000000=333.000000
,456.000000=166.500000
,458.000000=333.000000
,490.000000=83.250000
;
#STOPS:334.000000=2.162000
;
#BGCHANGES:-99.000=../bg.avi=1.000=0=0=1=====,
99999=-nosongbg-=1.000=0=0=0 // don't automatically add -songbackground-
;
#KEYSOUNDS:;
#ATTACKS:;

//---------------dance-single - ----------------
#NOTES:
     dance-single:
     :
     Challenge:
     19:
     1.216841,1.742618,1.010455,0.384140,0.843438,1020.000000,899.000000,121.000000,46.000000,0.000000,0.000000,1.216841,1.742618,1.010455,0.384140,0.843438,1020.000000,899.000000,121.000000,46.000000,0.000000,0.000000:
// measure 0
0000
0000
0000
0000
,  // measure 1
0000
0000
0000
0000
,  // measure 2
0000
0000
0000
0000
,  // measure 3
0000
0000
0000
0000
,  // measure 4
0000
0000
0000
0000
,  // measure 5
1000
0100
1000
0100
0001
0100
1000
0010
,  // measure 6
0100
0001
0100
0001
0010
0100
1000
0001
,  // measure 7
0010
0001
0010
0001
0010
0100
0010
0100
1000
0001
1000
0001
1000
0010
1000
0010
,  // measure 8
0100
1000
0100
0010
1000
0100
0010
0100
0001
1000
0010
0001
0010
0000
0000
0000
,  // measure 9
1100
0000
0000
0000
0000
0000
1100
0000
0000
0000
0000
0000
0001
0000
0010
0000
0100
0000
1000
0000
0000
0001
0000
0000
,  // measure 10
1000
0000
0100
0000
0010
0000
0001
0000
0000
1000
0000
0000
0001
0000
0010
0000
0100
0000
1000
0000
0000
0001
0000
0000
,  // measure 11
0101
0000
0000
0000
0000
0000
0101
0000
0000
0000
0000
0000
0100
0000
0010
0000
1000
0000
0001
0000
0000
0010
0000
0000
,  // measure 12
0220
0000
0330
0000
1000
1000
0002
0003
,  // measure 13
1001
0000
1000
0001
0010
0100
0010
0100
,  // measure 14
0010
0100
0010
0100
0010
0100
0010
0100
,  // measure 15
1000
0001
1000
0001
0010
0001
0100
0010
,  // measure 16
1000
1010
1100
0011
,  // measure 17
0110
0000
0010
0100
1000
0001
1000
0001
,  // measure 18
0100
0000
0001
0000
0100
0000
0001
0000
1000
0010
1000
0000
0100
0000
0010
0000
,  // measure 19
0001
0010
0001
0000
0010
0000
0100
1000
0100
0000
1000
0000
0001
0100
0001
0000
,  // measure 20
1001
0000
1100
0000
0110
0000
0010
0001
,  // measure 21
1010
0000
0001
0010
0100
1000
0100
1000
,  // measure 22
0001
0010
0100
0000
1000
0000
0001
0000
0100
0000
0010
0000
1000
0000
0001
0000
,  // measure 23
1000
0000
0100
0000
1000
0000
0100
0000
0010
0000
0100
0000
1000
0001
0100
0010
,  // measure 24
1000
0000
1000
0000
0010
0000
0001
0000
0001
0000
0100
0000
,  // measure 25
1100
0000
0000
0000
0000
0000
0001
0000
0000
0010
0000
0000
0100
0000
1000
0000
0100
0000
0010
0000
0000
0001
0000
0000
,  // measure 26
0100
0010
1000
0100
0010
0010
0000
0100
,  // measure 27
0220
0000
0000
0330
,  // measure 28
2002
0000
0003
0000
3001
0100
0020
0030
,  // measure 29
1001
0110
1100
1100
,  // measure 30
1001
0000
0101
0000
1001
0000
1000
0100
,  // measure 31
0010
0011
0110
0110
,  // measure 32
1100
0000
0110
0000
1000
0001
0100
0000
,  // measure 33
1010
0110
0101
0101
,  // measure 34
1001
0000
0000
1100
0000
0000
0010
0000
0100
0000
0010
0000
,  // measure 35
0001
0000
0000
0000
1000
0100
0010
0001
0010
0000
0100
0000
0000
0000
1000
0000
,  // measure 36
0020
0000
0030
0110
0000
0010
0100
0010
,  // measure 37
2000
0000
0000
3001
0010
0100
0010
0000
0000
0110
0000
0000
,  // measure 38
1100
0000
0101
0000
0001
1000
0001
0000
,  // measure 39
0110
0000
1001
0000
1100
0000
0010
0001
,  // measure 40
0010
0001
0000
0110
0000
0001
0100
0000
,  // measure 41
1010
0110
1010
0001
,  // measure 42
0011
0110
0011
1000
,  // measure 43
0010
0011
0000
0010
2020
0000
3030
0000
,  // measure 44
0220
0000
0330
2002
,  // measure 45
3003
0200
0300
2000
,  // measure 46
3010
0000
0002
0000
0013
0000
1000
0100
,  // measure 47
0010
0100
1000
0001
0010
0100
0010
0001
,  // measure 48
0010
0001
0100
0000
0010
0000
2002
3003
,  // measure 49
0001
0010
0100
0010
0001
0100
0001
0100
0010
1000
0001
0010
0100
1000
0100
1000
,  // measure 50
0001
0010
0100
1000
0010
0100
0010
0100
0001
1000
0010
0100
0020
0000
0130
0110
,  // measure 51
0001
0010
0001
0010
0100
1000
0001
0010
0100
1000
0100
1000
0001
0100
0010
1000
,  // measure 52
1010
0011
1100
0101
,  // measure 53
0110
0000
0000
1100
0000
0000
0101
0000
,  // measure 54
1000
0100
1000
0100
0010
0001
1000
0100
0010
0001
0010
0001
0100
0010
1000
0100
,  // measure 55
0010
0100
0010
0100
1000
0001
0100
0010
2000
0000
3010
0100
0001
0010
0100
0010
,  // measure 56
0001
0000
0011
0000
0100
0000
1100
0000
0001
0000
1000
0001
0010
0100
1000
0100
,  // measure 57
0010
0000
0001
0000
0200
0000
0300
0000
0210
0000
1000
0000
0301
0010
0100
1000
,  // measure 58
0001
0010
0100
1000
0001
0100
0010
1000
0001
0100
0010
1000
0001
0010
0100
1000
,  // measure 59
0001
0010
0100
1000
0001
0010
0100
0010
0001
0100
0010
1000
0100
0010
0100
1000
,  // measure 60
0001
0010
0100
1000
0001
0000
0000
0101
0000
0000
1100
0000
1000
0000
1000
0000
,  // measure 61
0010
0000
0100
0000
0120
0000
0001
0000
1030
0100
0010
0001
1000
0100
0010
0001
,  // measure 62
1000
0010
0100
0001
1000
0010
0100
0001
1000
0100
0010
0001
1000
0100
0010
0001
,  // measure 63
1000
0100
0010
0100
1000
0010
0100
0001
0010
0100
0010
0001
1000
0100
0010
0001
,  // measure 64
1000
0000
0110
0000
0001
0100
0001
0000
0010
0100
0010
0000
0100
0000
0000
0000
,  // measure 65
2002
0000
0003
0100
,  // measure 66
0020
0000
0000
3030
,  // measure 67
0200
0000
1000
0302
,  // measure 68
2000
0000
0000
3003
,  // measure 69
1000
0100
1000
0100
0001
0100
1000
0010
,  // measure 70
0100
0001
0100
0001
0010
0100
1000
0001
,  // measure 71
1000
0100
1000
0100
0010
0001
0010
0001
0010
0100
0010
0100
1000
0001
1000
0001
,  // measure 72
1000
0010
0100
0001
0020
0000
0200
0330
1001
0000
0000
0000
1001
0000
0000
0000
,  // measure 73
0001
0000
0100
0000
0010
0000
1000
0000
0000
0100
0000
0000
1100
0000
0000
0000
0000
0000
1100
0000
0000
0000
0000
0000
,  // measure 74
1000
0000
0100
0000
0010
0000
0001
0000
0000
0100
0000
0000
0101
0000
0000
0000
0000
0000
0101
0000
0000
0000
0000
0000
,  // measure 75
0100
0000
0001
0000
0010
0000
0100
0000
0000
1000
0000
0000
1001
0000
0000
0000
0000
0000
0110
0000
0000
0000
0000
0000
,  // measure 76
2002
3003
1001
1001
,  // measure 77
0001
0000
0100
0000
0010
0000
1000
0000
0000
0100
0000
0000
1100
0000
0000
0000
0000
0000
1100
0000
0000
0000
0000
0000
,  // measure 78
1000
0000
0100
0000
0010
0000
0001
0000
0000
0100
0000
0000
0101
0000
0000
0000
0000
0000
0101
0000
0000
0000
0000
0000
,  // measure 79
0100
0000
0001
0000
0010
0000
0100
0000
0000
1000
0000
0000
1001
0000
0000
0000
0000
0000
0110
0000
0000
0000
0000
0000
,  // measure 80
2002
0000
0000
0000
3003
0000
0000
0000
1100
0000
0001
0000
0100
0001
0100
0010
,  // measure 81
1000
0000
0100
0000
0010
0000
0001
0000
1001
0000
1000
0000
0010
1000
0010
0100
,  // measure 82
0001
0000
0010
0000
0100
0000
1000
0000
0001
0100
0010
1000
0100
0010
0100
1000
,  // measure 83
0001
0010
1000
0001
0100
1000
0001
1000
0020
0000
0030
0000
0100
0100
0200
0300
,  // measure 84
1001
0000
0001
0010
0100
1000
0100
0010
,  // measure 85
0001
0101
1100
0101
,  // measure 86
1010
0000
0001
0010
0001
0010
0100
1000
,  // measure 87
0010
0000
1100
0000
0110
0000
0001
1000
,  // measure 88
0001
0000
0010
0100
1000
0100
0010
0001
,  // measure 89
0100
0011
1010
1001
,  // measure 90
0010
0000
0100
1000
0001
0010
0001
0000
,  // measure 91
0110
1100
0101
0110
,  // measure 92
2000
0000
3001
0010
0001
0000
1100
0000
,  // measure 93
1001
1100
0101
1001
,  // measure 94
0001
0010
0002
0000
1003
0100
1000
0001
,  // measure 95
0100
0000
0000
0010
0000
0000
0100
0000
0000
0001
0000
0000
1000
0000
0000
0000
0100
0000
0000
0000
0010
0000
0000
0000
,  // measure 96
0001
0010
0001
0010
0001
0000
1001
0000
,  // measure 97
1100
0000
0000
0000
0101
0000
0000
0000
0110
0000
0000
0000
0001
0010
0100
1000
,  // measure 98
0001
1100
0011
1001
,  // measure 99
0002
0000
0000
0000
0000
0000
0000
0000
0000
0000
0000
0000
0000
0000
0000
0000
0000
0000
0000
0000
0000
0000
0000
0000
0000
0000
0000
0000
0000
0000
0000
0000
0000
0000
0000
0000
0000
0000
0000
0000
0000
0000
0000
0000
0000
0000
0000
0000
0103
0000
0000
0000
0000
0000
0000
0000
0000
0000
0000
0000
0010
0000
0000
0000
0000
0000
0000
0000
0000
0000
0000
0000
0100
0000
0000
0000
0000
0000
0001
0000
0000
0000
0000
0000
0100
0000
0000
0000
0000
0000
0001
0000
0000
0000
0000
0000
1000
0000
0000
0000
0000
0000
0000
0000
0000
0000
0000
0000
0000
0000
0000
0000
0100
0000
0000
0000
0000
0000
0000
0000
0000
0000
0000
0000
0000
0000
0000
0000
0010
0000
0000
0000
0000
0000
0000
0000
0000
0000
0000
0000
0000
0000
0000
0000
0001
0000
0000
0000
0000
0000
0000
0000
0000
0000
0000
0000
0000
0000
0000
0000
0000
0000
0000
0000
0000
0000
0000
0000
0010
0000
0000
0000
0000
0000
0000
0000
0000
0000
0000
0000
0000
0000
0000
0000
0000
0000
0000
0000
0000
0000
0000
0000
,  // measure 100
0100
1000
0001
0010
0001
0100
0010
1000
,  // measure 101
0001
0000
0000
0100
0000
0000
0001
0000
0000
1000
0000
0000
0100
0000
0010
0000
0001
0000
0010
0000
0000
0100
0000
0000
,  // measure 102
1000
0000
0000
0010
0000
0000
0100
0000
0000
0001
0000
0000
0010
0000
0001
0000
0010
0000
0001
0000
0000
1000
0000
0000
,  // measure 103
0100
0000
1000
0000
0100
0000
1000
0000
0000
0001
0000
0000
0010
0000
0100
0000
1000
0000
0001
0000
0000
0100
0000
0000
,  // measure 104
0010
1000
0010
1000
0100
0010
0100
1000
,  // measure 105
0001
0000
0000
0010
0000
0000
0100
0000
0000
1000
0000
0000
0001
0000
0010
0000
0100
0000
1000
0000
0000
0001
0000
0000
,  // measure 106
0100
0000
0000
0001
0000
0000
1000
0000
0000
0100
0000
0000
0010
0000
0001
0000
0010
0000
0001
0000
0000
0100
0000
0000
,  // measure 107
0010
0000
1000
0000
0010
0000
1000
0000
0000
0001
0000
0000
1000
0000
0100
0000
0010
0000
0001
0000
0000
0010
0000
0000
,  // measure 108
0100
1000
0001
0100
0010
1000
0100
0010
,  // measure 109
0001
0000
0000
0010
0000
0000
0100
0000
0000
1000
0000
0000
0001
0000
0000
0000
0010
0000
0000
0000
0100
0000
0000
0000
1000
0000
0000
0000
0000
0000
0100
0000
0000
0000
0000
0000
0010
0000
0000
0000
0000
0000
0001
0000
0000
0000
0000
0000
,  // measure 110
1000
0010
0100
0001
0010
0100
2000
0000
,  // measure 111
3001
0000
0010
0000
0001
0000
0010
0000
0000
0100
0000
0000
1000
0000
0000
0010
0000
0000
0100
0000
0000
0001
0000
0000
,  // measure 112
0100
0010
1000
0100
0010
0100
1000
0001
,  // measure 113
0010
0000
0100
0000
0010
0000
0100
0000
0000
1000
0000
0000
0001
0000
0000
0010
0000
0000
0100
0000
0000
0010
0000
0000
,  // measure 114
0001
0100
0010
0000
0010
0100
0001
0000
1000
0000
1000
0000
1000
0000
1000
0000
,  // measure 115
1000
1000
1000
1000
1000
1000
1000
1000
,  // measure 116
1000
1000
1000
1000
1000
1000
1000
1000
,  // measure 117
1000
1000
1000
1000
1000
0000
0011
0000
,  // measure 118
1100
0000
0110
0000
0001
0001
0001
0001
,  // measure 119
0001
0001
0001
0001
0001
0001
0001
0001
,  // measure 120
0001
0001
0001
0001
0001
0000
0110
0000
,  // measure 121
1000
0000
0010
0000
0100
0000
0001
0000
0000
1000
0000
0000
0010
0000
0100
0000
0001
0000
1000
0000
0000
0001
0000
0000
,  // measure 122
0010
0000
0100
0000
1000
0000
0001
0000
0000
0100
0000
0000
0220
0000
0000
0000
0000
0000
0330
0000
0000
0000
0000
0000
;

//---------------dance-single - ----------------
#NOTES:
     dance-single:
     :
     Hard:
     18:
     1.028350,1.588857,0.526105,0.534456,0.405017,862.000000,799.000000,63.000000,64.000000,0.000000,0.000000,1.028350,1.588857,0.526105,0.534456,0.405017,862.000000,799.000000,63.000000,64.000000,0.000000,0.000000:
0000
0000
0000
0000
,
0000
0000
0000
0000
,
0000
0000
0000
0000
,
0000
0000
0000
0000
,
0000
0000
0000
0000
,
1000
0100
1000
0001
1000
0100
1000
0010
,
0100
1000
0100
0010
0100
1000
0100
0001
,
1000
0100
1000
0100
0010
0001
0010
0001
0100
0001
0100
0001
1000
0010
1000
0010
,
0100
0001
1000
0010
0100
0001
1000
0001
0010
0100
1000
0100
0010
0000
0000
0000
,
0110
0000
0110
0000
1000
0010
0000
0010
,
0001
0010
0000
0010
1000
0010
0000
0010
,
0001
0000
0110
0000
1000
0001
0010
0100
,
0120
0000
0000
0000
0130
0100
0020
0030
,
1001
0000
0001
0100
0010
1000
0010
1000
,
0001
0100
0001
0100
0010
1000
0010
1000
,
0100
0010
0001
0010
0100
1000
0100
1000
,
0010
0101
1010
0110
,
1001
0000
1000
0100
0010
0001
0010
0001
,
1000
0100
1000
0100
2000
3010
1000
0100
,
0002
0103
1000
0002
1003
0010
0002
0013
,
1000
0000
1010
0000
1001
0000
0001
0010
,
0100
0000
1000
0001
0010
0100
0010
0100
,
2000
3001
0010
0001
1000
0010
1000
0001
,
0100
0010
0100
0010
1000
0100
0020
0130
,
1000
0000
0010
0000
0010
0000
0100
0000
0001
0000
0001
0000
,
0010
0000
0001
1000
0200
0310
0100
0010
,
0001
1000
0100
1000
0001
0010
0000
1000
,
0020
0000
0000
0000
,
0032
0000
0000
0000
0103
0100
0020
0030
,
1001
0001
1000
1000
,
0010
0000
0010
0000
0001
0000
0001
1000
,
0001
0001
0100
0100
,
1000
0000
1000
0000
0010
0100
0010
0000
,
1000
1000
0001
0001
,
0010
0000
0000
0010
0000
0000
1000
0000
0010
0000
0001
0000
,
0010
0000
0200
1300
0100
0010
0000
0100
,
1000
0000
0000
1001
0000
0001
0100
0010
,
2000
0000
3100
0010
0100
0000
1001
0000
,
0001
0000
0010
0000
0010
1000
0010
0000
,
0010
0000
0001
0000
0001
0000
0100
0001
,
1000
0010
0000
0110
0000
0100
0001
0000
,
1001
0001
0010
0000
,
0110
0100
1000
1100
,
0010
0001
0000
0100
0020
0000
0030
0000
,
0220
0000
0330
2001
,
0000
3100
0000
0002
,
0000
0000
0013
0000
0000
0000
1000
0100
,
1000
0100
0010
0001
0010
0001
0100
0001
,
1000
0010
0100
0000
0010
0000
2002
3003
,
0001
0010
0100
0010
0002
0000
0000
0000
1003
0100
0010
0100
2000
0000
0000
0000
,
3010
0100
0001
0100
0020
0000
0000
0000
0130
0001
0010
0100
2000
0000
3100
0000
,
0021
0000
0000
0000
0130
0010
0001
0010
0200
0000
0000
0000
1300
0010
0100
0010
,
1000
0100
0010
0100
,
1100
0000
0000
0011
0000
0000
0110
0000
,
2000
0000
0000
0000
3001
0010
0100
1000
0002
0000
0000
0000
1003
0010
0100
0001
,
0010
0000
0010
0000
0100
1000
0001
0000
2000
0000
3010
0100
0001
0100
0010
1000
,
0010
0000
0100
0000
0001
0000
0001
0000
0020
0000
0130
1000
0100
0010
0100
1000
,
0010
0100
0020
0030
1200
0301
2001
0000
,
3100
0010
0001
0010
0200
0000
0000
0000
1300
0001
0100
0001
2000
0000
0000
0000
,
3001
0100
0010
0100
0002
0000
0000
0000
1003
0100
0010
0100
2000
0000
0000
0000
,
3010
0100
0001
1000
0010
0000
0000
0110
0000
0000
1001
0000
0010
0000
0010
0000
,
0100
0000
0010
0000
0021
0000
1030
0000
1002
0000
0000
0000
0013
0100
1000
0100
,
0020
0000
0000
0000
0031
1000
0010
1000
0002
0000
0000
0000
1003
0010
0100
0010
,
2000
0000
0000
0000
3001
0010
0100
0010
0002
0000
0000
0000
0103
0010
1000
0001
,
0010
0000
0110
0000
0100
1000
0001
0000
0010
0100
1000
0000
0001
0000
0000
0000
,
0200
0000
0010
0010
0000
0000
0010
0000
,
0302
0000
0010
0010
0000
0000
0010
0000
,
2003
0000
0100
0100
0000
0000
0100
0000
,
3020
0000
0100
0100
0000
0000
0130
0000
,
1000
0100
1000
0010
1000
0100
1000
0010
,
0100
1000
0100
0010
0100
1000
0100
0001
,
1000
0100
1000
0100
0010
0001
0010
0001
0100
0001
0100
0001
1000
0010
1000
0010
,
0100
0001
0010
0100
0020
0000
0200
0330
1001
0000
0000
0000
1001
0000
0000
0000
,
0001
0100
0010
0000
1010
0000
1010
0000
,
1000
0100
0010
0000
0011
0000
0011
0000
,
0100
1000
0001
0000
1001
0000
0110
0000
,
2002
3003
0011
0011
,
0100
1000
0001
0000
0101
0000
0101
0000
,
0010
1000
0001
0000
0110
0000
0110
0000
,
1000
0001
0010
0000
0110
0000
1001
0000
,
0220
0000
0000
0000
0330
0000
0000
0000
1000
0000
0001
0000
0100
0010
1000
0010
,
0100
0000
0001
0000
0010
0000
0100
0000
1000
0000
0100
0000
0010
0001
0010
0100
,
0010
0000
0001
0000
0100
0000
0010
0000
1000
0100
0010
0100
1000
0001
0010
0100
,
1000
0001
1000
0010
0100
0001
0010
0100
0020
0000
0030
0000
0100
1000
0002
0003
,
1001
0000
0001
0100
0001
0100
0010
1000
,
0001
0010
0100
0010
,
1001
0000
0001
0010
0100
1000
0100
0010
,
0001
0000
1000
0000
0110
0000
0001
1000
,
0001
0000
1000
0100
0010
0001
0010
0100
,
0010
0001
0100
0010
,
1010
0000
0010
1000
0010
1000
0001
0000
,
0010
1010
0010
0011
,
2000
0000
3010
0100
0001
0000
0110
0000
,
0001
0010
0100
1000
,
0100
0010
0200
0000
1300
0100
0010
0001
,
1000
0000
0000
0100
0000
0000
1000
0000
0000
0100
0000
0000
1000
0000
0000
0000
0001
0000
0000
0000
0100
0000
0000
0000
,
0010
1000
0010
1000
0010
0000
0110
0000
,
0001
0000
0010
0000
0100
0000
0010
0001
,
0010
0100
1000
0001
,
0020
0000
0000
0000
0130
1000
0100
1000
0001
0000
0100
0000
0001
0000
0100
0000
,
0001
0010
0100
1000
0010
0100
0010
0100
,
0001
0100
0010
1000
0001
0100
0001
1000
,
0100
0010
0100
1000
0001
0100
0001
0100
,
0010
1000
0010
1000
0001
0010
1000
0010
,
0001
0010
0100
1000
0001
1000
0100
1000
,
0001
0010
0100
1000
0001
1000
0100
0010
,
0001
1000
0010
0100
0001
0100
0002
0000
,
1003
0100
2000
0000
3001
0010
0100
1000
,
0010
0100
0010
1000
0001
0100
0010
1000
,
0001
0100
0001
1000
0100
0000
0010
0000
0100
0000
1000
0000
0001
0000
0010
0000
,
0100
1000
0100
0010
0100
0010
0002
0000
,
1003
0100
1000
0010
0100
0010
1000
0001
,
0010
0100
1000
0001
1000
0010
0100
0001
,
1000
0010
0001
0010
1000
0010
0100
0001
,
0010
0100
0010
0000
0100
1000
0001
0000
0100
0000
0010
0000
0100
0000
0010
0000
,
0100
0010
0100
0010
0100
0010
0100
0010
,
0100
0010
0100
0010
0100
0010
0100
0010
,
0100
0010
0100
0010
1000
0000
0011
0000
,
0110
0000
1100
0000
0100
0010
0100
0010
,
0100
0010
0100
0010
0100
0010
0100
0010
,
0100
0010
0100
0010
0001
0000
1001
0000
,
1000
0010
0100
0001
1000
0010
0100
0001
,
0010
0100
1000
0001
2002
0000
3003
0000
;

//---------------dance-single - ----------------
#NOTES:
     dance-single:
     :
     Medium:
     16:
     0.830315,1.383844,0.250526,0.501052,0.212947,696.000000,666.000000,30.000000,60.000000,0.000000,0.000000,0.830315,1.383844,0.250526,0.501052,0.212947,696.000000,666.000000,30.000000,60.000000,0.000000,0.000000:
0000
0000
0000
0000
,
0000
0000
0000
0000
,
0000
0000
0000
0000
,
0000
0000
0000
0000
,
0000
0000
0000
0000
,
1000
0100
1000
0100
0010
0001
0010
0001
,
0100
0001
0100
0001
1000
0010
1000
0010
,
0100
0100
0001
0001
0010
0010
0100
0100
,
1000
0100
1000
0000
0010
1000
0010
0000
0100
0001
0100
0001
0010
0000
0000
0000
,
0110
0000
0100
0000
1000
0001
0000
0001
,
0100
0010
0000
0010
1000
0100
0000
0100
,
0010
0000
0100
0000
0100
1000
0001
0000
,
0220
0000
0330
0000
0001
0100
0002
0003
,
1001
0000
1000
0100
0010
0001
0010
0001
,
1000
0100
1000
0100
0010
0001
0010
0001
,
1000
0100
0010
0001
1000
0100
0010
0001
,
1000
0010
0100
0001
,
1001
0000
0001
0010
0100
1000
0100
1000
,
0001
0010
0001
0010
0200
1300
0001
0010
,
0200
1300
0001
0200
0301
1000
0200
0310
,
0001
0000
0110
0000
1000
0000
0001
0100
,
0010
0000
1000
0100
0010
0001
0010
0001
,
2000
3100
1000
0100
0010
0001
0100
0010
,
1000
0010
1000
0010
0100
0001
0020
0130
,
1000
0000
0100
0000
0010
0000
0001
0000
0010
0000
0100
0000
,
1000
0000
0001
0100
0020
1030
0010
1000
,
0100
0010
0100
0010
0001
0010
0000
0100
,
2000
0000
0000
0000
,
0002
0000
3003
0000
,
1000
0100
1000
0010
,
0100
0000
0010
0000
1000
0000
0100
0010
,
0100
1000
0001
0010
,
0100
0000
0010
0000
0001
0100
0001
0000
,
1000
0010
0100
0010
,
1000
0000
0000
0100
0000
0000
0010
0000
0100
0000
0010
0000
,
0001
0000
1000
0100
0010
0001
0000
1000
,
0100
0000
0000
0110
0000
0100
0010
0000
,
0002
0000
1003
0100
1000
0000
0010
0000
,
0100
0000
0001
0000
0100
0010
1000
0000
,
0100
0000
0010
0000
0100
0000
0010
0001
,
0010
0001
0000
0010
0000
0100
0000
0000
,
1000
0010
0010
0000
,
0001
0010
0010
1000
,
0100
0010
0000
0100
0020
0000
0030
0000
,
2002
0000
3003
0002
,
0000
0103
0000
2000
,
0000
0000
3010
0000
0000
0000
0001
0010
,
0100
1000
0001
0010
0100
1000
0010
0100
,
0001
0100
0010
0000
1000
0000
2002
3003
,
0001
0010
2000
0000
3001
0100
2000
0000
,
3010
0001
2000
0000
3100
0001
0020
0130
,
2001
0000
3010
0100
2000
0000
3100
0001
,
0010
0100
1000
0001
,
1001
0000
0000
0110
0000
0000
0011
0000
,
2010
0000
0000
0000
3100
0000
0010
0000
0200
0000
0000
0000
0310
0001
0010
0000
,
0100
0000
1000
0000
0001
1000
0001
0000
0020
0000
0031
1000
0010
0100
0010
1000
,
0001
0000
0010
0000
0100
0000
1000
0000
0200
0000
1300
0001
0010
0100
0010
0001
,
1000
0010
0200
0300
2001
3100
1002
0000
,
0103
0000
0001
1000
0100
0000
0000
0110
0000
0000
0110
0000
1002
0000
0000
0000
,
0203
0000
0320
0000
1030
0001
0020
0000
,
0130
0000
1000
0100
0010
0000
0000
1100
0000
0000
1001
0000
0010
0000
0010
0000
,
0100
0010
1002
0103
2001
0000
3100
0000
,
0002
0000
0000
0000
0013
0100
0010
0000
0001
0000
0001
0000
1000
0100
1000
0000
,
0010
0000
0000
0110
0000
0000
0100
0000
0001
0000
1000
0001
1000
0000
0100
0000
,
0001
0000
0100
0000
1000
0001
0010
0000
0100
1000
0001
0000
0100
0000
0000
0000
,
0020
0000
0000
0100
,
2030
0000
0000
3000
,
0002
0000
0023
0230
,
2300
0000
0000
3000
,
0001
0100
0001
0100
0010
1000
0010
1000
,
0100
1000
0100
1000
0001
0010
0001
0010
,
0100
0010
0100
0000
1000
0100
1000
0000
0010
1000
0010
0000
0100
0010
0100
0000
,
0001
0010
0100
1000
0002
0000
2000
3003
1001
0000
0000
0000
0100
0000
0000
0000
,
1000
0010
0000
0010
1000
0000
0100
0000
,
0010
0001
0000
0001
0010
0000
0100
0000
,
1000
0010
0000
0010
0100
0000
0001
0000
,
2002
3003
1001
0010
,
0001
0100
0000
0100
0001
0000
0010
0000
,
0100
1000
0000
1000
0100
0000
0010
0000
,
0001
0100
0000
0100
0010
0000
1000
0000
,
2002
0000
0000
0000
3003
0000
0000
0000
1001
0000
0100
0000
0010
0001
0010
0001
,
0010
0000
0100
0000
1000
0000
0001
0000
0100
0000
0010
0000
1000
0100
1000
0100
,
1000
0000
0010
0000
0100
0000
0001
0000
1000
0100
1000
0100
0010
0001
0010
0001
,
1000
0100
0010
0001
1000
0100
0010
0001
2000
0000
3000
0000
0010
0100
0020
0030
,
1001
0000
0001
0100
0001
0100
0010
1000
,
0010
0100
0001
0010
,
0100
0000
0100
0000
1000
0001
1000
0001
,
0010
0000
0001
0000
1000
0000
0100
1000
,
0001
0000
0100
0000
0100
0010
0100
0010
,
1000
0001
0100
0001
,
1000
0000
0100
0010
0100
0010
0001
0000
,
1000
0100
0010
0001
,
2000
0000
3001
0100
0001
0000
1000
0000
,
0010
0100
0001
1000
,
0001
0010
0002
0000
0013
0000
0010
0000
,
0001
0000
0000
0010
0000
0000
0001
0000
0000
0010
0000
0000
0001
0000
0000
0000
0100
0000
0000
0000
0010
0000
0000
0000
,
1000
0010
1000
0010
1000
0000
0001
0000
,
0100
0000
0010
0000
1000
0000
0100
0010
,
0001
0001
0010
0100
,
2000
0000
3002
0000
1003
0100
1000
0000
,
0001
0000
0100
0000
0010
1000
0010
0000
,
0100
0000
1000
0000
0100
0010
0100
0000
,
0001
0000
1000
0000
0001
0010
0001
0000
,
0010
1000
0010
0000
0001
0100
0001
0000
,
1000
0000
0010
0000
0100
0010
0100
0000
,
0001
0000
1000
0000
0010
0100
0010
0000
,
1000
0000
0100
0000
0010
0001
0010
0000
,
0100
1000
0001
0000
0100
0001
0100
0000
,
0010
1000
0001
0010
,
0100
1000
0010
1000
,
0100
0000
0010
0001
0010
0000
2000
0000
,
3010
0001
0010
0000
1000
0000
0010
0000
,
0001
1000
0100
1000
,
0001
0010
0100
1000
,
0010
0100
0010
0000
0100
0010
0100
0000
0001
0000
0000
0000
0001
0000
0000
0000
,
0001
0001
0001
0001
,
0001
0001
0001
0001
,
0001
0001
0001
0100
,
0010
1001
1000
1000
,
1000
1000
1000
1000
,
1000
1000
1000
0100
,
0010
0001
0000
0100
1000
0100
0000
0001
,
0010
0100
0000
1000
0002
0000
0003
0000
;

//---------------dance-single - ----------------
#NOTES:
     dance-single:
     :
     Easy:
     13:
     0.631087,1.025069,0.250526,0.367438,0.012526,529.000000,499.000000,30.000000,44.000000,0.000000,0.000000,0.631087,1.025069,0.250526,0.367438,0.012526,529.000000,499.000000,30.000000,44.000000,0.000000,0.000000:
0000
0000
0000
0000
,
0000
0000
0000
0000
,
0000
0000
0000
0000
,
0000
0000
0000
0000
,
0000
0000
0000
0000
,
1000
0100
1000
0001
1000
0100
1000
0001
,
0100
0010
0100
0001
0100
0010
0100
0001
,
0010
0100
1000
0001
1000
0100
0010
0001
,
0100
0010
0100
0010
1000
1000
0001
0000
,
1001
0000
0001
0000
0010
1000
0000
0000
,
0010
0001
0000
0000
0010
1000
0000
0000
,
0110
0100
1000
0010
,
0120
0000
1030
0001
,
0011
0100
0100
0100
,
0100
0100
0100
0100
,
0100
0100
0100
0100
,
1000
0010
0001
0010
,
1010
0001
0001
0001
,
0001
0001
1000
0100
,
0010
0000
0000
1100
0000
0000
1001
0000
,
0100
0100
0010
1000
,
1100
0010
0010
0010
,
0010
0010
0100
1000
,
0001
0100
1000
0100
,
0010
0010
0100
0100
,
1001
0001
0010
0010
,
0100
0100
0010
0000
,
2002
0000
0000
3003
,
0220
0000
0330
0000
,
1000
0100
1000
0100
,
0010
0100
0010
0100
,
0010
0001
0010
0001
,
0100
0010
1000
0000
,
0001
0010
0001
0010
,
0100
0010
0100
0010
,
0100
1000
0100
1000
,
0010
0000
0000
0100
0000
0000
0001
0000
,
0020
0130
0010
0001
,
0010
0001
1000
0100
,
1000
0100
1000
0010
,
0000
1000
0000
1000
0000
1000
0000
0000
,
0001
0010
0001
0000
,
1000
0100
1000
0010
,
0000
0100
0000
0000
0220
0000
0330
0000
,
2002
0000
3003
0002
,
0000
0013
0000
2000
,
0000
3100
0000
0001
,
0100
0010
1000
0100
,
0010
0100
0000
1001
,
0001
0100
0020
0000
1030
0100
0020
0000
,
0031
1000
0020
0000
0130
0000
0200
0310
,
2001
0000
3100
0010
0002
0000
0013
0100
,
1000
0010
0100
0001
,
0010
0000
0000
0100
0000
0000
0010
0000
,
0120
0000
0031
0100
0020
0000
1030
0100
,
0010
0010
0100
0000
1000
0100
1000
0010
,
0100
0010
1000
0000
0001
0100
0001
0010
,
0100
0010
0001
0000
2001
0100
3020
0000
,
0130
0001
2000
0000
3100
0000
0002
0000
,
0013
0000
2000
0000
3001
0100
0020
0000
,
0130
0000
0000
0000
0010
0000
0000
0010
0000
0000
1000
0000
0010
0000
0010
0000
,
0100
0001
0020
0130
2001
0000
3010
0100
,
0020
0000
1030
0100
1000
0001
0100
0000
,
0020
1030
0002
0013
,
0100
0010
0100
0010
0100
0100
1000
0000
,
0002
0000
0000
0010
,
2000
0000
0000
3003
,
2000
0000
0100
0000
,
0002
0000
0000
3003
,
1000
0100
1000
0001
1000
0100
1000
0001
,
0100
0010
0100
0001
0100
0010
0100
0001
,
0010
0100
1000
0001
1000
0100
0010
0001
,
0100
0010
0100
0010
2000
0000
3001
0000
1001
0000
0000
0000
1000
0000
0000
0000
,
0100
0000
1001
0001
,
0100
0000
1001
0001
,
0010
0000
1001
1000
,
0020
0030
0110
0010
,
1000
0000
0110
0010
,
0001
0000
0110
0100
,
1000
0000
0110
0100
,
0002
0000
0003
0000
1000
0100
1000
0100
,
0010
0001
1000
0000
0001
0100
0001
0100
,
0010
1000
0001
0000
1000
0100
0010
0001
,
0100
0010
1000
0100
0020
0030
0100
0100
,
1000
0100
0010
0001
,
0100
0010
1000
1000
,
0010
0100
0001
0010
,
0100
1000
0001
0001
,
1000
0100
0010
0001
,
0100
0010
1000
1000
,
0010
0100
0001
0010
,
0100
1000
0001
0010
,
0200
0310
0001
1000
,
0100
1000
0001
0100
,
0010
1000
0010
1000
,
0100
0010
0100
0010
,
0001
0010
0001
1000
,
0001
0100
0010
1000
,
0100
0010
0001
1000
,
0002
0000
1003
0100
,
0010
0100
1000
0010
,
0100
0010
1000
0100
,
0010
0001
0010
0010
,
0100
0100
1000
0010
,
0100
0010
1000
0100
,
0010
0100
1000
0010
,
0100
0001
0100
0100
,
0010
0010
0100
0001
,
0010
0100
1000
0001
,
1000
0010
1000
0100
,
0010
0001
1000
0002
,
1003
0100
0010
0001
,
0010
0100
1000
0001
,
1000
0010
0100
0001
,
0010
0110
1000
0100
,
1000
0100
1000
0100
,
1000
0100
1000
0100
,
1000
0100
1000
0010
,
0100
1001
0001
0010
,
0001
0010
0001
0010
,
0001
0010
0001
0110
,
1000
0100
0000
0000
0001
0100
0000
0000
,
1000
0010
0000
0000
0220
0000
0330
0000
;

//---------------dance-single - ----------------
#NOTES:
     dance-single:
     :
     Beginner:
     7:
     0.308982,0.512535,0.308982,0.300631,0.000000,259.000000,222.000000,37.000000,36.000000,0.000000,0.000000,0.308982,0.512535,0.308982,0.300631,0.000000,259.000000,222.000000,37.000000,36.000000,0.000000,0.000000:
0000
0000
0000
0000
,
0000
0000
0000
0000
,
0000
0000
0000
0000
,
0000
0000
0000
0000
,
0000
0000
0000
0000
,
0010
0010
0010
0010
,
0100
0100
0100
0100
,
1000
0001
0010
1000
,
0010
0001
0200
0300
,
1001
0000
0000
0000
,
0100
0000
0000
0000
,
1001
0000
0100
0000
,
0220
0000
0330
0000
,
1001
0000
0010
0000
,
0010
0000
0010
0000
,
0100
0000
0100
0000
,
0010
0010
0010
0000
,
0110
0000
0001
0000
,
0001
0000
0001
0000
,
0100
0000
0100
0000
,
0010
0010
0010
0000
,
1001
0000
1000
0000
,
1000
0000
0100
0000
,
0010
0000
0010
0000
,
0100
0000
0100
0000
,
0110
0000
0001
0000
,
1000
0000
1000
0000
,
2002
0000
3003
0000
,
0220
0000
0330
0000
,
1000
0000
0100
0000
,
1000
0000
0100
0000
,
1000
0000
0001
0000
,
1000
0000
0001
0000
,
0100
0000
0010
0000
,
0100
0000
0010
0000
,
1000
0000
0100
0000
,
0001
0000
0100
0000
,
0000
1000
0000
0001
,
0000
0001
0000
0010
,
0000
0100
0000
1000
,
0000
0001
0000
0000
,
0000
0110
0000
0000
,
0000
1001
0000
0010
,
0000
0000
0000
0200
,
0000
0300
0000
1001
,
0000
0000
0000
0010
,
0000
0010
0000
1000
,
0000
0001
0000
0010
,
0000
0100
0000
1001
,
0000
0220
0330
2002
,
3003
0220
0330
0110
,
2002
3003
0220
0330
,
0110
0000
0001
0000
,
1000
0000
0010
0000
,
0220
0330
2002
3003
,
0110
0100
0001
0010
,
0100
0000
1000
0010
,
0100
0000
0110
2002
,
3003
0100
0100
0110
,
0000
0001
0000
0110
,
0000
0100
0100
0010
,
0010
0100
1001
0000
,
0010
0100
0010
0000
,
0001
0000
1000
0000
,
0001
0010
0100
0000
,
2000
0000
0000
0000
,
0000
0000
0000
3000
,
0002
0000
0000
0000
,
0000
0000
0000
0003
,
0100
0100
0100
0100
,
0010
0010
0010
0010
,
1000
0100
0001
0100
,
1000
0000
0002
0003
0110
0000
0000
0000
,
0000
0000
1001
0000
,
0000
0000
0110
0000
,
0000
0000
0100
0000
,
0100
0000
0110
0000
,
0000
0000
1001
0000
,
0000
0000
0110
0000
,
0000
0000
0100
0000
,
0100
0000
0010
0000
,
0001
0000
0010
0000
,
1000
0000
0100
0100
,
0100
0100
0010
0000
,
0010
0000
0010
0000
,
0010
0000
0000
0000
,
0001
0000
0001
0000
,
0001
0000
0000
0000
,
1000
0000
1000
0000
,
1000
0000
0000
0000
,
0010
0000
0100
0000
,
0001
0000
1000
0000
,
0000
0000
0001
0000
,
0010
0000
0010
0000
,
0000
0000
1000
0000
,
0010
0000
0010
0000
,
0001
0000
0100
0000
,
0010
0000
0000
0000
,
1000
0000
0100
0000
,
0020
0030
0001
0000
,
1000
0000
0100
0000
,
1000
0000
0001
0000
,
0010
0000
2000
0000
,
3000
0000
0001
0000
,
0100
0000
1000
0000
,
0001
0000
0100
0000
,
0001
0000
2000
0000
,
3000
0000
0100
0000
,
1000
0000
0020
0000
,
0030
0100
0000
0001
,
0000
0020
0000
0030
,
0100
0000
0010
0000
,
0001
0000
0100
0000
,
0010
0000
1000
0000
,
0001
0000
2000
0000
,
0000
0000
0000
0000
,
0000
0000
0000
0000
,
0000
0000
3000
0000
,
1001
0000
0002
0000
,
0000
0000
0000
0000
,
0000
0000
0003
0000
,
1001
0000
0010
0000
,
0100
0000
2002
3003
;

//---------------dance-double - ----------------
#NOTES:
     dance-double:
     :
     Challenge:
     19:
     1.198946,1.742618,0.885192,0.375789,0.847613,1005.000000,899.000000,106.000000,45.000000,0.000000,0.000000,1.198946,1.742618,0.885192,0.375789,0.847613,1005.000000,899.000000,106.000000,45.000000,0.000000,0.000000:
00000000
00000000
00000000
00000000
,
00000000
00000000
00000000
00000000
,
00000000
00000000
00000000
00000000
,
00000000
00000000
00000000
00000000
,
00000000
00000000
00000000
00000000
,
00100000
01000000
00100000
00010000
00100000
01000000
00100000
00001000
,
00010000
00000010
00000100
00000010
00000001
00000010
00001000
00000010
,
00000100
00000001
00000100
00000001
00001000
00000100
00001000
00000100
00000010
00000100
00000010
00000100
00000010
00001000
00000010
00001000
,
00010000
00001000
00100000
00010000
01000000
00100000
10000000
00100000
01000000
00010000
00100000
01000000
10000000
00000000
00000000
00000000
,
10010000
00000000
00000000
00000000
00000000
00000000
10010000
00000000
00000000
00000000
00000000
00000000
10000000
00000000
00100000
00000000
10000000
00000000
00100000
00000000
00000000
01000000
00000000
00000000
,
00010000
00000000
00100000
00000000
00010000
00000000
00100000
00000000
00000000
01000000
00000000
00000000
00010000
00000000
00001000
00000000
00010000
00000000
00001000
00000000
00000000
00010000
00000000
00000000
,
00011000
00000000
00000000
00000000
00000000
00000000
00011000
00000000
00000000
00000000
00000000
00000000
00000010
00000000
00001000
00000000
00000010
00000000
00001000
00000000
00000000
00000001
00000000
00000000
,
00000022
00000000
00000033
00000000
00000100
00000010
00000200
00000300
,
00001001
00000000
00001000
00000001
00000100
00000010
00000100
00000010
,
00000100
00000010
00000100
00000010
00000100
00000010
00000100
00000010
,
00001000
00000001
00001000
00000001
00000010
00000100
00010000
00001000
,
00010000
00011000
00010010
01001000
,
00011000
00000000
00100000
00010000
10000000
01000000
10000000
01000000
,
10000000
00000000
01000000
00000000
10000000
00000000
01000000
00000000
00100000
00010000
00100000
00000000
01000000
00000000
10000000
00000000
,
00010000
01000000
00010000
00000000
10000000
00000000
00100000
10000000
00100000
00000000
10000000
00000000
00010000
00100000
00010000
00000000
,
01100000
00000000
01000000
00000000
00100000
00000000
00010000
10000000
,
00010000
00000000
01000000
00100000
10000000
00010000
10000000
00010000
,
00100000
00000000
01000000
00000000
00100000
00000000
01000000
00000000
00000000
10000000
00000000
00000000
00010000
00000000
00000000
00100000
00000000
00000000
01000000
00000000
00000000
00100000
00000000
00000000
,
00001000
00000000
00010000
00000000
00001000
00000000
00010000
00000000
00000010
00000000
00010000
00000000
00001000
00010000
00001000
00010000
,
00001000
00000000
00100000
00000000
00001000
00000000
00010000
00000000
01000000
00000000
10000000
00000000
,
11000000
00000000
00000000
00000000
00000000
00000000
01000000
00000000
00000000
10000000
00000000
00000000
00010000
00000000
00100000
00000000
00010000
00000000
00100000
00000000
00000000
01000000
00000000
00000000
,
10000000
00100000
01000000
00010000
00100000
00100000
00000000
01000000
,
02200000
00000000
00000000
03300000
,
20020000
00000000
00030000
00000000
30100000
01000000
00200000
00300000
,
10010000
11000000
00110000
00110000
,
00011000
00000000
01001000
00000000
00011000
00000000
00010000
00001000
,
00000010
00000011
00000110
00000110
,
00001100
00000000
00001001
00000000
00000001
00000100
00000010
00000000
,
00001010
00011000
00001100
00001100
,
00011000
00000000
00000000
00101000
00000000
00000000
00100000
00000000
01000000
00000000
00100000
00000000
,
00010000
00000000
00000000
00000000
10000000
01000000
10000000
01000000
00100000
00000000
01000000
00000000
00000000
00000000
10000000
00000000
,
00200000
00000000
00300000
01100000
00000000
00100000
01000000
00010000
,
20000000
00000000
00000000
30010000
00100000
00010000
00100000
00000000
00000000
01100000
00000000
00000000
,
00110000
00000000
00101000
00000000
00001000
00010000
00001000
00000000
,
00011000
00000000
00010010
00000000
00011000
00000000
00000100
00000010
,
00000100
00000010
00000000
00000011
00000000
00000001
00000100
00000000
,
00001010
00011000
00001010
00010000
,
00011000
00110000
00011000
01000000
,
00010000
10000000
00000000
01000000
00200000
00000000
00300000
00000000
,
22000000
00000000
33000000
02020000
,
03030000
00200000
00300000
20000000
,
30100000
00000000
00020000
00000000
00031000
00000000
00000100
00000001
,
00000100
00000010
00001000
00000001
00000010
00000100
00001000
00000001
,
00001000
00000001
00000100
00000000
00000010
00000000
00000220
00000330
,
00000001
00000100
00000010
00001000
00000100
00010000
00000100
00010000
00001000
00100000
00010000
01000000
00100000
10000000
00100000
10000000
,
00010000
00100000
01000000
10000000
01000000
00100000
01000000
00100000
00010000
10000000
00100000
01000000
00020000
00000000
10030000
10010000
,
10000000
01000000
10000000
01000000
00100000
00010000
10000000
00100000
01000000
00010000
01000000
00010000
01000000
00001000
00010000
00001000
,
00011000
00110000
00011000
00001100
,
00011000
00000000
00000000
00001010
00000000
00000000
00000110
00000000
,
00001000
00000010
00001000
00000010
00000100
00000001
00000010
00000100
00010000
00001000
00010000
00001000
01000000
00001000
00010000
00001000
,
00100000
00010000
00100000
01000000
10000000
00010000
00100000
01000000
20000000
00000000
30010000
01000000
00100000
10000000
00010000
01000000
,
00010000
00000000
00100000
00000000
01000000
00000000
10000000
00000000
01000000
00000000
00100000
01000000
10000000
00010000
00100000
01000000
,
00100000
00000000
00001000
00000000
00020000
00000000
00030000
00000000
00012000
00000000
00003100
00000000
00000001
00000010
00000100
00001000
,
00000001
00000010
00000100
00001000
00000010
00000100
00001000
00010000
00000010
00000100
00001000
00010000
00000100
00001000
00010000
00100000
,
00001000
00010000
00100000
01000000
00010000
00100000
01000000
10000000
00010000
00100000
01000000
10000000
00010000
01000000
00100000
10000000
,
00010000
01000000
00100000
10000000
00010000
00000000
00000000
00110000
00000000
00000000
01100000
00000000
00100000
00000000
00100000
00000000
,
01000000
00000000
10000000
00000000
00200000
00000000
00010000
00000000
10300000
01000000
00100000
00010000
10000000
01000000
00100000
00010000
,
01000000
00100000
00010000
00001000
01000000
00100000
00010000
00001000
00100000
00010000
00001000
00000100
00010000
00001000
00000100
00000010
,
00001000
00000100
00000010
00000001
00001000
00000100
00000010
00000001
00001000
00000010
00000100
00000001
00001000
00000010
00000100
00000001
,
00001000
00000000
00001100
00000000
00000010
00000100
00000010
00000000
00000001
00000010
00000001
00000000
00000100
00000000
00000000
00000000
,
00000220
00000000
00000300
00001000
,
00020000
00000000
00000000
00030030
,
00002000
00000000
00000010
00023000
,
00002000
00000000
00000000
00033000
,
00100000
01000000
00100000
00010000
00100000
01000000
00100000
00001000
,
00010000
00000010
00000100
00000010
00000001
00000010
00001000
00000010
,
00000100
00000001
00000100
00000001
00001000
00000100
00001000
00000100
00000010
00000100
00000010
00000100
00000010
00001000
00000010
00001000
,
00010000
00001000
00100000
00010000
02000000
00000000
00200000
03300000
10010000
00000000
00000000
00000000
10010000
00000000
00000000
00000000
,
00010000
00000000
00100000
00000000
01000000
00000000
10000000
00000000
00000000
00010000
00000000
00000000
10010000
00000000
00000000
00000000
00000000
00000000
10010000
00000000
00000000
00000000
00000000
00000000
,
10000000
00000000
00100000
00000000
00010000
00000000
00001000
00000000
00000000
00010000
00000000
00000000
00011000
00000000
00000000
00000000
00000000
00000000
00011000
00000000
00000000
00000000
00000000
00000000
,
00010000
00000000
00001000
00000000
00000010
00000000
00000001
00000000
00000000
00001000
00000000
00000000
00001001
00000000
00000000
00000000
00000000
00000000
00001001
00000000
00000000
00000000
00000000
00000000
,
00000220
00000330
00001001
00001001
,
00001000
00000000
00000100
00000000
00000010
00000000
00000001
00000000
00000000
00001000
00000000
00000000
00001001
00000000
00000000
00000000
00000000
00000000
00001001
00000000
00000000
00000000
00000000
00000000
,
00000001
00000000
00000100
00000000
00001000
00000000
00010000
00000000
00000000
00001000
00000000
00000000
00011000
00000000
00000000
00000000
00000000
00000000
00011000
00000000
00000000
00000000
00000000
00000000
,
00001000
00000000
00010000
00000000
01000000
00000000
10000000
00000000
00000000
00010000
00000000
00000000
10010000
00000000
00000000
00000000
00000000
00000000
10010000
00000000
00000000
00000000
00000000
00000000
,
02200000
00000000
00000000
00000000
03300000
00000000
00000000
00000000
10010000
00000000
00010000
00000000
00100000
01000000
10000000
01000000
,
00100000
00000000
00001000
00000000
00010000
00000000
00000010
00000000
00001000
00000000
00001000
00000000
00000001
00000010
00000100
00000010
,
00000001
00000000
00000001
00000000
00000100
00000000
00000010
00000000
00001000
00000001
00000010
00000100
00001000
00000100
00000010
00001000
,
00010000
01000000
10000000
00010000
10000000
01000000
00100000
00010000
20000000
00000000
30000000
00000000
00100000
01000000
00200000
00300000
,
10010000
00000000
10000000
01000000
10000000
01000000
00100000
00010000
,
10000000
00110000
01100000
11000000
,
10000000
00000000
00100000
01000000
00100000
00010000
00001000
00000100
,
00000001
00000000
00001010
00000000
00000011
00000000
00000010
00000100
,
00000010
00000000
00000001
00001000
00000100
00001000
00000100
00000010
,
00000001
00000101
00001100
00011000
,
00100000
00000000
00010000
00100000
10000000
00100000
00010000
00000000
,
11000000
01100000
01010000
01100000
,
20000000
00000000
30010000
00100000
00010000
00000000
00011000
00000000
,
00110000
10010000
01010000
00011000
,
00000010
00001000
00000020
00000000
00000130
00000001
00001000
00000100
,
00001000
00000000
00000000
00000001
00000000
00000000
00000010
00000000
00000000
00000100
00000000
00000000
00010000
00000000
00000000
00000000
00001000
00000000
00000000
00000000
00100000
00000000
00000000
00000000
,
00001000
00010000
00001000
00010000
00001000
00000000
00011000
00000000
,
00000010
00000000
00000000
00000000
00010000
00000000
00000000
00000000
00001000
00000000
00000000
00000000
00100000
00010000
00100000
00010000
,
00100000
01000000
10000000
10010000
,
00200000
00000000
00000000
00000000
00000000
00000000
00000000
00000000
00000000
00000000
00000000
00000000
00000000
00000000
00000000
00000000
00000000
00000000
00000000
00000000
00000000
00000000
00000000
00000000
00000000
00000000
00000000
00000000
00000000
00000000
00000000
00000000
00000000
00000000
00000000
00000000
00000000
00000000
00000000
00000000
00000000
00000000
00000000
00000000
00000000
00000000
00000000
00000000
01300000
00000000
00000000
00000000
00000000
00000000
00000000
00000000
00000000
00000000
00000000
00000000
00010000
00000000
00000000
00000000
00000000
00000000
00000000
00000000
00000000
00000000
00000000
00000000
10000000
00000000
00000000
00000000
00000000
00000000
01000000
00000000
00000000
00000000
00000000
00000000
10000000
00000000
00000000
00000000
00000000
00000000
01000000
00000000
00000000
00000000
00000000
00000000
00100000
00000000
00000000
00000000
00000000
00000000
00000000
00000000
00000000
00000000
00000000
00000000
00000000
00000000
00000000
00000000
01000000
00000000
00000000
00000000
00000000
00000000
00000000
00000000
00000000
00000000
00000000
00000000
00000000
00000000
00000000
00000000
00100000
00000000
00000000
00000000
00000000
00000000
00000000
00000000
00000000
00000000
00000000
00000000
00000000
00000000
00000000
00000000
01000000
00000000
00000000
00000000
00000000
00000000
00000000
00000000
00000000
00000000
00000000
00000000
00000000
00000000
00000000
00000000
00000000
00000000
00000000
00000000
00000000
00000000
00000000
00000000
10000000
00000000
00000000
00000000
00000000
00000000
00000000
00000000
00000000
00000000
00000000
00000000
00000000
00000000
00000000
00000000
00000000
00000000
00000000
00000000
00000000
00000000
00000000
00000000
,
00010000
00100000
00010000
10000000
01000000
10000000
00100000
01000000
,
00010000
00000000
00000000
01000000
00000000
00000000
00001000
00000000
00000000
00010000
00000000
00000000
00001000
00000000
00100000
00000000
00001000
00000000
00100000
00000000
00000000
00010000
00000000
00000000
,
00100000
00000000
00000000
00001000
00000000
00000000
00010000
00000000
00000000
00001000
00000000
00000000
00010000
00000000
00000100
00000000
00010000
00000000
00000100
00000000
00000000
00010000
00000000
00000000
,
00001000
00000000
00010000
00000000
00001000
00000000
00010000
00000000
00000000
00001000
00000000
00000000
00010000
00000000
00000010
00000000
00010000
00000000
00000010
00000000
00000000
00001000
00000000
00000000
,
00000010
00000100
00000001
00001000
00000001
00000010
00000100
00001000
,
00000001
00000000
00000000
00000010
00000000
00000000
00000001
00000000
00000000
00000100
00000000
00000000
00000010
00000000
00001000
00000000
00000010
00000000
00001000
00000000
00000000
00000001
00000000
00000000
,
00000010
00000000
00000000
00000100
00000000
00000000
00001000
00000000
00000000
00000001
00000000
00000000
00001000
00000000
00000100
00000000
00001000
00000000
00000100
00000000
00000000
00000010
00000000
00000000
,
00000001
00000000
00000100
00000000
00000001
00000000
00000100
00000000
00000000
00000010
00000000
00000000
00010000
00000000
00001000
00000000
00010000
00000000
00001000
00000000
00000000
00100000
00000000
00000000
,
00010000
10000000
01000000
00010000
01000000
10000000
00010000
00100000
,
01000000
00000000
00000000
10000000
00000000
00000000
01000000
00000000
00000000
10000000
00000000
00000000
00010000
00000000
00000000
00000000
00100000
00000000
00000000
00000000
00010000
00000000
00000000
00000000
00100000
00000000
00000000
00000000
00000000
00000000
01000000
00000000
00000000
00000000
00000000
00000000
00010000
00000000
00000000
00000000
00000000
00000000
00001000
00000000
00000000
00000000
00000000
00000000
,
00000100
00000010
00000100
00000001
00000100
00000001
00002000
00000000
,
00003001
00000000
00000010
00000000
00000001
00000000
00000010
00000000
00000000
00001000
00000000
00000000
00000010
00000000
00000000
00000001
00000000
00000000
00001000
00000000
00000000
00000100
00000000
00000000
,
00010000
00001000
00000010
00001000
00010000
00000100
00010000
00001000
,
00100000
00000000
00010000
00000000
00100000
00000000
00010000
00000000
00000000
00100000
00000000
00000000
01000000
00000000
00000000
10000000
00000000
00000000
00010000
00000000
00000000
00100000
00000000
00000000
,
00001000
00010000
00100000
00000000
00100000
00010000
00001000
00000000
00010000
00000000
00010000
00000000
00010000
00000000
00010000
00000000
,
00010000
00010000
00010000
00010000
00010000
00010000
00010000
00010000
,
00010000
00010000
00010000
00010000
00010000
00010000
00010000
00010000
,
00010000
00010000
00010000
00010000
00010000
00000000
00101000
00000000
,
00010010
00000000
00011000
00000000
00001000
00001000
00001000
00001000
,
00001000
00001000
00001000
00001000
00001000
00001000
00001000
00001000
,
00001000
00001000
00001000
00001000
00001000
00000000
00010010
00000000
,
00100000
00000000
00001000
00000000
00010000
00000000
00001000
00000000
00000000
00010000
00000000
00000000
00000100
00000000
00010000
00000000
00001000
00000000
00010000
00000000
00000000
00001000
00000000
00000000
,
01000000
00000000
00001000
00000000
00010000
00000000
00001000
00000000
00000000
00010000
00000000
00000000
00022000
00000000
00000000
00000000
00000000
00000000
00033000
00000000
00000000
00000000
00000000
00000000
;

//---------------dance-double - ----------------
#NOTES:
     dance-double:
     :
     Hard:
     18:
     1.024771,1.588857,0.501052,0.517754,0.396666,859.000000,799.000000,60.000000,62.000000,0.000000,0.000000,1.024771,1.588857,0.501052,0.517754,0.396666,859.000000,799.000000,60.000000,62.000000,0.000000,0.000000:
00000000
00000000
00000000
00000000
,
00000000
00000000
00000000
00000000
,
00000000
00000000
00000000
00000000
,
00000000
00000000
00000000
00000000
,
00000000
00000000
00000000
00000000
,
10000000
01000000
10000000
01000000
00100000
00001000
00100000
00001000
,
00010000
00000010
00010000
00000010
00000100
00000001
00000100
00000001
,
00001000
00000100
00001000
00000100
00000010
00000001
00000010
00000001
00000100
00000010
00000100
00000010
00001000
00000001
00001000
00000001
,
00000010
00000100
00000010
00000001
00000100
00000010
00001000
00000100
00010000
00001000
00010000
00001000
00100000
00000000
00000000
00000000
,
01100000
00000000
01100000
00000000
10000000
00100000
00000000
00010000
,
00100000
00010000
00000000
00001000
00010000
00001000
00000000
00010000
,
01000000
00000000
01100000
00000000
10000000
01000000
00010000
01000000
,
00200000
00000000
00000000
00000000
00301000
00010000
00002000
00003000
,
00011000
00000000
00010000
00100000
10000000
00010000
10000000
00010000
,
00100000
01000000
00100000
01000000
00010000
00001000
00010000
00001000
,
00100000
00010000
01000000
00001000
00010000
00000010
00001000
00000100
,
00000010
00001100
00001001
00000101
,
00000110
00000000
00001000
00000100
00000010
00000001
00000010
00000001
,
00001000
00000010
00001000
00000010
00020000
00031000
01000000
00001000
,
00020000
01030000
00010000
00002000
00013000
00001000
00000200
00001300
,
00000100
00000000
00000110
00000000
00001010
00000000
00000001
00000010
,
00000100
00000000
00000010
00000100
00010000
00001000
00010000
00001000
,
00200000
00310000
10000000
01000000
00100000
00001000
00010000
00001000
,
01000000
00010000
01000000
00100000
01000000
00010000
00200000
01300000
,
00100000
00000000
01000000
00000000
10000000
00000000
01000000
00000000
00100000
00000000
00010000
00000000
,
10000000
00000000
00100000
01000000
00020000
10030000
00010000
10000000
,
00100000
01000000
00010000
01000000
00100000
00010000
00000000
00001000
,
00020000
00000000
00000000
00000000
,
00030020
00000000
00000000
00000000
00010030
00001000
00020000
00030000
,
00011000
00001000
00000010
00000010
,
00000001
00000000
00000001
00000000
00000100
00000000
00000100
00000010
,
00000100
00000100
00001000
00001000
,
00010000
00000000
00010000
00000000
01000000
00100000
01000000
00000000
,
10000000
10000000
00100000
00100000
,
00010000
00000000
00000000
00010000
00000000
00000000
00001000
00000000
00000100
00000000
00000001
00000000
,
00001000
00000000
00000020
00000130
00000001
00000010
00000000
00000100
,
00001000
00000000
00000000
00011000
00000000
00010000
00100000
01000000
,
20000000
00000000
31000000
00100000
01000000
00000000
10010000
00000000
,
00010000
00000000
01000000
00000000
00100000
10000000
00100000
00000000
,
10000000
00000000
01000000
00000000
01000000
00000000
00010000
00001000
,
00010000
00001000
00000000
00110000
00000000
00001000
00010000
00000000
,
00011000
00010000
01000000
00000000
,
00011000
00001000
00000100
00000110
,
00000001
00000100
00000000
00000010
00002000
00000000
00003000
00000000
,
00000220
00000000
00000330
00001002
,
00000000
00000013
00000000
00002000
,
00000000
00000000
00013000
00000000
00000000
00000000
00100000
10000000
,
00100000
10000000
00010000
00100000
00010000
00100000
01000000
10000000
,
00010000
00100000
01000000
00000000
10000000
00000000
20020000
30030000
,
00010000
01000000
00010000
01000000
00200000
00000000
00000000
00000000
10300000
01000000
10000000
01000000
00200000
00000000
00000000
00000000
,
01300000
10000000
01000000
10000000
00020000
00000000
00000000
00000000
01030000
00100000
01000000
00100000
00020000
00000000
00031000
00000000
,
00002001
00000000
00000000
00000000
00003010
00000100
00000010
00000100
00000002
00000000
00000000
00000000
00000103
00000010
00000100
00000010
,
00001000
00000100
00000010
00000100
,
00001100
00000000
00000000
00000011
00000000
00000000
00001010
00000000
,
00020000
00000000
00000000
00000000
00031000
00100000
00010000
00100000
00002000
00000000
00000000
00000000
00013000
01000000
10000000
01000000
,
00100000
00000000
00100000
00000000
01000000
10000000
00010000
00000000
20000000
00000000
30100000
01000000
00010000
01000000
00010000
00100000
,
01000000
00000000
10000000
00000000
00010000
00000000
00010000
00000000
00200000
00000000
01300000
10000000
00010000
01000000
00010000
01000000
,
00100000
10000000
00020000
00030000
00012000
00003010
00001002
00000000
,
00000013
00000100
00001000
00000100
00000020
00000000
00000000
00000000
00000130
00010000
00001000
00010000
00000200
00000000
00000000
00000000
,
00001300
00000010
00000100
00000010
00002000
00000000
00000000
00000000
00003010
00010000
00001000
00010000
00002000
00000000
00000000
00000000
,
00013000
00001000
00010000
00001000
00100000
00000000
00000000
01010000
00000000
00000000
11000000
00000000
00100000
00000000
00100000
00000000
,
00010000
00000000
01000000
00000000
01200000
00000000
10300000
00000000
20010000
00000000
00000000
00000000
31000000
00100000
00010000
00100000
,
02000000
00000000
00000000
00000000
03100000
00001000
00010000
00001000
00100000
00000000
00010000
00000000
01000000
00100000
01000000
00000000
,
00020000
00000000
00000000
01030000
00001000
00000000
00010000
00000000
00000100
00010000
00000100
00010000
00001000
00000000
00000100
00000000
,
00000010
00000000
00001001
00000000
00000001
00000100
00000010
00000000
00001000
00000100
00000010
00000000
00000100
00000000
00000000
00000000
,
00020000
00000000
01000000
01000000
00000000
00000000
01000000
00000000
,
00032000
00000000
00000010
00000010
00000000
00000000
00000010
00000000
,
00023000
00000000
00100000
00100000
00000000
00000000
00100000
00000000
,
00032000
00000000
00000100
00000100
00000000
00000000
00003100
00000000
,
00000001
00000100
00000001
00000100
00000010
00010000
00000010
00010000
,
00001000
00100000
00001000
00100000
01000000
10000000
01000000
10000000
,
00010000
01000000
00010000
01000000
00100000
10000000
00100000
10000000
01000000
00100000
01000000
00100000
00010000
10000000
00010000
10000000
,
01000000
00010000
00001000
00000100
00000002
00000000
00000020
00000033
00000110
00000000
00000000
00000000
00000110
00000000
00000000
00000000
,
00000001
00001000
00000010
00000000
00000101
00000000
00000101
00000000
,
00000100
00001000
00010000
00000000
00011000
00000000
00011000
00000000
,
00010000
01000000
10000000
00000000
01100000
00000000
01100000
00000000
,
20020000
30030000
01100000
01100000
,
10000000
00010000
01000000
00000000
10100000
00000000
10100000
00000000
,
00100000
00010000
00001000
00000000
00011000
00000000
00011000
00000000
,
00001000
00000010
00000001
00000000
00000110
00000000
00000110
00000000
,
00002002
00000000
00000000
00000000
00003003
00000000
00000000
00000000
00000110
00000000
00000001
00000000
00000010
00000100
00001000
00000100
,
00000010
00000000
00001000
00000000
00010000
00000000
00100000
00000000
10000000
00000000
10000000
00000000
01000000
00100000
00010000
00100000
,
01000000
00000000
00010000
00000000
00001000
00000000
00000100
00000000
00000001
00000100
00000010
00001000
00000001
00000100
00000010
00000100
,
00000001
00000010
00000001
00001000
00000100
00000010
00001000
00010000
00002000
00000000
00003000
00000000
00010000
01000000
20000000
30000000
,
10010000
00000000
00010000
01000000
00100000
01000000
00010000
01000000
,
00001000
00010000
00001000
00100000
,
01000000
00000000
10000000
00010000
10000000
01000000
10000000
00100000
,
00010000
00000000
00001000
00000000
00000100
00000000
00000010
00001000
,
00000010
00000000
00000100
00000001
00000010
00000100
00000010
00000001
,
00001000
00000010
00000100
00000001
,
00000100
00000000
00000010
00010000
00000010
00010000
00001000
00000000
,
00100000
00110000
00001000
00011000
,
02000000
00000000
03100000
10000000
00010000
00000000
10010000
00000000
,
00010000
00100000
01000000
10000000
,
01000000
00100000
02000000
00000000
03010000
00001000
00000010
00000100
,
00001000
00000000
00000000
00000001
00000000
00000000
00001000
00000000
00000000
00000001
00000000
00000000
00000100
00000000
00000000
00000000
00000010
00000000
00000000
00000000
00010000
00000000
00000000
00000000
,
00001000
00010000
00001000
00010000
00001000
00000000
00110000
00000000
,
01000000
00000000
10000000
00000000
00010000
00000000
01000000
00010000
,
01000000
00100000
10000000
00010000
,
00200000
00000000
00000000
00000000
01300000
10000000
01000000
10000000
00010000
00000000
00100000
00000000
00010000
00000000
00100000
00000000
,
00001000
01000000
00010000
01000000
00100000
10000000
00100000
10000000
,
00100000
01000000
00010000
10000000
01000000
00100000
01000000
10000000
,
00010000
00100000
00010000
01000000
00001000
00010000
00001000
00010000
,
00000010
00001000
00000010
00001000
00000001
00000010
00000100
00001000
,
00000100
00010000
00001000
00100000
00001000
00010000
00000010
00010000
,
00000010
00001000
00000001
00001000
00000010
00000100
00000001
00001000
,
00000100
00000010
00000001
00000100
00000010
00001000
00000020
00000000
,
00010030
00001000
00020000
00000000
00031000
00100000
01000000
10000000
,
00010000
01000000
00100000
10000000
00010000
00100000
01000000
10000000
,
00010000
00100000
01000000
10000000
00010000
00000000
01000000
00000000
00100000
00000000
10000000
00000000
00100000
00000000
01000000
00000000
,
00010000
00100000
01000000
10000000
01000000
10000000
00020000
00000000
,
00130000
01000000
00010000
00001000
00010000
00001000
00100000
00010000
,
01000000
00001000
00010000
00000010
00001000
00000001
00000010
00000100
,
00000010
00001000
00010000
00100000
10000000
01000000
10000000
00010000
,
00100000
01000000
00100000
00000000
00010000
10000000
00010000
00000000
01000000
00000000
00100000
00000000
01000000
00000000
00100000
00000000
,
01000000
00100000
01000000
00100000
01000000
00100000
01000000
00100000
,
01000000
00100000
01000000
00100000
01000000
00100000
01000000
00100000
,
01000000
00100000
01000000
00100000
01000000
00000000
01010000
00000000
,
00011000
00000000
00001100
00000000
00000100
00000010
00000100
00000010
,
00000100
00000010
00000100
00000010
00000100
00000010
00000100
00000010
,
00000100
00000010
00000100
00000010
00000100
00000000
00001001
00000000
,
00000001
00000010
00000100
00001000
00000010
00000100
00001000
00010000
,
01000000
10000000
00010000
00100000
02200000
00000000
03300000
00000000
;

//---------------dance-double - ----------------
#NOTES:
     dance-double:
     :
     Medium:
     16:
     0.829122,1.383844,0.242175,0.501052,0.212947,695.000000,666.000000,29.000000,60.000000,0.000000,0.000000,0.829122,1.383844,0.242175,0.501052,0.212947,695.000000,666.000000,29.000000,60.000000,0.000000,0.000000:
00000000
00000000
00000000
00000000
,
00000000
00000000
00000000
00000000
,
00000000
00000000
00000000
00000000
,
00000000
00000000
00000000
00000000
,
00000000
00000000
00000000
00000000
,
00100000
00001000
00100000
00001000
00010000
00001000
00010000
00001000
,
00000100
00001000
00000100
00001000
00010000
00001000
00010000
00001000
,
00010000
00010000
01000000
01000000
10000000
10000000
00100000
00100000
,
00010000
00001000
00010000
00000000
00000100
00001000
00000100
00000000
00000010
00000001
00000010
00000001
00000100
00000000
00000000
00000000
,
00000110
00000000
00000010
00000000
00001000
00000001
00000000
00000001
,
00000010
00000100
00000000
00000100
00010000
00001000
00000000
00001000
,
00100000
00000000
00010000
00000000
10000000
00100000
01000000
00000000
,
02200000
00000000
03300000
00000000
00100000
10000000
00020000
00030000
,
10010000
00000000
10000000
01000000
00100000
00010000
00100000
00010000
,
10000000
01000000
10000000
01000000
00100000
00010000
00100000
00001000
,
00010000
00001000
00100000
00001000
00010000
00001000
01000000
00100000
,
10000000
00100000
00010000
00001000
,
00011000
00000000
00010000
00000100
00001000
00000100
00001000
00000100
,
00000010
00000001
00000010
00000001
00002000
00003010
00000100
00000001
,
00000200
00000310
00001000
00000020
00000130
00000001
00000200
00001300
,
00010000
00000000
00011000
00000000
00000100
00000000
00000010
00001000
,
00010000
00000000
01000000
10000000
00010000
01000000
00010000
01000000
,
00200000
10300000
00100000
10000000
00010000
00100000
01000000
00100000
,
00001000
00010000
00001000
00010000
00000100
00010000
00002000
01003000
,
00001000
00000000
00010000
00000000
01000000
00000000
00010000
00000000
00001000
00000000
00000100
00000000
,
00000001
00000000
00000100
00000010
00002000
00003010
00010000
00001000
,
01000000
00001000
00010000
00001000
00100000
01000000
00000000
01000000
,
20000000
00000000
00000000
00000000
,
00200000
00000000
30300000
00000000
,
01000000
00100000
10000000
00100000
,
01000000
00000000
00010000
00000000
10000000
00000000
01000000
00100000
,
01000000
00010000
00001000
00000100
,
00000001
00000000
00000010
00000000
00000100
00000010
00000100
00000000
,
00000010
00001000
00010000
00000100
,
00000010
00000000
00000000
00000001
00000000
00000000
00000100
00000000
00000010
00000000
00001000
00000000
,
00000010
00000000
00000100
00001000
00010000
00001000
00000000
00010000
,
00001000
00000000
00000000
01100000
00000000
00010000
10000000
00000000
,
00020000
00000000
00130000
01000000
00100000
00000000
00010000
00000000
,
10000000
00000000
00100000
00000000
01000000
00010000
10000000
00000000
,
00100000
00000000
01000000
00000000
00001000
00000000
00010000
00001000
,
00010000
00001000
00000000
00100000
00000000
00010000
00000000
00000000
,
10000000
01000000
01000000
00000000
,
00010000
00001000
00001000
00000100
,
00000001
00001000
00000000
00000100
00000020
00000000
00000030
00000000
,
00000220
00000000
00000330
00002000
,
00000000
00013000
00000000
00200000
,
00000000
00000000
10300000
00000000
00000000
00000000
00100000
01000000
,
00010000
10000000
00100000
01000000
00010000
10000000
01000000
00100000
,
00010000
00100000
01000000
00000000
10000000
00000000
20020000
30030000
,
00010000
10000000
00200000
00000000
00310000
00010000
02000000
00000000
,
03010000
00010000
00002000
00000000
00013000
00010000
00200000
01300000
,
20010000
00000000
30100000
00100000
00020000
00000000
01030000
01000000
,
10000000
01000000
00100000
00010000
,
00011000
00000000
00000000
00001100
00000000
00000000
00000110
00000000
,
00000021
00000000
00000000
00000000
00000130
00000000
00001000
00000000
00000020
00000000
00000000
00000000
00000130
00000001
00001000
00000000
,
00000100
00000000
00000100
00000000
00000010
00000100
00000010
00000000
00000002
00000000
00001003
00000100
00010000
00001000
00010000
00000010
,
00001000
00000000
00000001
00000000
00000010
00000000
00000100
00000000
00020000
00000000
00031000
00010000
00001000
01000000
00100000
10000000
,
00010000
00100000
02000000
03000000
20010000
31000000
10020000
00000000
,
01030000
00000000
00001000
00010000
00001000
00000000
00000000
00110000
00000000
00000000
01100000
00000000
12000000
00000000
00000000
00000000
,
03020000
00000000
02030000
00000000
13000000
00100000
00020000
00000000
,
00031000
00000000
00000010
00000001
00001000
00000000
00000000
00001100
00000000
00000000
00000110
00000000
00000001
00000000
00000001
00000000
,
00000100
00000010
00002000
00003100
00021000
00000000
01030000
00000000
,
20000000
00000000
00000000
00000000
30010000
00100000
00010000
00000000
10000000
00000000
10000000
00000000
00100000
01000000
00100000
00000000
,
10000000
00000000
00000000
01100000
00000000
00000000
10000000
00000000
00010000
00000000
00100000
01000000
00100000
00000000
01000000
00000000
,
10000000
00000000
01000000
00000000
00010000
00001000
00010000
00000000
00001000
00000010
00000001
00000000
00000010
00000000
00000000
00000000
,
00000200
00000000
00000000
00000001
,
00020300
00000000
00000000
00030000
,
00002000
00000000
00003200
00000320
,
00002030
00000000
00000000
00003000
,
00000010
00000100
00000010
00000100
00001000
00010000
00001000
00010000
,
00100000
01000000
00100000
01000000
00001000
00010000
00001000
00010000
,
00001000
00000010
00001000
00000000
00000010
00000001
00000010
00000000
00000001
00000100
00000001
00000000
00000100
00001000
00000100
00000000
,
00000010
00000100
00000001
00000010
00002000
00000000
00020000
00033000
00011000
00000000
00000000
00000000
00001000
00000000
00000000
00000000
,
01000000
00100000
00000000
00100000
10000000
00000000
00010000
00000000
,
10000000
01000000
00000000
01000000
00100000
00000000
01000000
00000000
,
00010000
00001000
00000000
00001000
00000100
00000000
00000010
00000000
,
00000220
00000330
00001001
00000001
,
00001000
00000100
00000000
00000100
00000010
00000000
00000001
00000000
,
00001000
00000010
00000000
00000010
00000100
00000000
00000001
00000000
,
00000010
00001000
00000000
00001000
00010000
00000000
00100000
00000000
,
02200000
00000000
00000000
00000000
03300000
00000000
00000000
00000000
10010000
00000000
00010000
00000000
00100000
01000000
00100000
01000000
,
00100000
00000000
00010000
00000000
10000000
00000000
01000000
00000000
00010000
00000000
00001000
00000000
00000100
00000010
00000100
00000010
,
00000100
00000000
00000001
00000000
00000010
00000000
00001000
00000000
00010000
00001000
00010000
00001000
00100000
00010000
00100000
00010000
,
10000000
01000000
00100000
00010000
01000000
00100000
10000000
01000000
00200000
00000000
00300000
00000000
01000000
00100000
02000000
03000000
,
10010000
00000000
00010000
01000000
00010000
10000000
00010000
00100000
,
00010000
10000000
01000000
00100000
,
00001000
00000000
00010000
00000000
00000010
00001000
00000010
00000100
,
00000010
00000000
00000001
00000000
00000010
00000000
00001000
00000001
,
00001000
00000000
00000001
00000000
00000010
00000100
00000010
00000100
,
00001000
00000001
00000010
00001000
,
00010000
00000000
00100000
10000000
00100000
10000000
00010000
00000000
,
00100000
01000000
10000000
01000000
,
00200000
00000000
00301000
00010000
00001000
00000000
01000000
00000000
,
00001000
00010000
01000000
00010000
,
00001000
00010000
00002000
00000000
00003100
00000000
00000010
00000000
,
00001000
00000000
00000000
00000010
00000000
00000000
00001000
00000000
00000000
00000010
00000000
00000000
00001000
00000000
00000000
00000000
00000100
00000000
00000000
00000000
00010000
00000000
00000000
00000000
,
00001000
00010000
00001000
00010000
00001000
00000000
00010000
00000000
,
01000000
00000000
10000000
00000000
00010000
00000000
10000000
01000000
,
00100000
00010000
01000000
00100000
,
20000000
00000000
30020000
00000000
10030000
01000000
10000000
00000000
,
01000000
00000000
00100000
00000000
00001000
00010000
00001000
00000000
,
00000100
00000000
00000001
00000000
00001000
00000010
00001000
00000000
,
00000100
00000000
00000010
00000000
00000001
00000010
00000001
00000000
,
00001000
00000100
00001000
00000000
00000010
00001000
00000010
00000000
,
00000100
00000000
00001000
00000000
00010000
00100000
00010000
00000000
,
00001000
00000000
00010000
00000000
01000000
10000000
01000000
00000000
,
00100000
00000000
00010000
00000000
10000000
01000000
10000000
00000000
,
00010000
01000000
00100000
00000000
00010000
00001000
00010000
00000000
,
00001000
00000010
00000001
00000010
,
00000100
00010000
01000000
10000000
,
00100000
00000000
00010000
00001000
00010000
00000000
00002000
00000000
,
00003010
00000100
00000010
00000000
00001000
00000000
00010000
00000000
,
00000100
00010000
00000010
00010000
,
00001000
00000010
00000001
00000100
,
00001000
00010000
00001000
00000000
00010000
00001000
00010000
00000000
00001000
00000000
00000000
00000000
00001000
00000000
00000000
00000000
,
00001000
00001000
00001000
00001000
,
00001000
00001000
00001000
00001000
,
00001000
00001000
00001000
00100000
,
01000000
01100000
00010000
00010000
,
00010000
00010000
00010000
00010000
,
00010000
00010000
00010000
00001000
,
00000010
00000100
00000000
00001000
00000001
00000010
00000000
00000100
,
00001000
00000001
00000000
00000100
00002000
00000000
00003000
00000000
;

//---------------dance-double - ----------------
#NOTES:
     dance-double:
     :
     Easy:
     13:
     0.629894,1.025069,0.242175,0.367438,0.012526,528.000000,499.000000,29.000000,44.000000,0.000000,0.000000,0.629894,1.025069,0.242175,0.367438,0.012526,528.000000,499.000000,29.000000,44.000000,0.000000,0.000000:
00000000
00000000
00000000
00000000
,
00000000
00000000
00000000
00000000
,
00000000
00000000
00000000
00000000
,
00000000
00000000
00000000
00000000
,
00000000
00000000
00000000
00000000
,
10000000
01000000
10000000
01000000
00010000
00001000
00010000
00001000
,
00000100
00000001
00000100
00000001
00000010
00001000
00000010
00001000
,
00100000
00001000
00010000
00100000
10000000
00100000
10000000
00010000
,
00100000
01000000
10000000
00100000
00010000
00010000
00001000
00000000
,
00011000
00000000
00010000
00000000
01000000
00010000
00000000
00000000
,
00001000
00000100
00000000
00000000
00001000
00010000
00000000
00000000
,
00011000
00010000
00001000
00000010
,
00000021
00000000
00000130
00000010
,
00001001
00000010
00000010
00000010
,
00000010
00000010
00000010
00000010
,
00000010
00000010
00000010
00000010
,
00000100
00001000
00010000
00100000
,
01100000
00010000
00010000
00010000
,
00010000
00010000
00001000
00010000
,
10000000
00000000
00000000
11000000
00000000
00000000
01010000
00000000
,
00100000
00100000
01000000
00100000
,
10010000
01000000
01000000
01000000
,
01000000
01000000
00010000
00001000
,
00000010
00000001
00001000
00000010
,
00000100
00000100
00000010
00000010
,
00001001
00000001
00000010
00000010
,
00001000
00001000
00010000
00000000
,
20020000
00000000
00000000
30030000
,
02200000
00000000
03300000
00000000
,
10000000
01000000
10000000
01000000
,
00100000
00010000
00100000
00010000
,
00001000
00000100
00001000
00000100
,
00000010
00000001
00000100
00000000
,
00000001
00000100
00000001
00000100
,
00000010
00001000
00000010
00001000
,
00010000
01000000
00010000
01000000
,
00100000
00000000
00000000
10000000
00000000
00000000
01000000
00000000
,
00200000
01300000
10000000
00010000
,
00100000
00010000
00100000
00001000
,
00010000
00001000
00010000
00000010
,
00000000
00001000
00000000
00001000
00000000
00001000
00000000
00000000
,
00000001
00000010
00000001
00000000
,
00001000
00000100
00001000
00000010
,
00000000
00000100
00000000
00000000
00000020
00000000
00000030
00000000
,
00002002
00000000
00003003
00000002
,
00000000
00000013
00000000
00002000
,
00000000
00013000
00000000
01000000
,
10000000
00010000
10000000
00100000
,
00010000
00001000
00000000
00011000
,
00001000
01000000
00200000
00000000
01300000
00010000
00200000
00000000
,
01300000
00010000
00002000
00000000
00003020
00000000
00002030
00013000
,
00021000
00000000
00031000
00000100
00000020
00000000
00001030
00000001
,
00000010
00001000
00010000
00001000
,
00000100
00000000
00000000
00000001
00000000
00000000
00000010
00000000
,
00000021
00000000
00000130
00010000
00002000
00000000
00103000
00010000
,
01000000
01000000
00100000
00000000
00010000
00100000
01000000
00100000
,
10000000
01000000
00010000
00000000
00001000
00000100
00000010
00000100
,
00000001
00000010
00001000
00000000
00020100
00001000
00030020
00000000
,
00000130
00001000
00020000
00000000
01030000
00000000
00020000
00000000
,
00031000
00000000
00000200
00000000
00000301
00001000
00000200
00000000
,
00000310
00000000
00000000
00000000
00001000
00000000
00000000
00001000
00000000
00000000
00010000
00000000
00100000
00000000
00100000
00000000
,
10000000
00010000
00200000
01300000
20010000
00000000
30100000
01000000
,
00020000
00000000
00130000
01000000
00100000
00010000
10000000
00000000
,
00200000
00310000
00002000
00003010
,
00000100
00001000
00000100
00001000
00000001
00000001
00000100
00000000
,
00002000
00000000
00000000
00000100
,
00020000
00000000
00000000
00033000
,
02000000
00000000
10000000
00000000
,
00020000
00000000
00000000
03030000
,
10000000
01000000
10000000
01000000
00010000
00001000
00010000
00001000
,
00000100
00000001
00000100
00000001
00000010
00001000
00000010
00001000
,
00100000
00001000
00010000
00100000
10000000
00100000
10000000
00010000
,
00100000
01000000
10000000
00100000
00020000
00000000
00031000
00000000
00011000
00000000
00000000
00000000
00010000
00000000
00000000
00000000
,
01000000
00000000
00011000
00001000
,
00000100
00000000
00011000
00010000
,
00100000
00000000
00011000
00010000
,
00002000
00003000
00011000
00001000
,
00000010
00000000
00011000
00010000
,
00100000
00000000
00011000
00001000
,
00000100
00000000
00011000
00001000
,
00020000
00000000
00030000
00000000
01000000
10000000
01000000
10000000
,
00100000
00010000
00001000
00000000
00000100
00000001
00000100
00000001
,
00000010
00001000
00010000
00000000
01000000
10000000
00100000
00010000
,
00001000
00010000
01000000
10000000
00200000
00300000
01000000
00010000
,
10000000
01000000
00100000
01000000
,
10000000
01000000
00010000
00010000
,
00001000
00000100
00000010
00000100
,
00001000
00000100
00000001
00000001
,
00000010
00001000
00000001
00000100
,
00001000
00000001
00000010
00000010
,
00001000
00010000
00100000
10000000
,
00010000
00100000
01000000
10000000
,
00020000
00130000
00010000
10000000
,
01000000
10000000
00100000
01000000
,
00001000
00010000
00001000
00100000
,
00010000
10000000
01000000
10000000
,
00100000
00010000
00100000
00010000
,
00001000
00010000
00001000
00010000
,
00000100
00001000
00000100
00000010
,
00000002
00000000
00001003
00000100
,
00000001
00000100
00001000
00000001
,
00000010
00001000
00010000
01000000
,
10000000
00100000
00010000
00010000
,
00100000
00100000
10000000
00010000
,
00100000
10000000
00010000
01000000
,
10000000
01000000
00010000
00001000
,
00000100
00000001
00000010
00000010
,
00001000
00001000
00000010
00000001
,
00000100
00000010
00010000
00001000
,
00010000
01000000
10000000
00010000
,
10000000
00100000
00010000
00002000
,
00013000
00001000
00100000
00001000
,
00010000
00000010
00000100
00000001
,
00001000
00000100
00000010
00001000
,
00010000
00011000
00100000
01000000
,
00100000
01000000
00100000
01000000
,
00100000
01000000
00100000
01000000
,
00100000
01000000
00100000
00001000
,
00010000
00011000
00000010
00000100
,
00000010
00000100
00000010
00000100
,
00000010
00000100
00000010
00001001
,
00000001
00000010
00000000
00000000
00000100
00001000
00000000
00000000
,
00010000
00100000
00000000
00000000
22000000
00000000
33000000
00000000
;
